#TITLE:NEVER GONNA MAKE (FACTORY DANCE TEAM MIX);
#ARTIST:MORGANA;
#BANNER:NEVER GONNA MAKE (FACTORY DANCE TEAM MIX)-bn.png;
#BACKGROUND:NEVER GONNA MAKE (FACTORY DANCE TEAM MIX)-bg.png;
#JACKET:NEVER GONNA MAKE (FACTORY DANCE TEAM MIX)-jacket.png;
#DISCIMAGE:;
#MUSIC:NEVER GONNA MAKE (FACTORY DANCE TEAM MIX).ogg;
#SAMPLESTART:47.652;
#SAMPLELENGTH:20;
#DISPLAYBPM:136;
#BPMS:0=135.987;
#BGCHANGES:;

//---------------dance-single - ----------------
#NOTES:
     dance-single:
     :
     Beginner:
     3:
     :
0000
0000
0000
0000
,
0000
0000
0000
0000
,
0000
0000
0000
0000
,
0000
0000
0000
0000
,
0000
0000
0000
0000
,
1000
0000
0001
0000
,
0110
0000
0000
0000
,
1001
0000
0000
0000
,
1001
0000
0000
0000
,
0010
0000
0001
0000
,
0010
0000
1000
0000
,
0010
0010
0000
0000
,
0001
0001
0000
0000
,
0010
0000
0001
0000
,
0001
0001
0001
0000
,
0010
0010
0000
0000
,
1000
1000
0000
0000
,
0010
0000
1000
0000
,
1000
1000
1000
0000
,
1001
0000
0010
0000
,
0100
0000
0010
0000
,
0001
0000
0001
0000
,
1000
0000
1000
0000
,
0100
0000
0000
0000
,
0010
0000
0100
0000
,
1000
1000
1000
0000
,
0001
0001
0001
0000
,
0010
0000
0001
0000
,
0010
0000
0001
0000
,
1000
0000
1000
0000
,
0010
0010
0010
0010
,
0010
0000
1000
0000
,
0010
0000
1000
0000
,
0001
0000
0001
0000
,
0010
0010
0010
0010
,
0010
0000
0000
0000
,
0001
0000
0000
0000
,
0100
0000
0000
0000
,
1000
0000
0000
0000
,
0001
0001
0001
0000
,
1000
1000
1000
0000
,
1001
0000
0000
0000
,
1001
0000
0000
0000
,
0010
0000
0001
0000
,
0010
0000
1000
0000
,
1001
0000
0000
0000
,
1001
0000
0000
0000
,
0010
0000
0001
0000
,
1000
0000
1001
0000
;

//---------------dance-single - ----------------
#NOTES:
     dance-single:
     :
     Easy:
     6:
     :
0000
0000
0000
0000
,
0000
0000
0000
0000
,
0000
0000
0000
0000
,
0000
0000
0000
0000
,
0000
0000
0000
0000
,
1000
0010
1000
0100
,
1000
1000
0001
0000
,
0100
0100
0001
0001
,
1000
1000
0010
0010
,
0100
0100
0001
1000
,
0010
1000
0001
0100
,
0001
0000
0001
1000
,
0010
0100
0000
0000
,
0001
0000
0010
0000
,
0100
0000
0000
0100
,
1000
0000
1000
0001
,
0100
0010
0000
0100
,
0001
0000
0100
0010
,
1000
0000
0000
1001
,
0100
0001
1000
0010
,
0100
0100
0000
0001
,
1000
1000
0010
0100
,
0001
0000
0001
1000
,
0100
0000
0100
0010
,
1000
0000
1000
0000
,
0001
0000
0001
0100
,
0010
1000
1001
1001
,
0100
0001
0100
1000
,
0100
0001
0100
1000
,
0001
0000
0100
0000
,
0100
0000
0001
1000
,
0010
0001
0010
1000
,
0010
0001
0010
1000
,
0001
0000
0001
0000
,
0100
0000
0100
1001
,
0010
0000
0001
0000
,
0100
0000
0000
0001
,
1000
0000
0010
0000
,
0100
0000
0000
0001
,
1000
1000
0010
0100
,
0001
0001
1000
0010
,
0100
0100
0001
0001
,
1000
1000
0010
0010
,
0100
0100
0001
1000
,
0010
1000
0001
0100
,
0010
0010
1000
1000
,
0001
0001
0100
0100
,
0001
0001
1000
0010
,
0100
0010
1000
0001
;

//---------------dance-single - ----------------
#NOTES:
     dance-single:
     :
     Medium:
     8:
     :
0000
0000
0000
0000
,
0000
0000
0000
0000
,
0000
0000
0000
0000
,
0000
0000
0000
0000
,
0000
0000
0000
0000
,
1000
0000
0000
0000
0010
0000
1000
0001
,
0100
0000
0000
0000
0001
0000
1000
0001
,
0100
0000
0100
0010
1000
0000
1000
0000
,
0001
0000
0001
0100
0010
0000
0010
0000
,
1000
0000
1000
0001
0100
0000
0010
1000
,
0001
0001
0100
0010
,
1000
0000
0000
0001
0100
0000
0100
0000
,
0010
1000
0001
0001
,
0100
0000
0000
0000
0100
0010
1000
0000
,
0001
0000
0100
0100
,
0010
0000
0000
1000
0001
0000
0100
0000
,
0001
0001
1000
0010
,
1000
0000
0000
0000
1000
0010
0100
0000
,
0001
0000
1000
0000
1000
0010
0010
0100
,
0001
0000
0001
1100
,
0010
0000
1000
0000
0000
0000
0001
0001
,
0100
0000
0010
1000
,
0001
0000
0000
0000
0100
0000
0100
0010
,
1000
0001
0100
0010
,
1000
0000
1000
0001
,
0100
0000
0010
0000
1000
0001
1000
0000
,
0010
0100
1001
1100
,
0001
0101
1000
1100
,
0001
0011
1000
1010
,
0100
0000
0100
0001
,
1000
0010
0100
0001
0000
1000
0000
0000
,
0001
0011
1000
1100
,
0001
0101
1000
1010
,
0100
0000
0100
0001
,
1000
0001
0100
0010
0000
1000
0000
0000
,
0001
0000
0001
1000
0010
0000
1010
0000
,
0001
0000
0100
0000
1000
0001
1000
0001
,
0100
0000
0000
0001
1000
0000
1001
0000
,
0100
0000
0010
0000
1000
0001
0100
0010
,
1000
0000
1000
1001
,
0100
0000
0100
0110
,
1000
0000
1000
0010
0100
0000
0100
0000
,
0001
0000
0001
0100
0010
0000
0010
0000
,
1000
0000
1000
0001
0100
0000
0010
1000
,
0001
0001
0100
0010
,
1000
0000
1000
0010
0100
0000
0100
0001
,
0010
0000
0010
0100
1000
0000
1000
0010
,
0100
0000
0100
0001
1000
0000
0010
0100
,
0001
0000
1000
0010
0100
0000
0100
0001
;

//---------------dance-single - ----------------
#NOTES:
     dance-single:
     :
     Hard:
     10:
     :
0000
0000
0000
0000
,
0000
0000
0000
0000
,
0000
0000
0000
0000
,
0000
0000
0000
0000
,
0000
0000
0000
0000
,
1000
0000
0010
0100
0001
0000
1000
0010
,
0100
0000
0100
0001
1000
0000
0010
0100
,
0001
0000
0100
0010
1000
0001
0100
0010
,
1000
0000
1000
0001
0100
0010
1000
0001
,
0100
0000
0000
0000
0010
0000
1000
0000
0001
0000
0000
0001
0000
0000
0001
0000
,
0100
0000
0100
1001
,
0010
0000
1010
0000
0100
0001
1000
0000
,
1001
0100
0000
0100
,
0001
0000
0011
0000
1000
0010
0100
0000
,
0001
0000
1000
0000
0010
0100
0010
0100
,
0001
0000
0101
0100
0010
0000
1000
0000
,
1000
0000
0101
0000
1000
0010
1000
0010
,
0100
0101
0100
1100
,
0010
0000
0000
0000
1000
0010
0100
0001
,
1000
0000
1000
1010
,
0100
0000
0001
0000
0000
0000
1000
0010
,
0100
0001
1000
0010
0000
0000
0100
0010
,
1000
0000
1000
0000
1000
0001
1000
0001
,
0100
0000
0000
0000
0100
0001
1000
0010
,
0100
0000
0100
0010
1000
0000
1000
0000
,
0001
0000
0001
1000
,
0010
0100
0011
1100
,
1000
0010
1000
0010
0100
0001
0100
0001
,
1000
0100
1000
0100
0010
0001
0010
0001
,
1000
1000
1000
1000
,
1000
0010
0100
0001
1000
0000
1000
0000
,
0010
0010
0100
0100
0001
0001
1000
1000
,
0010
1000
0001
0100
0010
0100
0001
1000
,
0100
0010
0100
0010
0100
0010
0100
0010
,
0100
1000
0001
0100
0000
0010
0000
0000
,
1000
0000
0001
1000
0010
0000
0000
0100
,
0001
0000
1000
1001
,
0100
0000
0000
0001
0000
0000
0100
0010
,
1000
0000
0000
0000
0010
0000
0100
0001
,
1000
1001
0010
0110
,
1000
0010
1000
0010
0100
0001
0100
0000
,
0001
0000
0100
0010
1000
0001
0100
0010
,
1000
0000
1000
0001
0100
0010
1000
0001
,
0100
0000
0000
0000
0010
0000
1000
0000
0001
0000
0000
0001
0000
0000
0001
0000
,
0100
0000
0100
0010
1000
1000
0001
0000
,
0100
0010
1000
0000
0001
0100
0010
0000
,
1000
0001
1000
0000
0010
0100
0001
0000
,
1000
0010
0100
0000
0001
1000
0010
0100
,
0001
1000
0001
1000
0001
0000
0100
0010
;

//---------------dance-single - ----------------
#NOTES:
     dance-single:
     :
     Challenge:
     12:
     :
0000
0000
0000
0000
,
0000
0000
0000
0000
,
0000
0000
0000
0000
,
0000
0000
0000
0000
,
0000
0000
0000
0000
,
0010
0000
0000
1000
0000
0000
0100
0000
1000
0000
0000
0001
0000
0000
0010
0000
,
0001
0000
0000
0100
0000
0000
1000
0000
0010
0000
0000
0100
0000
0000
0001
0000
,
0010
0000
0001
1000
0000
0000
0100
0000
1000
0000
0000
0010
0000
0000
0000
0100
,
0001
0000
0000
0010
0000
0000
0000
0001
1000
0000
0000
0100
0000
0000
0010
0001
,
0010
0000
0001
1000
0000
0001
1000
0000
0010
0000
0000
0100
0000
0000
0001
0000
,
1000
0000
0100
1000
0000
0100
1000
0000
0001
0000
0000
0001
0000
0000
0001
0000
,
0010
0100
0010
0100
0001
0100
0001
0100
,
0010
0100
1000
0100
0001
0100
0010
0000
,
0001
1000
0001
1000
0010
0100
0010
0100
,
1000
0100
0001
0100
1000
0100
0010
0000
,
1000
0001
1000
0001
0010
1000
0010
1000
,
0010
0100
0010
0001
1000
0001
0100
0000
,
0100
1000
0100
1000
0100
0001
0100
0001
,
0010
1000
0010
1000
0010
0001
0010
0000
,
1001
0100
0010
1000
0010
0001
0010
1000
,
0100
0010
0001
1000
0000
1000
0100
0010
,
0001
0100
1000
1000
0020
0000
0130
0001
,
0010
0100
1000
0001
1000
0010
0100
0001
,
2000
0100
3100
0010
0001
0100
0001
1000
,
0010
1000
0100
0020
0000
0031
1000
0010
,
0100
1000
0100
0001
0100
1000
0100
0001
,
0010
0000
1000
0000
0010
0000
0001
0000
0100
0010
0100
0010
0100
0000
0000
0000
,
1001
0010
1000
0010
0100
0010
0100
0010
,
0001
0010
0001
0010
1000
0010
0100
0001
,
0010
1000
0010
0100
0010
0001
0010
0000
,
0001
0100
1000
2000
0000
3010
0100
0001
,
0000
0001
0010
0001
0100
0010
0100
1000
,
0100
0010
0100
0010
1000
0010
1000
0001
,
0010
0100
0010
0001
0010
0100
1000
0000
,
1000
0010
0001
0001
0100
0010
0000
1001
,
0001
0100
0010
0100
0001
0010
0100
1000
,
0010
0001
0010
1000
0010
0100
0010
1000
,
0100
0001
0100
0010
0001
0100
0001
1000
,
0010
0100
0010
1000
0001
0100
0100
0010
,
1000
0100
1000
0100
0001
0100
0001
0100
,
0010
0001
0010
0001
1000
0010
1000
0010
,
0100
0000
0000
0100
0000
0000
0001
0000
0010
0000
0000
0001
0000
0000
1000
0100
,
1000
0000
0001
0100
0000
0000
0010
0000
1000
0000
0100
0010
0000
0000
0001
1000
,
0001
0000
0010
0100
0000
0010
0100
0000
1000
0000
0000
1000
0000
0000
1000
0000
,
0010
0000
0100
0001
0000
0100
0001
0000
1000
0000
0000
0010
0000
0000
0100
0000
,
0001
0000
0010
0001
0000
0000
1000
0001
1000
0000
0010
0100
0000
0000
0000
0001
,
1000
0000
0100
0010
0000
0000
0000
0001
0100
0000
0010
1000
0000
0000
0100
1000
,
0100
0000
0010
0001
0000
0010
0001
0000
1000
0000
0001
0100
0000
0001
0100
0000
,
0010
0000
1000
0001
0000
1000
0001
0000
0100
0000
0000
0010
0000
0000
1001
0000
;

//---------------dance-double - ----------------
#NOTES:
     dance-double:
     :
     Easy:
     6:
     :
00000000
00000000
00000000
00000000
,
00000000
00000000
00000000
00000000
,
00000000
00000000
00000000
00000000
,
00000000
00000000
00000000
00000000
,
00000000
00000000
00000000
00000000
,
00010000
00000000
00001000
00000000
,
01000000
00000000
00001000
00010000
,
00000010
00000010
00010000
00001000
,
01000000
01000000
00001000
00010000
,
00000100
00001000
00000001
00000010
,
00000100
00000100
00001000
00000000
,
00100000
00000000
00010000
10000000
,
01000000
01000000
00000000
00000000
,
00001000
00000000
00001000
00100000
,
00010000
00000000
00000000
00000000
,
00000010
00000000
00001000
00000001
,
00000100
00000000
00000000
00000000
,
00001000
00000000
00010000
00001000
,
01000000
00000000
00000000
00000000
,
00010000
00000000
00010000
10000000
,
00100000
00000000
00000000
00001000
,
00010000
00000010
00000100
00000001
,
00001000
00000000
00000000
00000010
,
00010000
00000000
00010000
00001000
,
01000000
00000000
01000000
00100000
,
10000000
10000000
10000000
00010000
,
01000000
01000000
00011000
00011000
,
00000010
00000010
00010000
00001000
,
01000000
01000000
00001000
00010000
,
00000100
00000000
00000000
00000000
,
00000100
00000010
00000001
00001000
,
00000100
00010000
00001000
00011000
,
00100000
00001000
00010000
00011000
,
01000000
00000000
00000000
00000000
,
01000000
00010000
10000000
00100000
,
01000000
00001000
00010000
00000010
,
00000100
00000000
00000100
00001001
,
00000010
00010000
00001000
01000000
,
00100000
10000000
00100000
01000000
,
00001000
00001000
00010000
00000010
,
00001000
00001000
00000001
00000100
,
00000010
00000010
00010000
00001000
,
01000000
01000000
00001000
00010000
,
00000100
00001000
00000001
00000010
,
00000100
00000100
00001000
00000001
,
00000010
00000010
00010000
00010000
,
00001000
00001000
01000000
00100000
,
10000000
00010000
01000000
00100000
,
10000000
10000000
10000000
00010000
;

//---------------dance-double - ----------------
#NOTES:
     dance-double:
     :
     Medium:
     8:
     :
00000000
00000000
00000000
00000000
,
00000000
00000000
00000000
00000000
,
00000000
00000000
00000000
00000000
,
00000000
00000000
00000000
00000000
,
00000000
00000000
00000000
00000000
,
10000000
00000000
10000000
00000000
00010000
00000000
01000000
00001000
,
00010000
00010000
00010000
00000000
,
00000010
00000000
00001000
00001000
00000001
00000000
00000100
00000100
,
00000010
00000000
00010000
00010000
00001000
00001000
01000000
00000000
,
00100000
10000000
00010000
00000000
01000000
00100000
01000000
00010000
,
00100000
00000000
00001000
00011000
,
00000010
00000000
00010000
00000100
,
00010000
00001000
00000000
00000000
,
01000000
00100000
10000000
00010000
01000000
00000000
00100000
00000000
,
10000000
00000000
00000000
00000000
,
00001000
00000000
00100000
00010000
,
00000010
00000000
00000001
00001000
,
00000010
00001000
00000001
00000100
00000010
00000000
00001000
00000000
,
00000100
00000000
00000000
00101000
,
01000000
01000000
00001000
01001000
,
00010000
00010000
00000010
00010010
,
00000100
00000100
00000100
00000000
00000001
00000000
00001000
00000001
,
00000100
00000000
00000000
00010100
,
00001000
00000000
00000000
00000000
00100000
00010000
10000000
00010000
,
01000000
00000000
01000000
00100000
01000000
00000000
10010000
00000000
,
00100000
00000000
00001000
00010000
,
00000100
00000100
00001000
00001001
,
00000010
00010000
00001000
01000000
,
00100000
10000000
00010000
01000000
,
00001000
00010000
00000010
00000100
,
00000001
00001000
00000010
00000100
00000000
00000100
00000100
00000000
,
00000001
00001000
00000100
00010000
,
00001000
00100000
00010000
10000000
,
00010000
00000000
00000000
00000000
01000000
00000000
00001000
00010000
,
00000010
00000100
00000001
00001000
00000000
00000001
00000000
00000000
,
00000100
00000000
00010000
10000000
,
01000000
00000000
00000000
00000000
01000000
10000000
01000000
00000000
,
00100000
00000000
00001000
00000001
,
00000010
00000000
00000001
00000000
00001000
00000010
00000100
00000000
,
00000001
00001000
00010000
10000000
,
01000000
00000000
00100000
10010000
,
00100000
00000000
00010000
00010000
10000000
00000000
01000000
01000000
,
00100000
00000000
00001000
00001000
00010000
00010000
00000100
00000000
,
00000010
00000001
00001000
00000000
00000100
00000010
00000100
00001000
,
00000010
00000000
00010000
00011000
,
01000000
00000000
00010000
01000000
00001000
00000000
00010000
00001000
,
00000100
00000000
00000010
00001000
00000001
00000000
00000100
00000010
,
00001000
00000001
00000100
00000010
00001000
00000000
00000000
00000000
,
00010000
00000000
00001000
01000000
;

//---------------dance-double - ----------------
#NOTES:
     dance-double:
     :
     Hard:
     10:
     :
00000000
00000000
00000000
00000000
,
00000000
00000000
00000000
00000000
,
00000000
00000000
00000000
00000000
,
00000000
00000000
00000000
00000000
,
00000000
00000000
00000000
00000000
,
10000000
10000000
10100000
10100000
,
01000000
00000000
01000000
00000000
01001000
00000000
01000000
00001000
,
00100000
00000000
00000000
00100000
00000000
00000000
00000000
00000000
00001000
00000000
00010000
00000000
00000100
00000000
00001000
00000000
,
00000010
00000000
00000000
00000010
00001000
00000000
00000001
00000000
00000100
00000000
00000010
00000000
00001000
00000000
00000001
00000000
,
00000100
00000000
00010000
00000000
00001000
00000000
00100000
00010000
,
10000000
00000000
00000000
10000000
00000000
00000000
10000000
00000000
00100000
00000000
00000000
01000000
00000000
00000000
00010000
00000000
,
01000000
00001000
00010000
00000010
,
00000100
00000000
00000100
00000000
00000001
00001000
00000001
00001000
,
00000010
00000000
00000000
00000000
00010000
00000000
00001000
00010000
,
00000000
00000000
00010000
10010000
,
01000000
00001000
00010000
00000010
00000100
00000000
00001001
00000000
,
00000100
00000000
00000100
00000000
00000001
00001000
00000001
00001000
,
00000100
00000000
00000100
00010000
00001000
00100000
00001000
01000000
,
00000000
00000000
00100000
00000000
10000000
00010000
10000000
00010000
,
01000000
00000000
01000000
00001000
,
00010000
00000000
00001000
00000000
00000000
00000000
00000010
00000100
,
00000001
00000000
00000001
00000000
00001000
00000000
00000010
00010000
,
00000100
00000000
00001000
00110000
,
01000000
00000000
00000000
00000000
01000000
00010000
10000000
00100000
,
01000000
00000000
01000000
00000000
01000000
00001000
00010000
00000000
,
00000010
00000000
00001000
00000001
00000100
00000001
00000100
00000001
,
00001000
00000000
00001000
00000010
00010000
00000000
00011000
00000000
,
01000000
00100000
01000000
00100000
10000000
00010000
10000000
00010000
,
01000000
00001000
01000000
00001000
00010000
00000000
00011000
00000000
,
00000100
00000000
00000001
00000001
,
00001000
00000000
00000100
00000000
00010000
00000010
00010010
00000000
,
00000010
00000100
00000010
00000100
00000001
00001000
00000001
00001000
,
00000010
00010000
00000010
00010000
00001000
00000000
00011000
00000000
,
00100000
00000000
10000000
10000000
,
00010000
00000000
00100000
00000000
00001000
01000000
01001000
00000000
,
00010000
00010010
00001000
01001000
,
00010000
00000000
00001000
00000000
00000010
00000000
00000100
00001000
,
00000001
00000000
00000100
00000000
00000010
00010000
00001000
01000000
,
00010000
10000000
10000000
10010000
,
01000000
00000000
00100000
00000000
,
10000000
00000000
00010000
00000000
01000000
00100000
10000000
00000000
,
00100000
00000000
00000000
00100000
00000000
00000000
00000000
00000000
00001000
00000000
00010000
00000000
00000100
00000000
00001000
00000000
,
00000010
00000000
00000000
00000010
00001000
00000000
00000001
00000000
00000100
00000000
00000010
00000000
00001000
00000000
00000001
00000000
,
00000100
00000000
00010000
00000000
00001000
00000000
00100000
00010000
,
10000000
00000000
00000000
10000000
00000000
00000000
10000000
00000000
00100000
00000000
00000000
01000000
00000000
00000000
00010000
00000000
,
00100000
00000000
00000000
00100000
00000000
00000000
00000000
00000000
00001000
00000000
00010000
00000000
00000100
00000000
00001000
00000000
,
00000010
00000000
00000000
00000010
00001000
00000000
00000001
00000000
00000100
00000000
00000010
00000000
00001000
00000000
00000001
00000000
,
00000100
00000000
00010000
00000000
00001000
00000000
00100000
00010000
,
10000000
00000000
00000000
10000000
00000000
00000000
10000000
00000000
00100000
00000000
00000000
01000000
00000000
00000000
00010000
00000000
;

//---------------dance-couple - ----------------
#NOTES:
     dance-couple:
     :
     Medium:
     1:
     :
00000000
00000000
00000000
00000000
,
00000000
00000000
00000000
00000000
,
00000000
00000000
00000000
00000000
,
00000000
00000000
00000000
00000000
,
00000000
00000000
00000000
00000000
,
00000001
00000000
00000000
00000000
00000100
00000000
00000010
00001000
,
10000000
00000000
00000000
00000000
00100000
00000000
01000000
00010000
,
00000001
00000001
10000000
10000000
,
00000010
00000010
01000000
01000000
,
10001000
10001000
01000100
00100010
,
00010001
00010001
01000100
00100010
,
10001000
00000000
00000000
00000001
10000100
00000000
00000100
00000000
,
10000010
00001000
10000001
00000001
,
10000100
00000000
00000000
00000000
10000100
00000010
00001000
00000000
,
10000001
00000000
10000100
00000100
,
10000001
00000000
00000000
00010000
01000001
00000000
01000000
00000000
,
00100001
10000000
00010001
00010000
,
01000001
00000000
00000000
00000000
01000001
00100000
10000000
00000000
,
00010001
00000000
01000001
01000000
,
00001000
00000000
00001000
10000011
,
00000100
00000001
00000000
00001000
,
00010000
00000000
00010000
11000001
,
00100000
10000000
00000000
00010000
,
00000100
00000000
00000100
00000001
00001000
00000000
00000010
00000000
,
01000000
00000000
01000000
00010000
10000000
00000000
00100000
00000000
,
00000001
00000001
10000000
10000000
,
00001000
00010000
10011001
10011001
,
10000000
00100000
10000001
00100000
01000000
00010000
01000001
00010000
,
10000000
01000000
10000001
01000000
00100000
00010000
00100001
00010000
,
10000000
10000001
10000000
10000001
,
10000000
00100000
01000000
00010000
10000000
00000000
10000001
00000000
,
00001000
00000010
10001000
00000010
00000100
00000001
10000100
00000001
,
00001000
00000100
10001000
00000100
00000010
00000001
10000010
00000001
,
00001000
00000000
10001000
00000000
00001000
00000000
00001000
10000000
,
00001000
00000010
00000100
00000001
00001000
00000000
10001000
00000000
,
10000001
00000000
00011000
10000001
00100100
00000000
00000000
01000010
,
00011000
00000000
10000001
10011001
,
01000010
00000000
00000000
00011000
00000000
00000000
01000010
00100100
,
10000001
00000000
00000000
00000000
00100100
00000000
01000010
00011000
,
10000000
10010000
00000010
00000110
,
10000000
00010000
01000000
00000000
00000100
00000001
00000100
00000000
,
01000000
01000000
00010000
00010000
,
10000000
10000000
00100000
00100000
,
00000100
00000100
00000001
00000001
,
00001000
00001000
00000010
00000010
,
01000000
00100000
10000000
00000000
00010000
01000000
00100000
00000000
,
00000100
00000010
00001000
00000000
00000001
00000100
00000010
00000000
,
10000000
00000000
10000000
00000000
00001000
00000000
00001000
01000100
,
00010001
10001000
00010001
10001000
00010001
00000000
01000100
00100010
;

//---------------dance-solo - ----------------
#NOTES:
     dance-solo:
     :
     Easy:
     3:
     :
000000
000000
000000
000000
,
000000
000000
000000
000000
,
000000
000000
000000
000000
,
000000
000000
000000
000000
,
000000
000000
000000
000000
,
000010
000000
001000
000000
,
000001
000000
100000
001000
,
010000
010000
000001
100000
,
000100
000100
001000
000010
,
100000
000001
001000
000100
,
100000
100000
000010
000000
,
000100
000000
100000
000001
,
001000
001000
000000
000000
,
000010
000000
000010
001000
,
000100
000000
000000
000000
,
100000
000000
000001
001000
,
000010
000000
000000
000000
,
010000
000000
000100
100000
,
000010
000000
000000
000000
,
001000
000000
001000
000001
,
100000
000000
000000
000100
,
010000
000000
000000
000100
,
001000
000000
001000
000001
,
100000
000000
100000
000010
,
001000
001000
001000
000001
,
010000
010000
001100
001100
,
000001
000001
100000
000100
,
001000
001000
000010
100000
,
000001
000000
000000
000000
,
001000
000010
100000
000001
,
010000
100000
000001
100001
,
001000
000010
010000
010010
,
100000
000001
001000
001100
,
000001
000000
000000
000000
,
000001
001000
000100
100000
,
000010
001000
000001
010000
,
001000
000000
001000
100001
,
000100
000010
100000
001000
,
100000
000100
001000
000001
,
010000
010000
001000
100000
,
000010
000010
001000
000001
,
100000
100000
000100
001000
,
000001
000001
001000
000010
,
100000
000100
001000
000001
,
001000
001000
000010
010000
,
000001
000001
001000
001000
,
000100
000100
100000
000010
,
001000
000001
100000
000100
,
001000
001000
001000
000001
;

//---------------dance-solo - ----------------
#NOTES:
     dance-solo:
     :
     Medium:
     6:
     :
000000
000000
000000
000000
,
000000
000000
000000
000000
,
000000
000000
000000
000000
,
000000
000000
000000
000000
,
000000
000000
000000
000000
,
010000
000000
010000
000000
000100
000000
100000
000001
,
001000
001000
001000
000000
,
000100
000000
100000
100000
000010
000000
001000
001000
,
000001
000000
010000
010000
000100
000100
100000
000000
,
000001
001000
000100
000000
100000
000010
100000
000100
,
001000
000000
000001
100001
,
000100
000000
001000
000010
,
001000
000100
000000
000000
,
100000
000100
001000
000001
100000
000000
001000
000000
,
010000
000000
000000
000000
,
000001
000000
001000
000010
,
100000
000000
000001
010000
,
000100
100000
000010
001000
000001
000000
010000
000000
,
001000
000000
000000
001010
,
100000
100000
000001
010001
,
000100
000100
001000
001010
,
100000
100000
100000
000000
000001
000000
001000
000010
,
100000
000000
000000
101000
,
000001
000000
000000
000000
001000
000010
100000
000010
,
001000
000000
001000
000100
001000
000000
100001
000000
,
000100
000000
001000
000001
,
100000
100000
000100
001100
,
000010
001000
000010
100000
,
000100
100000
000001
001000
,
000010
001000
010000
001000
,
000001
100000
000100
001000
000000
001000
001000
000000
,
000010
100000
000001
001000
,
000100
010000
000001
100000
,
000100
000000
000000
000000
001000
000000
000010
001000
,
000001
100000
000100
001000
000000
000100
000000
000000
,
100000
000000
000001
010000
,
000100
000000
000000
000000
001000
000100
001000
000000
,
000001
000000
010000
000100
,
100000
000000
000010
000000
001000
000001
100000
000000
,
000010
001000
000001
010000
,
000100
000000
100000
100001
,
001000
000000
000010
000010
100000
000000
000001
000001
,
010000
000000
000100
000100
001000
001000
000010
000000
,
100000
000100
001000
000000
000001
010000
000001
100000
,
000100
000000
001000
001010
,
100000
000000
000001
001000
000100
000000
100000
000010
,
001000
000000
000001
010000
000100
000000
100000
000010
,
001000
000001
010000
000100
100000
000000
000000
000000
,
001000
000000
010000
000001
;

//---------------dance-solo - ----------------
#NOTES:
     dance-solo:
     :
     Hard:
     7:
     :
000000
000000
000000
000000
,
000000
000000
000000
000000
,
000000
000000
000000
000000
,
000000
000000
000000
000000
,
000000
000000
000000
000000
,
100000
100000
100100
100100
,
001000
000000
001000
000000
011000
000000
001000
010000
,
000100
000000
000000
000100
000000
000000
000000
000000
010000
000000
000001
000000
001000
000000
000010
000000
,
010000
000000
000000
010000
000001
000000
100000
000000
001000
000000
010000
000000
000001
000000
100000
000000
,
001000
000000
100000
000000
000010
000000
001000
000001
,
100000
000000
000000
100000
000000
000000
100000
000000
000100
000000
000000
001000
000000
000000
000001
000000
,
001000
000010
100000
000010
,
001000
000000
001000
000000
000100
010000
000100
010000
,
000010
000000
000000
000000
100000
000000
000001
010000
,
000000
000000
000001
100001
,
001000
010000
000001
000010
001000
000000
100001
000000
,
001000
000000
001000
000000
000100
010000
000100
010000
,
001000
000000
001000
100000
000010
000100
000010
001000
,
000000
000000
000100
000000
100000
000001
100000
000001
,
001000
000000
001000
010000
,
000001
000000
010000
000000
000000
000000
000010
001000
,
000001
000000
000001
000000
010000
000000
000010
001000
,
000100
000000
010000
000101
,
001000
000000
000000
000000
001000
000001
100000
000100
,
001000
000000
001000
000000
001000
000010
100000
000000
,
000010
000000
010000
000001
001000
000001
001000
000001
,
010000
000000
010000
000010
100000
000000
100010
000000
,
001000
000100
001000
000100
100000
000001
100000
000001
,
001000
000100
001000
000100
010000
000000
010001
000000
,
001000
000000
100000
100000
,
000100
000000
001000
000000
000001
000100
000101
000000
,
000010
001000
000010
001000
000001
010000
000001
010000
,
000100
100000
000100
100000
000001
000000
010001
000000
,
000100
000000
100000
100000
,
000001
000000
000100
000000
001000
010000
011000
000000
,
000001
000011
010000
011000
,
100000
000000
000010
000000
001000
000000
000100
010000
,
000001
000000
001000
000000
000010
100000
000001
001000
,
000100
100000
100000
100001
,
001000
000000
000100
000000
,
100000
000000
000001
000000
001000
000100
100000
000000
,
000100
000000
000000
000100
000000
000000
000000
000000
010000
000000
000001
000000
001000
000000
000100
000000
,
010000
000000
000000
010000
000001
000000
001000
000000
000100
000000
100000
000000
000010
000000
001000
000000
,
000001
000000
001000
000000
000010
000000
010000
000001
,
100000
000000
000000
100000
000000
000000
100000
000000
000100
000000
000000
001000
000000
000000
000001
000000
,
000100
000000
000000
000100
000000
000000
000000
000000
000010
000000
100000
000000
000001
000000
001000
000000
,
000010
000000
000000
000010
010000
000000
000100
000000
100000
000000
000001
000000
010000
000000
000100
000000
,
001000
000000
000001
000000
010000
000000
000100
100000
,
000001
000000
000000
000001
000000
000000
000001
000000
000100
000000
000000
001000
000000
000000
100000
000000
;
