#VERSION:0.83;
#TITLE:NA-NA-NA;
#SUBTITLE:;
#ARTIST:Y. Koezuka with Yah Yah's;
#TITLETRANSLIT:;
#SUBTITLETRANSLIT:;
#ARTISTTRANSLIT:;
#GENRE:;
#ORIGIN:;
#CREDIT:;
#BANNER:NA-NA-NA-bn.png;
#BACKGROUND:NA-NA-NA-bg.png;
#PREVIEWVID:;
#JACKET:NA-NA-NA-jacket.png;
#CDIMAGE:;
#DISCIMAGE:;
#LYRICSPATH:;
#CDTITLE:;
#MUSIC:NA-NA-NA.ogg;
#OFFSET:0.187500;
#SAMPLESTART:16.958000;
#SAMPLELENGTH:20.000000;
#SELECTABLE:YES;
#DISPLAYBPM:140.000000;
#BPMS:0.000=139.980;
#STOPS:;
#DELAYS:;
#WARPS:;
#TIMESIGNATURES:0.000=4=4;
#TICKCOUNTS:0.000=4;
#COMBOS:0.000=1;
#SPEEDS:0.000=1.000=0.000=0;
#SCROLLS:0.000=1.000;
#FAKES:;
#LABELS:0.000=Song Start;
#BGCHANGES:0.438=NA-NA-NA.mp4=1.000=1=0=0=StretchNoLoop==CrossFade==,
216.000=NA-NA-NA-bg.png=1.000=1=0=0=StretchNoLoop==CrossFade==,
99999=-nosongbg-=1.000=0=0=0 // don't automatically add -songbackground-
;
#KEYSOUNDS:;
#ATTACKS:
;

//---------------dance-single - ----------------
#NOTEDATA:;
#CHARTNAME:;
#STEPSTYPE:dance-single;
#DESCRIPTION:;
#CHARTSTYLE:;
#DIFFICULTY:Hard;
#METER:11;
#RADARVALUES:0.412351,0.480030,0.271912,0.533367,0.554283,276.000000,250.000000,26.000000,51.000000,0.000000,0.000000,0.000000,0.000000,0.000000,0.412351,0.480030,0.271912,0.533367,0.554283,276.000000,250.000000,26.000000,51.000000,0.000000,0.000000,0.000000,0.000000,0.000000;
#CREDIT:;
#DISPLAYBPM:140.000000;
#NOTES:
0000
0000
0000
0000
,
0000
0000
0000
0000
,
0000
0000
0000
0000
,
0000
0000
0000
0000
,
0000
0000
0000
0000
,
0000
0000
0000
0000
,
2001
0000
0000
0010
0000
0010
0000
0000
0000
3001
0000
0000
,
1020
0130
0102
1003
,
0110
0000
0000
1000
0000
0001
0000
0000
0000
0100
0000
0100
,
0020
0000
0000
0000
0000
0000
0030
0000
0000
0000
1000
0001
1000
0000
0000
0000
1000
0000
0000
0000
1000
0000
0100
0000
,
0020
0000
0000
0031
0000
2000
0000
0000
0000
0100
0000
0100
,
0000
0000
0000
0001
0000
3001
1000
0000
0020
0000
0000
0000
,
0130
0000
0001
1000
0000
0200
0000
0000
0000
0010
0000
0010
,
0000
0000
0000
0001
0000
0301
0100
0000
0100
1000
0000
1000
,
0020
0000
0000
1030
0000
0002
0000
0000
0000
0100
0000
0100
,
0000
0000
0000
0010
0000
0013
0000
0000
1000
0100
0000
0000
,
1000
0000
0001
0100
0000
0010
0000
0000
0110
0000
0000
1000
,
0020
0000
0000
0130
0000
0000
1001
0000
0001
1000
0000
1000
,
0002
0000
0000
0003
0000
0000
0011
0000
0000
1000
0000
0001
,
0100
0000
0000
0100
0000
0100
0010
0000
0000
0000
0000
2000
,
0010
0000
3010
1000
0000
1000
0001
0000
0000
0010
0000
0010
,
0100
0000
0000
1000
0000
1000
0001
0000
0000
0010
0001
0020
,
0100
0000
0130
1000
0000
1000
0001
0000
0000
0000
0000
0200
,
0010
0000
0310
0100
0000
0000
0101
0000
0000
1000
0000
0001
,
0010
0000
0000
0000
0000
0001
1000
0000
0000
2010
0000
0000
,
3001
0100
0001
0100
0001
0100
0002
0000
1000
0000
1003
0000
,
1002
0000
0000
0013
0000
0200
0000
0000
0000
0001
0000
0001
,
0000
0000
0000
1000
0000
1300
0010
0000
0100
0001
1000
0001
,
0100
0000
0010
1000
0000
0002
0000
0000
0000
0010
0000
0010
,
0000
0000
0000
1000
0000
1003
0010
0000
0200
0000
0301
1000
,
0002
0000
0023
0000
0230
0000
2300
0000
0000
0010
0000
0010
,
0000
0000
0000
0100
0000
3100
1000
0000
0001
0100
0000
0000
,
0001
0000
1000
0001
0000
0010
0000
0000
1100
0000
0000
1000
,
0020
0000
0000
0130
0001
0100
0020
0000
2030
0000
3002
0000
,
2003
0000
0000
3000
0000
0000
1010
0000
0000
0001
0000
1000
,
0010
0000
0010
0200
0000
0000
0001
0000
0000
0310
0000
0002
,
1000
0000
1003
0001
0000
0001
0100
0000
0000
0000
0000
0020
,
0000
0000
1030
0100
0000
0020
0000
0000
0000
0031
0000
2000
,
0100
0000
3100
0010
0000
0010
0001
0000
0000
0000
0000
0200
,
0010
0000
0310
0100
0000
0000
0101
0000
0000
1000
0000
0001
,
1000
0000
0100
0010
0000
0011
0000
0000
0000
0100
0000
0100
,
0010
0000
0010
1000
0000
1000
0100
0000
0100
0001
0000
0001
,
0200
0000
0000
1000
0000
1000
0000
0000
0000
0310
0000
0000
,
0120
0031
2001
3100
,
0110
0000
0000
0001
0000
1000
0000
0000
0000
0000
0000
0000
,
1010
0000
0001
0001
0000
1000
0100
0010
,
0012
0000
0000
0100
0000
0100
0000
0000
0000
1003
0000
0000
,
1200
1300
0201
0310
,
1010
0000
0000
0010
0000
0100
0000
0000
0000
0000
0000
0000
,
0002
0000
2003
0000
3200
0000
0320
0000
0001
0000
0130
0000
,
2100
0000
0000
0001
0000
0001
0000
0000
0000
3100
0000
0000
,
2001
3010
0102
1003
,
0110
0000
0000
2000
0000
0002
0000
0000
0000
0000
0000
0000
,
0000
0000
0000
0000
,
3003
0000
0000
0000
;

//---------------dance-single - ----------------
#NOTEDATA:;
#CHARTNAME:;
#STEPSTYPE:dance-single;
#DESCRIPTION:;
#CHARTSTYLE:;
#DIFFICULTY:Medium;
#METER:9;
#RADARVALUES:0.288347,0.395319,0.303287,0.407869,0.230080,193.000000,164.000000,29.000000,39.000000,0.000000,0.000000,0.000000,0.000000,0.000000,0.288347,0.395319,0.303287,0.407869,0.230080,193.000000,164.000000,29.000000,39.000000,0.000000,0.000000,0.000000,0.000000,0.000000;
#CREDIT:;
#DISPLAYBPM:140.000000;
#NOTES:
0000
0000
0000
0000
,
0000
0000
0000
0000
,
0000
0000
0000
0000
,
0000
0000
0000
0000
,
0000
0000
0000
0000
,
0000
0000
0000
0000
,
2001
0010
0100
3001
,
1020
0130
0202
0303
,
0110
0000
0000
1000
0000
0001
0000
0000
0000
0000
0000
0000
,
0200
0000
0000
0300
0000
0000
0001
0000
0001
0000
0001
0000
,
1000
0000
0000
0100
0000
0020
0000
0000
0000
0001
0000
0000
,
0000
1000
0000
0031
,
1000
0000
0000
0010
0000
0200
0000
0000
0000
0001
0000
0000
,
0000
1000
0000
0301
,
0010
0000
0000
0100
0000
2000
0000
0000
0000
0001
0000
0000
,
0000
0100
0000
3001
,
1000
0000
0100
1000
0000
0001
0000
0000
0101
0000
0000
0100
,
0020
0030
0110
1001
,
0110
0000
0000
0000
0000
0000
0010
0000
0000
1000
0000
0001
,
0000
0010
0011
0000
,
0100
0000
0100
1000
0000
1000
0001
0000
0000
0000
0000
0000
,
0010
0001
1001
0000
,
0010
0000
0010
1000
0000
1000
0001
0000
0000
0000
0000
0000
,
0100
0000
0100
0010
0000
0000
1010
0000
0000
1000
0000
0001
,
0000
0000
0000
0000
0000
0011
0000
0000
0000
2100
0000
0000
,
0010
0000
0000
0100
0000
0000
0001
0000
0001
0000
3001
0000
,
1000
0000
0000
0001
0000
0200
0000
0000
0000
1000
0000
0000
,
0000
0010
0000
0301
,
0010
0000
0000
0001
0000
2000
0000
0000
0000
0100
0000
0000
,
0000
0001
0000
3010
,
1000
0000
0001
0000
1000
0000
0200
0000
0000
0001
0000
0000
,
0000
0010
0000
1300
,
0001
0000
0100
0001
0000
1000
0000
0000
1100
0000
0000
0010
,
0200
0000
0000
0300
0000
0000
0001
0000
1000
0000
0001
0000
,
0200
0000
0000
0300
0000
0000
0001
0000
0000
1000
0000
0100
,
0000
0010
1001
0000
,
0001
0000
0001
1000
0000
1000
0010
0000
0000
0000
0000
0000
,
0100
0010
1010
0101
,
0001
0000
0001
0010
0000
0010
0100
0000
0000
0000
0000
0000
,
1000
0000
1000
0001
0000
0000
0101
0000
0000
0100
0000
0010
,
0000
0000
0000
0000
0000
0110
0000
0000
0000
0000
0000
0000
,
2000
0000
0000
3200
0000
0000
0320
0000
0000
0031
0000
0001
,
0200
0000
0000
0300
,
2020
3030
0022
0033
,
1001
0000
0000
0100
0000
0010
0000
0000
0000
0000
0000
0000
,
2000
3002
0023
0230
,
2300
0000
0000
3000
,
2200
3300
0202
0303
,
0110
0000
0000
1000
0000
0001
0000
0000
0000
0000
0000
0000
,
0100
0000
0100
0000
0100
0000
0200
0000
0000
0300
0000
0000
,
2001
0010
0100
3001
,
0012
1003
2200
3300
,
0110
0000
0000
2000
0000
0002
0000
0000
0000
0000
0000
0000
,
0000
0000
0000
0000
,
3003
0000
0000
0000
;

//---------------dance-single - ----------------
#NOTEDATA:;
#CHARTNAME:;
#STEPSTYPE:dance-single;
#DESCRIPTION:;
#CHARTSTYLE:;
#DIFFICULTY:Easy;
#METER:5;
#RADARVALUES:0.203187,0.254134,0.125498,0.397411,0.000000,136.000000,124.000000,12.000000,38.000000,0.000000,0.000000,0.000000,0.000000,0.000000,0.203187,0.254134,0.125498,0.397411,0.000000,136.000000,124.000000,12.000000,38.000000,0.000000,0.000000,0.000000,0.000000,0.000000;
#CREDIT:;
#DISPLAYBPM:140.000000;
#NOTES:
0000
0000
0000
0000
,
0000
0000
0000
0000
,
0000
0000
0000
0000
,
0000
0000
0000
0000
,
0000
0000
0000
0000
,
0000
0000
0000
0000
,
2002
0000
0000
0003
,
0020
0030
0200
3300
,
0110
1000
0001
0000
,
0020
0030
0100
0100
,
2000
0002
3000
0100
,
0000
0100
0000
1003
,
0020
0200
0030
0001
,
0000
1000
0000
0301
,
0020
0200
0030
1000
,
0000
0001
0000
1300
,
0001
0001
1000
1000
,
0020
0000
0100
0130
,
0001
0000
1001
0100
,
0010
1000
0001
0000
,
0010
0010
0100
0000
,
1000
0000
0001
0000
,
0100
0100
0010
0000
,
1000
1000
0001
1000
,
0100
0000
0110
0000
,
0001
0002
2000
3003
,
0020
2000
0030
0100
,
0000
0001
0000
3100
,
2000
0002
3000
0010
,
0000
0010
0000
0103
,
0010
0020
2030
0100
,
0000
0001
0000
3100
,
1000
1000
0001
0001
,
0200
0000
0010
0310
,
0200
0300
1001
0010
,
1000
0100
0001
0000
,
0010
0010
0001
0000
,
1000
0000
0010
0000
,
1000
1000
0100
0000
,
0010
0010
0001
1000
,
0001
0000
0110
0000
,
1000
0010
1000
0010
,
2002
0000
0000
0003
,
0020
0030
0200
3300
,
0110
1000
0001
0000
,
0100
0000
0100
0000
,
2002
0000
0000
3000
,
0020
0030
0200
0303
,
0110
0001
1000
0000
,
0002
0010
2000
3003
,
2002
0000
0000
0003
,
0020
0030
0200
3300
,
0110
2000
0002
0000
,
0000
0000
0000
0000
,
3003
0000
0000
0000
;

//---------------dance-single - ----------------
#NOTEDATA:;
#CHARTNAME:;
#STEPSTYPE:dance-single;
#DESCRIPTION:;
#CHARTSTYLE:;
#DIFFICULTY:Beginner;
#METER:2;
#RADARVALUES:0.118028,0.197659,0.073207,0.094124,0.000000,79.000000,72.000000,7.000000,9.000000,0.000000,0.000000,0.000000,0.000000,0.000000,0.118028,0.197659,0.073207,0.094124,0.000000,79.000000,72.000000,7.000000,9.000000,0.000000,0.000000,0.000000,0.000000,0.000000;
#CREDIT:;
#DISPLAYBPM:140.000000;
#NOTES:
// measure 0
0000
0000
0000
0000
,  // measure 1
0000
0000
0000
0000
,  // measure 2
0000
0000
0000
0000
,  // measure 3
0000
0000
0000
0000
,  // measure 4
0000
0000
0000
0000
,  // measure 5
0000
0000
0000
0000
,  // measure 6
1001
0000
0000
0000
,  // measure 7
0010
0000
0100
0000
,  // measure 8
0110
0000
0000
0000
,  // measure 9
0002
0000
0003
0000
,  // measure 10
1000
2000
0000
0000
,  // measure 11
0000
0000
3000
0000
,  // measure 12
0001
0002
0000
0000
,  // measure 13
0000
0000
0003
0000
,  // measure 14
0010
0020
0000
0000
,  // measure 15
0000
0000
0030
0000
,  // measure 16
0001
0000
1000
0000
,  // measure 17
0200
0000
0000
0300
,  // measure 18
0000
0000
1000
1000
,  // measure 19
0000
0000
0000
0000
,  // measure 20
0001
0001
0001
0000
,  // measure 21
0000
0000
0000
0000
,  // measure 22
0100
0100
0100
0000
,  // measure 23
0010
0010
0010
0000
,  // measure 24
1000
0000
0001
0000
,  // measure 25
0100
0000
0100
0000
,  // measure 26
0010
0020
0000
0000
,  // measure 27
0000
0000
0030
0000
,  // measure 28
1000
2000
0000
0000
,  // measure 29
0000
0000
3000
0000
,  // measure 30
0100
0000
0200
0000
,  // measure 31
0000
0000
0300
0000
,  // measure 32
1000
0000
0001
0000
,  // measure 33
1000
0000
0010
0000
,  // measure 34
0100
0000
0001
0001
,  // measure 35
0000
0000
0000
0000
,  // measure 36
0010
0010
0010
0000
,  // measure 37
0000
0000
0000
0000
,  // measure 38
0100
0100
0100
0000
,  // measure 39
1000
1000
1000
0000
,  // measure 40
0001
0000
1000
0000
,  // measure 41
0010
0010
0010
0000
,  // measure 42
1001
0000
0000
0000
,  // measure 43
0010
0000
0100
0000
,  // measure 44
0110
0000
0000
0000
,  // measure 45
0001
0000
0000
0000
,  // measure 46
1001
0000
0000
0000
,  // measure 47
0100
0000
0010
0000
,  // measure 48
0110
0000
0000
0000
,  // measure 49
1000
0000
1000
0000
,  // measure 50
1001
0000
0000
0000
,  // measure 51
0010
0000
0100
0000
,  // measure 52
0001
0002
0000
0000
,  // measure 53
0000
0000
0000
0000
,  // measure 54
0003
0000
0000
0000
;
