#TITLE:My Love;
#ARTIST:NM feat. Melissa Petty;
#BANNER:My Love.png;
#BACKGROUND:My Love-bg.png;
#JACKET:My Love-jacket.png;
#MUSIC:My Love.ogg;
#SAMPLESTART:57.396;
#SAMPLELENGTH:20;
#DISPLAYBPM:70;
#BPMS:0=70;
#BGCHANGES:;

//---------------dance-single - ----------------
#NOTES:
     dance-single:
     :
     Beginner:
     2:
     :
0000
0000
0000
0000
,
0000
0000
0000
0000
,
0000
0100
0000
1001
,
0000
0001
0000
0100
,
0000
0010
0000
0110
,
0000
1000
0000
0001
,
0000
0010
0000
1001
,
0000
0001
0000
0010
,
0000
0100
0000
0110
,
0000
1000
0000
0010
,
0000
0001
0000
0010
,
0000
1000
0000
0110
,
0000
0100
0100
0000
,
0000
0001
0000
0100
,
0000
1000
0000
0100
,
0000
0001
0000
0110
,
0000
0010
0010
0000
,
0100
0200
0000
0300
,
0000
0100
0000
0010
,
0000
1001
0000
0000
,
1000
0001
0000
0000
,
0020
0000
0030
0000
,
0000
0001
0000
0100
,
0100
0200
0000
0300
,
0000
0100
0000
0010
,
0000
1001
0000
0000
,
0001
1000
0000
0000
,
0020
0000
0030
0000
,
0001
1000
0001
1000
,
0002
0000
0003
0000
;

//---------------dance-single - ----------------
#NOTES:
     dance-single:
     :
     Easy:
     5:
     :
0000
0000
0000
0000
,
0000
0000
0000
0000
,
0100
0001
1000
0110
,
0000
0000
0001
0000
0100
1000
0100
0000
,
0001
0010
0000
1010
,
0000
0000
0010
0000
0010
0100
0010
0000
,
0100
1000
0001
0110
,
0000
0000
1000
0000
0010
0001
0010
0000
,
0110
0000
0000
0000
0000
0110
1001
0110
,
0000
0100
1000
0010
,
0001
0100
0001
0010
,
0000
1000
0100
0110
,
1000
0000
0100
0100
0010
0000
0000
0000
,
0000
0010
0001
0100
,
1000
0010
1000
0100
,
0000
0001
0010
0110
,
0001
0000
0010
0010
0100
0000
0000
0000
,
0100
0200
0000
0300
,
0000
0100
1000
0010
,
0100
1001
0000
0000
,
0110
1001
1001
0110
0000
0000
0000
0000
,
0020
0000
0230
0300
,
0010
1000
0010
0100
,
0010
0020
0000
0030
,
0000
0010
0001
0100
,
0010
1001
0000
0000
,
0110
1001
1001
0110
0000
0000
0000
0000
,
0200
0000
0320
0030
,
1000
0001
1000
0010
,
0200
0000
0300
0000
;

//---------------dance-single - ----------------
#NOTES:
     dance-single:
     :
     Medium:
     8:
     :
0000
0000
0000
0000
,
0000
0000
0000
0000
,
0100
0010
0001
0000
1000
0100
0110
0000
,
1000
0100
0001
0000
0100
0100
0010
0000
,
0001
0100
0010
0100
0000
0010
1010
0000
,
1000
0100
0010
0000
0010
0001
0010
0000
,
0100
0010
1000
0000
0001
0100
0110
0000
,
0001
0100
1000
0000
0100
0100
0010
0000
,
1000
0100
0110
0000
0000
1100
0101
0110
,
1000
0010
0100
0010
1000
0100
1010
0000
,
1000
0010
1100
0000
1000
0100
1010
0000
,
0100
0010
1010
0000
0010
0100
1100
0000
,
1000
0010
0100
1000
0010
0100
1000
0100
,
0001
0100
0010
0100
0001
0010
0101
0000
,
0001
0100
0011
0000
0001
0010
0101
0000
,
0010
0100
0101
0000
0100
0010
0011
0000
,
0001
0000
0000
0100
0000
0000
0010
0000
0000
0100
0000
0000
1001
0000
0000
0000
0000
0000
0010
0000
0010
0000
0010
0000
,
0100
0000
0200
0000
0001
0001
0310
0000
,
1000
0010
0100
0000
0100
0001
0010
0000
,
0100
1000
0100
0010
0001
0100
1000
0000
,
1100
0110
0011
1001
0000
1000
0010
1000
,
0002
0000
0203
0300
,
0010
0100
1000
0100
0010
0100
0001
0100
,
0010
0000
0020
0000
1000
1000
0130
0000
,
0001
0100
0010
0000
0010
1000
0100
0000
,
0010
0001
0010
0100
1000
0010
0001
0000
,
0011
0110
1100
1001
0000
0001
0100
0001
,
2000
0000
3020
0030
,
2000
3020
2030
3200
,
0320
0000
0030
0000
;

//---------------dance-single - ----------------
#NOTES:
     dance-single:
     :
     Hard:
     10:
     :
0000
0000
0000
0000
,
0000
0000
0000
0000
,
0001
0100
0010
0000
0100
0000
0000
0001
0100
0000
1000
0000
0010
0100
0000
0000
,
1000
0100
0001
0000
0010
0000
0000
1000
0100
0000
0010
0000
0110
0000
0000
0000
,
1000
0001
0100
0000
0010
0000
0100
0000
0000
0000
0010
0000
0001
0100
0000
0001
,
1000
0010
0100
0000
0010
0000
1000
0010
0001
0000
0100
0010
0000
0000
0000
0000
,
1000
0010
0100
0000
0010
0000
0000
1000
0010
0000
0001
0000
0100
0010
0000
0000
,
0001
0010
1000
0000
0100
0000
0000
0001
0010
0000
0100
0000
0110
0000
0000
0000
,
1000
0100
1100
0000
0010
1100
0011
0110
,
1000
0010
0101
0010
0001
0100
1010
0000
,
0100
1000
0100
0000
0101
0000
0010
0000
1000
0000
0100
0000
0101
0000
0000
0000
,
0010
1000
0010
0000
0011
0000
0100
0000
1000
0000
0010
0000
0011
0000
0000
0000
,
0001
0000
0100
0000
0101
0000
0000
0000
1000
0000
0001
0000
0010
0000
0100
1000
,
0001
0010
1100
0010
1000
0100
0011
0000
,
0100
0001
0100
0000
1100
0000
0010
0000
0001
0000
0100
0000
1100
0000
0000
0000
,
1000
0100
0010
0000
0011
0000
0001
0000
0010
0000
0100
0000
1100
0000
0000
0000
,
1000
0000
0000
0010
0000
0000
0100
0000
0000
0000
0000
0000
0001
0000
0000
0100
0000
0000
0000
0000
0000
0000
0000
0000
1001
0000
0000
0000
0000
0000
0000
0000
0000
0000
0000
0000
0010
0000
0000
0000
0010
0000
0000
0000
0010
0000
0000
0000
,
0100
1000
0210
0000
1000
1000
0310
0000
,
1000
0000
0010
0000
1100
0000
0000
0010
0100
0000
1000
0000
1010
0000
0000
0000
,
0100
1000
0001
0000
0100
0000
0010
0000
0001
1000
0100
0000
1000
0000
0000
0000
,
1100
0101
0011
1100
0000
1000
0001
0100
,
0002
0000
0000
0203
0000
0000
0300
0000
,
1000
0000
0100
0000
1000
0000
0101
0000
0000
1000
0100
0000
0001
0010
0100
0000
,
0010
0001
0120
0000
0001
0001
0130
0000
,
0001
0000
0100
0000
0011
0000
0000
0100
0010
0000
0001
0000
0101
0000
0000
0000
,
0010
0001
1000
0000
0010
0000
0100
0000
1000
0001
0010
0000
0001
0000
0000
0000
,
0011
1010
1100
0011
0000
0001
1000
0010
,
2000
0000
0000
3020
0000
0000
0030
0000
,
0002
0203
0320
2030
,
3200
0000
0300
0000
;

//---------------dance-single - ----------------
#NOTES:
     dance-single:
     :
     Challenge:
     12:
     :
0000
0000
0000
0000
,
0000
0000
0000
0000
,
0001
0100
1000
0000
0010
1000
0010
0100
0002
0000
0023
0000
0230
0000
2300
0000
,
3010
1000
0001
0100
0000
0001
1000
0100
0010
0000
0001
0100
0000
0100
0010
1000
,
0001
0010
0100
1000
0000
1000
0001
0000
0110
0000
0001
0100
0010
1000
0100
0010
,
0001
0100
1000
0000
1010
0000
0101
0000
0011
0000
0001
1000
0010
1000
0100
0000
,
0010
0001
0100
0000
0001
1000
0001
0100
0010
1000
0100
0010
0000
0001
1000
0000
,
1000
0100
0001
0000
0010
0000
0001
1000
0001
0000
1010
0000
1100
0001
0100
0010
,
1000
0100
1000
0002
0000
0000
0103
0010
0100
0000
1001
0000
0110
0001
1000
0000
,
0010
1000
0001
0000
0100
0000
0001
0010
1000
0000
1100
0000
0101
1000
0010
0100
,
0001
0000
0010
0000
0100
0000
0000
0000
1000
0000
0010
0000
1000
0000
0001
0000
0200
0000
0000
0000
0320
0000
0000
0000
1030
0000
0000
0001
0000
0000
0100
0000
,
0010
1000
0001
0000
0100
0000
0001
1000
0100
0000
0011
0000
1010
0010
0100
0001
,
2000
0000
0000
0000
3020
0000
0000
0000
0230
0000
0000
0000
0301
0000
0010
0000
0100
0000
0000
0000
1000
0000
0000
0000
0010
0000
0000
1000
0000
0000
0001
0000
,
0100
0010
1000
0000
0001
0000
0010
0100
1000
0000
1100
0000
0011
0001
0100
0000
,
0010
1000
0001
0000
0100
0010
1000
0000
1001
0000
0101
0000
0011
0100
1000
0000
,
1010
0010
0100
0001
0010
0000
0001
1000
0100
1000
0010
0100
0000
0001
1000
0001
,
0100
0000
0000
0010
0000
0000
1000
0000
0000
0000
0000
0000
0100
0000
0000
0010
0000
0000
0001
0000
0000
0000
0000
0000
1001
0000
0000
0110
0000
0000
0000
0000
0000
0010
0000
0000
1000
0000
0000
0000
1000
0000
0000
0000
1000
0000
0000
0000
,
0001
0010
0001
1000
0010
0000
0100
0100
0001
0010
1000
0000
1010
0000
0101
0000
,
0010
0010
0001
1000
0010
0000
0100
0001
1000
0001
0100
0000
0010
1000
0001
0000
,
1000
0100
0010
0001
0100
0000
0010
0010
1000
0001
0100
0000
0101
0000
0110
0000
,
0010
1000
0001
0000
0011
0000
1001
0000
0010
1000
0100
0000
1000
0001
0010
0000
,
0002
1000
1000
0000
0010
0000
0103
0200
0010
0000
0010
0000
1000
0000
0301
0100
,
0010
1000
0100
0000
1100
0000
1010
0000
0001
0100
0010
1000
0100
0010
0001
1000
,
0010
1000
0001
0000
0110
0001
0100
0010
1000
0100
1000
0000
0011
0000
0100
0010
,
1000
0100
0010
0000
0001
0000
0100
0010
0100
0001
1000
0000
1100
0000
1001
0000
,
0010
1000
0001
1000
0010
0000
0100
0100
0001
0010
1000
0000
1100
0000
0101
0000
,
0010
0000
1000
0000
0001
0000
0000
0000
0011
0000
0000
0000
1100
0000
0000
0000
0010
0000
1000
0000
0001
0000
1000
0000
0100
0000
0010
0000
0000
0001
0000
0000
,
2000
0010
0010
0000
0001
0000
3100
0200
0010
0000
0010
0000
0310
0000
1000
0001
,
0010
0100
1000
0000
0010
0100
0001
1000
0001
0100
0010
0000
1001
0000
0110
0000
,
0001
0200
2000
0000
0000
0000
0000
0000
3300
0000
0000
0000
0000
0000
0000
0000
;
