#TITLE:Monkey Business;
#SUBTITLE:(25th Anniversary Special);
#ARTIST:kors k;
#BANNER:Monkey Business (25th Anniversary Special)-bn.png;
#BACKGROUND:Monkey Business (25th Anniversary Special)-bg.png;
#JACKET:Monkey Business (25th Anniversary Special)-jacket.png;
#MUSIC:Monkey Business (25th Anniversary Special).ogg;
#SAMPLESTART:48;
#SAMPLELENGTH:20;
#DISPLAYBPM:160;
#BPMS:0=160;
#STOPS:28=0.375;
#BGCHANGES:;

//---------------dance-single - ----------------
#NOTES:
     dance-single:
     :
     Challenge:
     17:
     :
0000
0000
0000
0000
,
0000
0000
0000
0000
,
0000
0000
0000
0000
,
0000
0000
0000
0000
,
1000
0100
0000
0001
0100
0000
0110
0000
,
1000
0010
1000
0010
1000
0000
0001
0010
0001
0010
0001
1000
0010
1000
0001
0000
,
0100
0000
0001
0000
0010
0000
0100
0000
1000
0001
1000
0001
1000
0001
1000
0001
,
0100
0000
0000
0000
0010
0000
0100
0000
0001
1000
0001
1000
0100
0000
0010
0000
,
0001
0000
0100
0000
1000
0000
0010
0100
0000
0001
1000
0000
0100
0000
1000
0000
,
0010
0000
0001
0000
1000
0000
0010
0100
0002
0000
0000
0000
0023
0000
0000
0000
,
0031
0100
0010
0000
1000
0100
0010
0000
0001
1000
0001
0000
1000
0000
0010
0100
,
0000
0001
1000
0000
0001
0010
0100
0000
0100
0000
0100
1000
0001
0000
0010
0000
,
1000
0000
0010
0000
0001
0100
0001
0010
0000
0100
1000
0000
0001
0100
0001
0000
,
1000
0100
1000
0000
0001
0100
0010
0100
0002
0000
1000
0000
2003
0000
0000
0000
,
3010
0000
1000
0000
0100
0010
0001
0000
1000
0000
0010
0000
0100
0001
1000
0000
,
0010
0000
1000
0000
0100
0010
0001
0000
0001
1000
0010
0100
0001
0010
0100
0000
,
1000
0000
0010
0100
0001
0000
1000
0000
0100
0000
0010
0001
1000
0010
1000
0000
,
0010
1000
0010
0000
1000
0100
0010
0001
0200
0000
0000
0000
0310
0100
0001
0000
,
1000
0000
0100
0010
0001
0000
0100
0000
0001
0010
0100
1000
0001
0000
1010
0000
,
0100
0000
0001
0000
1000
0100
0010
0000
0010
0000
0010
0000
0001
0100
0010
0000
,
1000
0000
0100
0010
0100
0000
1000
0000
0001
0010
0001
0000
1000
0010
1000
0000
,
0100
0010
0001
0000
0100
0010
1000
0001
0200
0000
0000
0000
0301
1000
0010
0000
,
1000
0000
0100
0000
0001
0000
0010
0000
1000
0000
0001
0000
0100
0010
0100
0000
,
0010
0100
0010
0000
0100
0010
0100
0010
0100
0010
0100
0010
1000
0000
0000
0000
,
0101
0000
0001
0010
1100
0000
0010
0000
,
1001
0000
0100
0010
0101
1000
0001
0000
,
0011
0000
1000
0001
0110
0000
1000
0000
,
1100
0000
0000
0000
0010
0000
0001
0000
0110
0000
1000
0100
1000
0000
0000
0000
,
1010
0001
0010
0100
1100
0001
1000
0010
,
1001
0000
0100
0000
0010
0000
1000
0000
0101
0000
0001
0000
0010
0000
0100
1000
,
0001
0000
0100
0000
0010
0000
1000
0001
1000
0000
0100
0000
0010
0001
0010
0001
,
1000
0100
1000
0100
0010
0100
1000
0000
0002
0000
0000
0000
0013
0000
0001
0100
,
0001
0100
0001
0100
0001
0010
0100
0010
0001
0100
2000
0000
3020
0000
1030
0100
,
0010
0100
0010
0100
0010
0001
0010
0100
2000
0000
3002
0000
0013
0000
0001
1000
,
0100
0000
0010
0000
0000
0000
0001
0010
1000
0000
0001
0000
2000
0000
3100
0000
,
0002
0000
0000
0000
2003
0000
0010
0000
3010
0000
0000
0000
0100
0000
0001
0010
,
0001
0000
0000
0010
0000
0000
0100
0000
0000
0010
0000
0000
0100
0000
0000
1000
0000
0000
0010
0000
0000
1000
0000
0000
0100
0000
0000
0010
0000
0000
0002
0000
0000
0000
0000
0000
2003
0000
0000
0000
0000
0000
3001
0000
0010
0000
0100
0000
,
1000
0000
0100
0000
0010
0000
0001
0000
0000
1000
0000
0000
0020
0000
0000
0000
0000
0000
0230
0000
0000
0000
0000
0000
0302
0000
0000
0000
0000
0000
0000
0000
0000
0000
0000
0000
0103
0000
0000
0000
0000
0000
0001
0000
0000
0010
0000
0000
,
0001
0000
1100
0000
0101
0000
0000
0010
1000
0000
0100
0000
0010
0100
1000
0010
,
1000
0001
1000
0000
0001
0100
0001
0000
0100
0010
1000
0001
0100
0000
0010
1000
,
0010
1000
0010
1000
0100
0010
0100
1000
0010
1000
0002
0000
0103
0000
0100
0000
,
0100
0000
0001
0010
1000
0000
0001
0100
1000
0000
0001
0000
0010
0000
0001
1000
,
0001
0000
0100
0000
0000
0000
0010
1000
0100
0000
0001
0000
1000
0000
0010
0000
,
0200
0000
0000
0000
0301
0000
1000
0010
2000
0000
0000
0000
3100
0000
0010
0001
,
0010
0000
0000
0001
0000
0000
0010
0000
0000
0100
0000
0000
1000
0000
0000
0001
0000
0000
1000
0000
0100
0000
0010
0000
0001
0000
0000
1000
0000
0000
0001
0000
0000
0000
0000
0000
0100
0000
0000
0000
0000
0000
0010
0000
0000
1000
0000
0000
,
0010
0000
0100
0000
0010
0000
0100
0000
0010
0000
0100
0000
0001
0000
0000
0000
0000
0000
0010
0000
0000
0000
0000
0000
0001
0000
0000
0100
0000
0000
1000
0000
0000
0000
0000
0000
0010
0000
0000
0000
0000
0000
1000
0000
0000
0001
0000
0000
,
0000
1000
0100
0000
0110
0000
0000
0010
0001
0000
1001
0000
1000
0010
1000
0010
,
0100
0001
0010
0000
0100
1000
0001
0000
1000
0010
0100
0001
0010
0000
0001
1000
,
0000
0001
1000
0000
0001
1000
0000
0001
1000
0000
0100
0000
0010
0000
0001
1000
,
0000
0001
1000
0000
0001
1000
0000
0001
1000
0000
0100
0000
0010
0000
0001
1000
,
0000
0001
1000
0000
0001
1000
0000
0001
1000
0000
0100
1000
0010
0000
0100
0001
,
0000
0100
0001
0000
1000
0100
0010
0001
0200
0000
0000
0000
0310
0000
0100
0001
,
0000
0001
0010
0000
0010
0100
0000
0100
1000
0001
1000
0000
0010
0000
1000
0100
,
0000
0100
0010
0000
0010
0001
0000
0001
1000
0100
1000
0000
0010
0000
1000
0001
,
0000
0001
0010
0000
0010
0001
0000
0001
0100
0010
0100
0000
0001
0000
0010
1000
,
0000
0000
0000
1000
0000
0000
0001
0000
0000
0000
0000
0000
0001
0000
0000
0100
0000
0000
0000
0000
0000
0100
0000
0000
0010
0000
1000
0000
0001
0000
0100
0000
0000
0000
0000
0000
0001
0000
0000
0000
0000
0000
0010
0000
0000
0100
0000
0000
,
0000
0100
1000
0000
0010
1000
0010
0100
0010
1000
0001
0000
0100
0000
0001
1000
,
0000
1000
0100
0000
0010
0001
1000
0001
0010
0001
0100
0000
0010
0000
1000
0100
,
0000
0100
0001
0000
0001
0010
0000
0010
0100
0000
0100
1000
0000
1000
0001
0000
,
0001
0010
0000
0010
0001
0000
0001
1000
0000
1000
0100
0010
0002
0000
0100
0000
,
0010
0000
0100
0000
2003
0000
3020
0000
2030
0000
3002
0000
0100
0000
0000
0010
,
0000
0000
1000
0000
0000
0010
0000
0000
0103
0001
1000
0001
0020
0000
0000
1000
,
0000
0000
0001
0000
0230
0000
0001
0000
2300
0000
3002
0000
0010
0000
0000
1000
,
0000
0000
0100
0000
0000
0010
0000
1003
0001
0010
0100
0000
2000
0000
0001
0000
,
0100
0000
3010
0000
2000
0000
3200
0000
0320
0000
0032
0000
0100
0000
0000
0010
,
0000
0000
1003
0000
0200
1000
0000
1300
0010
0100
0001
0000
1000
0000
0001
0010
,
0100
1000
0010
0000
1000
0001
0010
0001
1000
0100
1000
0000
0001
0010
0100
1000
,
0100
0010
0001
0010
0100
1000
0100
0010
0001
0000
1000
0000
0010
0000
0100
0001
,
0100
0010
0100
0001
0010
0100
0010
0001
0010
0100
2000
0000
3002
0000
1003
0010
,
1000
0001
0010
0001
1000
0010
2000
0000
3200
0000
0320
0000
0032
0000
0103
0000
,
0001
0010
0100
0010
0100
1000
0001
0000
1000
0001
0100
0000
0010
0000
2000
0000
,
3200
0000
0302
0000
0003
0000
2000
0000
3020
0000
0032
0000
0103
0000
0001
1000
,
0001
0010
0100
1000
0100
1000
0100
1000
0001
1000
0010
0000
0100
0000
0001
0000
,
1000
0000
0100
0010
0100
0000
1000
0010
1000
0001
0010
0000
0001
0000
1000
0010
,
1000
0000
0000
0000
0000
0000
1100
0000
0000
0000
0000
0000
0011
0000
0000
0000
0000
0000
0000
0000
0000
0100
0000
0000
0001
0000
0000
0010
0000
0000
1000
0000
0000
0000
0000
0000
0001
0000
0100
0000
0001
0000
0100
0000
0001
0000
0100
0000
,
0010
0000
1010
0000
0000
0001
0100
0000
1001
0000
0000
0000
0000
0000
0000
0000
;
