#TITLE:Mochi Crunch;
#SUBTITLE:;
#ARTIST:NEKOJIRA;
#TITLETRANSLIT:;
#SUBTITLETRANSLIT:;
#ARTISTTRANSLIT:;
#GENRE:;
#CREDIT:;
#BANNER:Mochi Crunch-bn.png;
#BACKGROUND:Mochi Crunch-bg.png;
#LYRICSPATH:;
#CDTITLE:;
#MUSIC:Mochi Crunch.ogg;
#OFFSET:0.000000;
#SAMPLESTART:28.138000;
#SAMPLELENGTH:20.000000;
#SELECTABLE:YES;
#DISPLAYBPM:145.000000;
#BPMS:0.000000=145.000000
;
#STOPS:
;
#BGCHANGES:;
#KEYSOUNDS:;
#ATTACKS:;

//---------------dance-single - ----------------
#NOTES:
     dance-single:
     :
     Beginner:
     3:
     0.150700,0.204747,0.000000,0.000000,0.000000,110.000000,110.000000,0.000000,0.000000,0.000000,0.000000,0.150700,0.204747,0.000000,0.000000,0.000000,110.000000,110.000000,0.000000,0.000000,0.000000,0.000000:
0000
0000
0000
0000
,
0000
0000
0000
0000
,
0000
0000
0000
0000
,
1000
0000
0000
0000
,
0001
0000
0000
0000
,
0001
0000
0000
1000
,
1000
0000
0000
0001
,
0001
0000
0000
0010
,
0100
0000
0100
0000
,
0001
0000
0100
0000
,
0010
0000
1000
0000
,
0001
0000
1000
0000
,
0100
0000
0001
0000
,
0001
0000
1000
0000
,
0001
0000
1000
0000
,
0010
0000
0010
0000
,
0100
0000
0000
0100
,
0100
0000
0000
1000
,
0100
0000
0100
0000
,
0010
0000
0000
0001
,
0010
0000
0010
0000
,
0100
0000
0000
0001
,
0100
0000
0100
0000
,
0010
0000
0000
1000
,
0010
0000
0010
0010
,
0010
0000
0000
0000
,
0100
0000
0000
0000
,
0001
0000
0000
0000
,
1000
0000
0000
0000
,
0100
0000
0000
0000
,
1000
0000
0000
0000
,
1000
0000
0000
0000
,
1000
0000
0001
0000
,
0100
0000
0000
0000
,
0001
0000
0000
0000
,
0010
0000
0000
0000
,
1000
0000
0000
0000
,
1000
0000
0001
0000
,
1000
0000
0001
0000
,
0001
0000
1000
0000
,
0001
0000
0000
0000
,
0010
0000
0100
0000
,
1000
1000
0000
0000
,
0100
0000
0010
0000
,
0001
0001
0000
0000
,
1000
0000
0001
0000
,
0010
0000
0001
0000
,
0001
0000
1000
0000
,
0010
0000
1000
0000
,
0100
0000
1000
0000
,
0100
0000
0001
0001
,
0100
0000
1000
0000
,
0100
0000
1000
0001
,
0001
0000
0000
0010
,
1000
0000
0000
0100
,
0001
0000
0000
0100
,
1000
0000
0000
0010
,
0001
0001
0000
1000
,
1000
1000
0000
0010
,
0010
0010
0000
0100
,
0100
0100
0000
1000
,
0001
0000
0000
0000
;

//---------------dance-single - ----------------
#NOTES:
     dance-single:
     :
     Easy:
     6:
     0.269891,0.329657,0.076720,0.009590,0.000000,197.000000,189.000000,8.000000,1.000000,0.000000,0.000000,0.269891,0.329657,0.076720,0.009590,0.000000,197.000000,189.000000,8.000000,1.000000,0.000000,0.000000:
0000
0000
0000
0000
,
0000
0000
0000
0000
,
0000
0000
0000
0000
,
0001
0000
0010
1000
,
0001
0000
1000
0010
,
1000
0000
0001
0100
,
1000
0000
0100
0010
,
0001
0000
1000
0010
,
0100
0000
0010
1001
,
0100
0001
0100
0010
,
0100
1000
0100
0010
,
0010
0100
0010
1000
,
0010
0100
0010
0001
,
1000
0101
0000
0000
,
0001
0100
1000
0001
,
1000
0010
1000
0000
,
0001
0010
0001
1000
,
1001
0010
0010
0000
,
1000
0010
0100
0000
,
0001
0100
0100
0000
,
0001
0100
0010
0000
,
0010
0000
0010
0001
,
0010
0000
0100
1000
,
0100
0000
0100
0001
,
0100
0000
0010
1000
,
0110
0000
0100
0000
,
0010
0000
0001
0000
,
0010
0000
0100
0000
,
0010
0000
1000
0000
,
0110
0000
0010
0000
,
0100
0000
1000
0000
,
0100
0000
0010
0000
,
0100
0000
0001
0000
,
0100
0010
0010
0000
,
0010
0010
0010
0000
,
0010
0100
0100
0000
,
0100
0100
0100
0010
,
0001
0010
1000
0000
,
1000
0100
0001
0100
,
1000
0010
0001
0000
,
0001
0100
1000
0100
,
1000
0100
0001
0000
,
0001
0010
1000
0010
,
0001
0100
1000
0000
,
1000
0010
0001
0010
,
1000
1000
0010
0000
,
1000
0100
0010
0100
,
0001
0001
0010
0000
,
0001
0100
0010
0100
,
0001
0001
0100
0000
,
0001
0010
0100
0010
,
1000
1000
0100
0000
,
1000
0010
1001
0110
,
0010
0100
0010
0001
,
0010
0010
0100
1000
,
0010
0100
0010
1000
,
0100
0100
0010
0001
,
1000
0100
0001
1000
,
0001
0010
1000
0001
,
1000
0001
0010
0100
,
1000
0100
0010
1001
,
2000
0000
0000
0000
,
0000
0000
3000
0000
;

//---------------dance-single - ----------------
#NOTES:
     dance-single:
     :
     Medium:
     10:
     0.509641,0.505394,0.067130,0.038360,0.000000,372.000000,365.000000,7.000000,4.000000,0.000000,0.000000,0.509641,0.505394,0.067130,0.038360,0.000000,372.000000,365.000000,7.000000,4.000000,0.000000,0.000000:
0000
0000
0000
0000
,
0000
0000
0000
0000
,
0000
0000
0000
0000
,
1000
0001
0000
0010
0000
1000
0000
0010
,
0001
0010
0000
1000
0000
0100
0000
0010
,
1001
0000
0000
0001
0000
0000
1000
0001
,
1000
0010
0001
0000
1000
0100
0001
0000
,
0010
0100
1000
0000
0100
0010
0001
0000
,
0001
0100
1000
0000
1000
0100
0010
0001
,
0100
1000
0100
0001
1000
0000
0001
0010
,
0100
0001
0100
0001
1000
0000
0010
1000
,
0010
1000
0100
1000
0001
0000
0100
1000
,
0010
0001
0100
0001
1000
0000
0010
0001
,
1000
0001
1000
0001
0100
0000
0010
0100
,
0001
1000
0001
1000
0001
0000
0100
0010
,
0001
0100
1000
0010
0001
0000
0100
1000
,
0010
1000
0100
0001
0010
0000
0100
0010
,
1000
0100
1000
0000
0001
0100
0001
0000
,
1000
0100
1000
0000
0001
0010
0001
1000
,
0001
0010
0001
0000
1000
0010
1000
0000
,
0001
0100
0001
0000
1000
0010
1000
0100
,
0010
0100
0010
0000
0001
0010
1000
0000
,
0010
0100
0010
0000
1000
0100
0001
0000
,
0100
0010
0100
0000
0010
1000
0001
0000
,
0100
0100
0010
0000
1000
0100
0010
0001
,
1000
0000
0100
0010
0000
0001
0000
1000
,
0100
0000
0010
0001
0000
1000
0000
0100
,
0001
0000
0010
0100
0000
1000
0000
0001
,
0010
0000
0100
1000
0000
0001
1000
0010
,
0001
0100
0001
1000
0000
0001
0010
0001
,
1000
0010
1000
0100
0000
1000
0001
1000
,
0100
0001
0100
0010
0000
0100
1000
0100
,
0010
1000
0010
0001
0000
0010
0100
0010
,
1000
0010
0001
1000
0000
0010
1000
0010
,
0001
0010
1000
0001
0000
0010
0001
0010
,
1002
0100
1000
0010
,
2003
0001
0010
0100
,
3001
0100
0001
0000
1000
0100
1000
0000
,
1000
0010
1000
0100
0001
0010
0001
0000
,
1000
0010
1000
0000
0001
0010
0001
0000
,
0010
1000
0100
1000
0001
0100
0010
0000
,
0010
1000
0010
0000
0001
0100
0001
0000
,
1000
0100
0010
0001
1000
0010
0001
0000
,
0001
0010
1000
0000
1000
0100
0001
0000
,
0001
0010
0100
1000
0100
0010
0001
0000
,
0100
0000
0001
0000
1000
0010
0100
0001
,
0100
0000
1000
0000
0001
0100
0010
0001
,
0010
0000
0100
0000
1000
0010
0100
0001
,
0001
0000
1000
0000
0010
1000
0100
0001
,
0010
0000
1000
0000
0001
0100
0010
1000
,
0010
0000
0001
0000
1000
0010
0100
1000
,
0100
0000
0010
0000
0001
0100
0010
1000
,
1000
0000
0001
0100
1000
0001
1000
0001
,
1001
0000
0010
0100
1000
0000
0001
0010
,
1000
0000
0001
0010
0001
1000
0010
0100
,
0001
0000
0010
0100
0001
0000
1000
0100
,
1000
0000
0100
0010
1000
0000
0001
1000
,
1001
0010
0100
0000
1000
0010
1000
0100
,
0001
0010
0001
0000
1000
0001
0100
0010
,
1000
0100
1000
0000
1000
0100
0001
0010
,
0011
0000
1100
0000
1000
0001
1000
0001
,
2002
0000
0000
0000
,
3003
0000
0000
0000
;

//---------------dance-single - ----------------
#NOTES:
     dance-single:
     :
     Hard:
     14:
     0.582252,0.594582,0.086310,0.258931,0.570607,425.000000,416.000000,9.000000,27.000000,0.000000,0.000000,0.582252,0.594582,0.086310,0.258931,0.570607,425.000000,416.000000,9.000000,27.000000,0.000000,0.000000:
0000
0000
0000
0000
,
0000
0000
0000
0000
,
0000
0000
0000
0000
,
1000
0010
0100
0010
0001
0010
0100
0010
,
0001
0100
0010
0100
1000
0100
0001
0100
,
2000
0000
3001
0002
0000
1003
0020
0000
,
0130
0001
1000
0001
0010
0001
1000
0001
,
0002
0100
0000
0100
0000
0100
0000
0100
,
2003
0010
0000
0001
0000
0010
0000
3001
,
0110
0000
0010
0000
0100
0001
0000
1000
0000
0000
1000
0010
0000
0001
0000
0000
,
0100
0000
0010
0000
0100
0001
0000
0010
0000
0000
0100
1000
0000
0010
0001
0000
,
1000
0000
0001
0000
1000
0010
0000
0001
0000
0000
1000
0010
0000
0001
0000
0000
,
1000
0000
0100
0000
0001
0100
0000
1000
0000
0000
0001
0010
0000
0100
1000
0010
,
0001
0000
1000
0000
0001
0100
0000
1000
0000
0000
1000
0010
0000
0001
0000
0000
,
1000
0000
0001
0000
1000
0100
0000
0001
0000
0000
0001
0010
0000
1000
0000
0000
,
0010
0000
1000
0000
0100
1000
0000
0001
0000
0000
0010
0100
0000
0001
0000
0000
,
0010
0000
0001
0000
0100
0001
0000
1000
0000
0000
0010
0100
0000
1000
0010
0001
,
2000
3001
0000
0000
1000
0100
1000
0010
,
0002
1003
0000
0000
0001
0100
0001
0010
,
0002
1003
0000
0000
1000
0010
0001
0100
,
2000
3001
0000
0000
0010
0001
0010
0100
,
0020
0000
0130
0000
1000
0000
0000
0000
0001
0000
0100
0000
1000
0010
0100
0000
,
0200
0000
0310
0000
0001
0000
0000
0000
1000
0000
0010
0000
0100
0001
0010
0000
,
0002
1003
0010
0000
0001
1000
0001
1000
,
0002
0000
0103
0020
0000
1030
0200
0310
,
1001
0000
0000
0000
0010
0000
0000
1000
0000
0000
0100
0000
0000
0000
0001
0000
,
0010
0000
0000
0000
1000
0000
0000
0001
0000
0000
0100
0000
0000
0000
1000
0000
,
1000
0000
0000
0000
0100
0000
0000
0001
0000
0000
0010
0000
0000
0000
1000
0000
,
0100
0000
0000
0000
0001
0000
0000
1000
0000
0000
0010
0000
0000
0000
0001
0000
,
1000
0100
0001
0100
0010
0100
1000
0100
,
0001
0100
1000
0100
0010
0100
0001
0100
,
0001
0010
0100
0010
1000
0010
0001
0010
,
1000
0010
0100
0010
0001
0010
1000
0010
,
1000
0010
0001
0000
1000
0010
1000
0001
,
0001
0010
1000
0000
0001
0100
0001
1000
,
0002
0000
0023
0000
,
2030
0000
3200
0000
,
0301
0000
0001
0000
0001
0000
0000
0010
0000
0100
0000
1000
0000
0100
0001
0000
,
1000
0000
0100
0000
1000
0000
0000
0100
0000
0001
0000
0010
0000
0100
1000
0000
,
0010
0000
1000
0000
0010
0000
0000
1000
0000
0001
0000
0010
0000
1000
0100
0000
,
0001
0000
0010
0000
1000
0000
0000
0100
0000
0010
0000
0001
0000
0100
0001
0000
,
1000
0000
1000
0000
1000
0000
0000
0100
0000
0010
0000
0001
0000
0010
1000
0000
,
0001
0000
0010
0000
0001
0000
0000
0010
0000
1000
0000
0100
0000
0010
0001
0000
,
0100
0000
0001
0000
0100
0000
0000
0001
0000
1000
0000
0100
0000
0001
0010
0000
,
1000
0000
0100
0000
0001
0000
0000
0010
0000
0100
0000
1000
0000
0010
1000
0000
,
0001
0000
0100
0000
0001
0100
0000
1000
0000
1000
0000
1000
0000
0000
0100
0000
,
1000
0000
0100
0000
1000
0100
0000
0001
0000
0001
0000
0001
0000
0000
0010
0000
,
0100
0000
0010
0000
0001
0100
0000
0100
0000
0010
0000
0001
0000
0000
0100
0000
,
1000
0000
0001
0000
0010
1000
0000
0100
0000
0010
0000
0001
0000
0000
0010
0000
,
2001
0000
0010
0000
0001
0000
0010
0100
,
3002
0000
1000
0000
0100
0000
1000
0010
,
2003
0000
0010
0000
3002
0000
0100
1000
,
1003
0001
1000
0001
0100
0010
0220
0330
,
1000
0000
0001
0000
1000
0010
0000
0001
0000
0000
0001
0010
0000
1000
0000
0000
,
1000
0000
0010
0000
0001
0010
0000
1000
0000
0000
0001
0010
0000
1000
0100
0001
,
0010
0000
1000
0000
0100
0001
0000
0010
0000
0000
1000
0010
0000
0001
0000
0000
,
0100
0000
0001
0000
0010
1000
0000
0100
0000
0000
1000
0010
0000
0001
0100
1000
,
0100
0000
0100
0000
0001
0010
0000
0100
0000
0000
0010
0001
0000
0100
0000
0000
,
0100
0000
0010
0000
1000
0010
0000
0100
0000
0000
0001
1000
0000
0010
1000
0100
,
0100
0000
0100
0000
0001
0010
0000
0100
0000
0000
0010
0001
0000
0100
0000
0000
,
1100
0011
1001
0110
,
2002
0000
0000
0000
,
3003
0000
0000
0000
;

//---------------dance-double - ----------------
#NOTES:
     dance-double:
     :
     Easy:
     6:
     0.271261,0.328339,0.076720,0.009590,0.000000,198.000000,190.000000,8.000000,1.000000,0.000000,0.000000,0.271261,0.328339,0.076720,0.009590,0.000000,198.000000,190.000000,8.000000,1.000000,0.000000,0.000000:
00000000
00000000
00000000
00000000
,
00000000
00000000
00000000
00000000
,
00000000
00000000
00000000
00000000
,
00000010
00000000
00000010
00001000
,
00010000
00000000
00001000
00000010
,
00001000
00000000
00010000
01000000
,
10000000
00000000
01000000
00100000
,
00010000
00000000
00001000
00000010
,
00000100
00000000
00000010
00001001
,
00000100
00000001
00000100
00000010
,
00000100
00001000
00000100
00001000
,
00010000
01000000
00100000
00010000
,
00100000
01000000
00100000
00010000
,
10000000
01010000
00000000
00000000
,
00010000
01000000
10000000
00010000
,
00001000
00000010
00001000
00000000
,
00000001
00000010
00000001
00001000
,
00001001
00000010
00000010
00000000
,
00001000
00000010
00000100
00000000
,
00010000
01000000
00100000
00000000
,
00010000
01000000
10000000
00000000
,
00100000
00000000
10000000
00010000
,
00100000
00000000
10000000
00010000
,
00001000
00000000
00000100
00000001
,
00000100
00000000
00000010
00001000
,
00001010
00000000
00000100
00000000
,
00000010
00000000
00001000
00000000
,
00100000
00000000
01000000
00000000
,
00100000
00000000
10000000
00000000
,
01100000
00000000
00100000
00000000
,
01000000
00000000
00100000
00010000
,
00001000
00000000
00000010
00000000
,
00000100
00000000
00000001
00000000
,
00000100
00000010
00000010
00000000
,
00000010
00000010
00000100
00000000
,
00010000
00100000
01000000
00000000
,
01000000
01000000
01000000
00100000
,
00010000
00100000
10000000
00000000
,
10000000
01000000
00010000
01000000
,
00001000
00000010
00000001
00000000
,
00000001
00000100
00001000
00000100
,
00001000
00000100
00000001
00000000
,
00000001
00000010
00001000
00000010
,
00010000
01000000
10000000
00000000
,
10000000
00100000
00010000
00100000
,
10000000
10000000
00100000
00000000
,
10000000
01000000
00100000
01000000
,
00010000
00001000
00000010
00000000
,
00000001
00000100
00000010
00000100
,
00000001
00000001
00000100
00000000
,
00000001
00000010
00000100
00000010
,
00001000
00010000
01000000
00000000
,
10000000
00100000
10010000
01100000
,
00100000
01000000
00100000
00010000
,
00100000
00100000
01000000
10000000
,
00100000
01000000
00100000
10000000
,
01000000
01000000
00100000
00010000
,
00001000
00000100
00000001
00001000
,
00000001
00000010
00001000
00000001
,
00001000
00010000
00001000
00010000
,
00100000
01000000
00100000
00011000
,
00002000
00000000
00000000
00000000
,
00000000
00003000
00000000
00000000
;

//---------------dance-double - ----------------
#NOTES:
     dance-double:
     :
     Medium:
     10:
     0.504161,0.471829,0.047950,0.057540,0.000000,368.000000,363.000000,5.000000,6.000000,0.000000,0.000000,0.504161,0.471829,0.047950,0.057540,0.000000,368.000000,363.000000,5.000000,6.000000,0.000000,0.000000:
00000000
00000000
00000000
00000000
,
00000000
00000000
00000000
00000000
,
00000000
00000000
00000000
00000000
,
00010000
10000000
00000000
01000000
00000000
00010000
00000000
01000000
,
10000000
01000000
00000000
00010000
00000000
00100000
00000000
01000000
,
00011000
00000000
00000000
00001000
00000000
00000000
00000001
00001000
,
00000001
00000100
00001000
00000000
00000001
00000010
00001000
00000000
,
00000100
00000010
00000001
00000000
00000010
00000100
00001000
00000000
,
00001000
00000010
00000001
00000000
00000001
00000010
00000100
00001000
,
00010000
00100000
00010000
10000000
00010000
00000000
10000000
01000000
,
00100000
10000000
00100000
10000000
00010000
00000000
01000000
00010000
,
01000000
00010000
00100000
00010000
10000000
00000000
00100000
00010000
,
01000000
10000000
00100000
10000000
00010000
00000000
01000000
10000000
,
00010000
00001000
00010000
00001000
00000010
00000000
00000100
00000010
,
00001000
00000001
00001000
00000001
00001000
00000000
00000010
00000100
,
00001000
00000010
00000001
00000100
00001000
00000000
00000010
00000001
,
00000100
00000001
00000010
00001000
00000100
00000000
00000010
00000100
,
00000000
00010000
00100000
00000000
01000000
00100000
10000000
00000000
,
00010000
00100000
00010000
00000000
10000000
01000000
10000000
00010000
,
10000000
01000000
10000000
00000000
00010000
01000000
00010000
00000000
,
10000000
00100000
10000000
00000000
00010000
01000000
00100000
00010000
,
00001000
00000010
00000100
00000000
00001000
00000100
00000001
00000000
,
00000100
00000010
00000100
00000000
00000001
00000010
00001000
00000000
,
00000010
00000100
00000010
00000000
00000100
00000001
00001000
00000000
,
00000010
00000010
00000100
00000000
00000001
00000010
00000100
00001000
,
00010000
00000000
00100000
01000000
00000000
10000000
00000000
00010000
,
00100000
00000000
01000000
10000000
00000000
00100000
00000000
00010000
,
00001000
00000000
00000100
00000010
00000000
00000001
00000000
00001000
,
00000100
00000000
00000010
00000001
00000000
00001000
00000001
00000100
,
00010000
00100000
10000000
00010000
00000000
10000000
01000000
10000000
,
00010000
01000000
00010000
00100000
00000000
00010000
10000000
00010000
,
00001000
00000010
00000100
00000010
00000000
00000010
00000001
00000010
,
00000100
00000001
00000100
00001000
00000000
00000100
00000010
00000100
,
00010000
00001000
00100000
00010000
00000000
01000000
00010000
01000000
,
10000000
01000000
00010000
10000000
00000000
01000000
10000000
01000000
,
00012000
00100000
00010000
01000000
,
00023000
10000000
01000000
00100000
,
00031000
00000000
00001000
00000000
00000001
00000010
00000001
00000000
,
00000001
00000100
00000001
00000010
00001000
00000100
00001000
00000000
,
00010000
01000000
00010000
00000000
10000000
01000000
10000000
00000000
,
01000000
00010000
00100000
00010000
10000000
00100000
01000000
00000000
,
01000000
00010000
00001000
00000000
00001000
00000010
00001000
00000000
,
00000001
00000010
00000100
00001000
00000001
00000100
00001000
00000000
,
00001000
00000100
00000001
00000000
00000001
00000010
00001000
00000000
,
00001000
00000100
00000010
00000001
00000010
00000100
00001000
00000000
,
00010000
00100000
10000000
00000000
00010000
01000000
00100000
10000000
,
00100000
00000000
00010000
00000000
10000000
00100000
01000000
10000000
,
01000000
00000000
00100000
00000000
00010000
01000000
00100000
10000000
,
10000000
00000000
00010000
00000000
01000000
00010000
00100000
00010000
,
00001000
00000000
00010000
00000000
00001000
00000010
00000100
00000001
,
00000100
00000000
00001000
00000000
00000001
00000100
00000010
00000001
,
00000010
00000000
00000100
00000000
00001000
00000010
00000100
00000001
,
00000001
00000000
00001000
00000010
00000001
00001000
00000001
00001000
,
00011000
00000000
01000000
00100000
00010000
00000000
10000000
01000000
,
00010000
00000000
10000000
01000000
10000000
00010000
01000000
00100000
,
00001000
00000000
00000100
00000010
00001000
00000000
00000001
00000010
,
00000001
00000000
00000010
00000100
00000001
00000000
00001000
00010000
,
10010000
01000000
00100000
00000000
00010000
01000000
00010000
00100000
,
10000000
01000000
10000000
00000000
00010000
00001000
00000010
00000100
,
00000001
00000010
00000001
00000000
00000001
00000010
00001000
00000100
,
00022000
00000000
00000000
00003000
00230000
00010000
10000000
00310000
,
00002000
00000000
00003000
00000000
;

//---------------dance-double - ----------------
#NOTES:
     dance-double:
     :
     Hard:
     14:
     0.579512,0.594582,0.105490,0.278111,0.565812,423.000000,412.000000,11.000000,29.000000,0.000000,0.000000,0.579512,0.594582,0.105490,0.278111,0.565812,423.000000,412.000000,11.000000,29.000000,0.000000,0.000000:
00000000
00000000
00000000
00000000
,
00000000
00000000
00000000
00000000
,
00000000
00000000
00000000
00000000
,
00001000
00000010
00000100
00000010
00000001
00000010
00000100
00000010
,
00000001
00000100
00000010
00000100
00001000
00000100
00000001
00001000
,
00020000
00000000
10030000
20000000
00000000
30010000
02000000
00000000
,
03100000
10000000
00010000
10000000
01000000
10000000
00010000
10000000
,
02000000
00000000
00010000
00000000
00100000
00000000
00010000
03000000
,
00200000
00000000
00000000
00300000
20020000
00000000
00000000
30030000
,
01100000
00000000
01000000
00000000
00100000
10000000
00000000
00010000
00000000
00000000
00010000
01000000
00000000
10000000
00000000
00000000
,
00100000
00000000
01000000
00000000
00100000
10000000
00000000
01000000
00000000
00000000
00100000
00010000
00000000
01000000
00010000
00000000
,
00001000
00000000
00001000
00000000
00000001
00000100
00000000
00001000
00000000
00000000
00000001
00000100
00000000
00001000
00000000
00000000
,
00000001
00000000
00000010
00000000
00001000
00000010
00000000
00000001
00000000
00000000
00001000
00000100
00000000
00000010
00000001
00000100
,
00001000
00000000
00000001
00000000
00001000
00000010
00000000
00000001
00000000
00000000
00000001
00000100
00000000
00001000
00000000
00000000
,
00001000
00000000
00000001
00000000
00000001
00000010
00000000
00001000
00000000
00000000
00001000
00000100
00000000
00001000
00000000
00000000
,
00010000
00000000
00100000
00000000
01000000
00010000
00000000
10000000
00000000
00000000
01000000
00100000
00000000
10000000
00000000
00000000
,
01000000
00000000
10000000
00000000
00100000
10000000
00000000
00010000
00000000
00000000
01000000
00100000
00000000
00010000
01000000
10000000
,
00020000
10030000
00000000
00000000
00010000
00100000
00010000
01000000
,
20000000
30010000
00000000
00000000
10000000
00100000
10000000
01000000
,
00020000
00031000
00000000
00000000
00001000
00000100
00000001
00000010
,
00000002
00001003
00000000
00000000
00000100
00001000
00000100
00000010
,
00000200
00000000
00000310
00000000
00000001
00000000
00000000
00000000
00001000
00000000
00000010
00000000
00000001
00000100
00000010
00000000
,
00000020
00000000
00000130
00000000
00001000
00000000
00000000
00000000
00000001
00000000
00000100
00000000
00000010
00001000
00000100
00000000
,
00020000
10030000
01000000
00000000
10000000
00010000
10000000
00010000
,
20000000
00000000
30100000
02000000
00000000
03010000
00200000
01300000
,
10010000
00000000
00000000
00000000
01000000
00000000
00000000
00010000
00000000
00000000
00100000
00000000
00000000
00000000
10000000
00000000
,
01000000
00000000
00000000
00000000
00010000
00000000
00000000
10000000
00000000
00000000
00100000
00000000
00000000
00000000
00010000
00000000
,
00011000
00000000
00000000
00000000
00000010
00000000
00000000
00001000
00000000
00000000
00000100
00000000
00000000
00000000
00000001
00000000
,
00000010
00000000
00000000
00000000
00001000
00000000
00000000
00000001
00000000
00000000
00000100
00000000
00000000
00000000
00001000
00000000
,
00000001
00000010
00001000
00000100
00000010
00000100
00000001
00000010
,
00001000
00000100
00000001
00000010
00000100
00000010
00000001
00000010
,
00001000
00010000
00001000
01000000
00010000
01000000
10000000
01000000
,
00010000
01000000
00100000
01000000
10000000
01000000
00010000
01000000
,
00010000
01000000
10000000
00000000
00010000
01000000
00010000
10000000
,
10000000
01000000
00010000
00000000
10000000
00100000
10000000
00010000
,
02000000
00000000
03020000
00000000
,
00032000
00000000
00003020
00000000
,
00001030
00000000
00001000
00000000
00001000
00000000
00000000
00000100
00000000
00000010
00000000
00000001
00000000
00000010
00001000
00000000
,
00000001
00000000
00000010
00000000
00000001
00000000
00000000
00000010
00000000
00001000
00000000
00000100
00000000
00000010
00000001
00000000
,
00000100
00000000
00000001
00000000
00000100
00000000
00000000
00000001
00000000
00001000
00000000
00000100
00000001
00000000
00000010
00000000
,
00001000
00000000
00010000
00000000
01000000
00000000
00000000
00100000
00000000
01000000
00000000
10000000
00000000
00100000
10000000
00000000
,
00010000
00000000
00010000
00000000
00010000
00000000
00000000
00100000
00000000
01000000
00000000
10000000
00000000
01000000
00010000
00000000
,
10000000
00000000
01000000
00000000
10000000
00000000
00000000
01000000
00000000
00010000
00000000
00100000
00000000
01000000
10000000
00000000
,
00100000
00000000
10000000
00000000
00100000
00000000
00000000
10000000
00000000
00010000
00000000
00100000
00000000
10000000
01000000
00000000
,
00010000
00000000
00000010
00000000
00001000
00000000
00000000
00000100
00000000
00000010
00000000
00000001
00000000
00000100
00000001
00000000
,
00001000
00000000
00000010
00000000
00001000
00000010
00000000
00000001
00000000
00000001
00000000
00000001
00000000
00000000
00000010
00000000
,
00000001
00000000
00000010
00000000
00000001
00000010
00000000
00001000
00000000
00001000
00000000
00001000
00000000
00000000
00000100
00000000
,
00000010
00000000
00000100
00000000
00001000
00000010
00000000
00000010
00000000
00000100
00000000
00001000
00000000
00000000
00010000
00000000
,
00010000
00000000
00100000
00000000
01000000
00010000
00000000
00100000
00000000
01000000
00000000
10000000
00000000
00000000
01000000
00000000
,
10020000
00000000
01000000
00000000
10000000
00000000
01000000
00100000
,
20030000
00000000
00010000
00000000
00100000
00000000
00010000
01000000
,
30020000
00000000
01000000
00000000
00032000
00000000
00000010
00000001
,
00003001
00001000
00000001
00001000
00000010
00000100
00000220
00000330
,
00000001
00000000
00001000
00000000
00000001
00000100
00000000
00001000
00000000
00000000
00001000
00000100
00000000
00000001
00000000
00000000
,
00000001
00000000
00000100
00000000
00001000
00000100
00000000
00000001
00000000
00000000
00001000
00000100
00000000
00000001
00000010
00001000
,
00000100
00000000
00000001
00000000
00000010
00001000
00000000
00000100
00000000
00000000
00000001
00000100
00000000
00001000
00000000
00000000
,
00010000
00000000
00001000
00000000
00010000
01000000
00000000
00100000
00000000
00000000
00010000
01000000
00000000
10000000
00100000
00010000
,
00100000
00000000
00100000
00000000
10000000
01000000
00000000
00100000
00000000
00000000
01000000
10000000
00000000
00100000
00000000
00000000
,
00100000
00000000
01000000
00000000
00010000
01000000
00000000
00100000
00000000
00000000
10000000
00010000
00000000
01000000
00010000
00100000
,
00100000
00000000
00100000
00000000
10000000
01000000
00000000
00100000
00000000
00000000
01000000
10000000
00000000
00100000
00000000
00000000
,
10010000
11000000
00110000
00011000
,
00022000
00000000
00000000
00000000
,
00033000
00000000
00000000
00000000
;

//---------------dance-single - ----------------
#NOTES:
     dance-single:
     :
     Challenge:
     17:
     0.864472,0.842484,0.057540,0.134260,1.419324,631.000000,625.000000,6.000000,14.000000,0.000000,0.000000,0.864472,0.842484,0.057540,0.134260,1.419324,631.000000,625.000000,6.000000,14.000000,0.000000,0.000000:
// measure 0
0000
0000
0000
0000
,  // measure 1
0000
0000
0000
0000
,  // measure 2
0000
0000
0000
0000
,  // measure 3
0010
0000
1000
0000
0100
0000
1000
0001
0000
0010
0001
0010
0100
0000
1000
0001
,  // measure 4
0100
0010
0100
0000
0001
0000
1000
0010
0000
1000
0100
0000
1000
0001
0100
0010
,  // measure 5
2000
0010
3001
0102
0010
1003
2100
0010
,  // measure 6
3001
0000
0100
0000
0010
0000
1000
0001
0000
1000
0100
0010
0001
0000
0100
0010
,  // measure 7
2000
3002
0023
0032
2003
3020
0230
0302
,  // measure 8
0023
0000
0000
0000
0000
0000
0000
0000
0130
0000
0100
0000
1000
0001
1000
0001
,  // measure 9
0100
0000
0010
0000
1000
0010
0000
0001
0000
0000
0010
0001
0000
1000
0100
0000
,  // measure 10
0010
0000
0001
0000
0100
0001
0000
1000
0000
0000
0010
0100
0000
0010
1000
0001
,  // measure 11
0100
0000
0010
0000
1000
0001
0000
0010
0000
0000
0100
1000
0000
0001
0100
0000
,  // measure 12
0010
0000
1000
0000
0100
0010
0000
0001
0000
0100
0001
1000
0000
0001
0010
0100
,  // measure 13
1000
0000
0010
0000
1000
0001
1000
0100
0000
0000
0010
0001
0000
0001
1000
0000
,  // measure 14
0010
0000
0100
0000
0010
1000
0000
0001
0000
0010
0100
1000
0000
0010
1000
0001
,  // measure 15
0100
0000
0001
0000
0010
1000
0000
0001
0000
1000
0100
0010
0000
0010
0001
0000
,  // measure 16
0100
0000
0010
0000
0100
0001
0000
1000
0000
0010
1000
0001
0000
0010
0001
0100
,  // measure 17
1000
0000
0010
0000
1000
0001
0010
0001
0100
0000
0010
1000
0000
1000
0001
0000
,  // measure 18
0010
0000
0100
0000
1000
0010
0100
0001
1000
0000
0001
0010
0000
0001
1000
0100
,  // measure 19
0010
0000
0001
0000
0100
0010
0100
0001
1000
0000
0010
1000
0000
1000
0001
0000
,  // measure 20
0100
0000
0010
0000
1000
0100
0000
0001
0000
0010
0001
0100
0000
0001
1000
0010
,  // measure 21
0100
0000
0001
0000
0010
0001
0010
0100
0000
1000
0010
1000
0000
0001
0100
0000
,  // measure 22
0010
0000
0100
0000
0001
0010
0001
1000
0000
0100
1000
0001
0000
0100
0010
0100
,  // measure 23
0001
0000
0010
0000
0001
0100
0010
1000
0000
0010
1000
0001
0000
1000
0100
0010
,  // measure 24
0001
0000
0100
0000
0010
1000
0000
0100
0000
1000
0001
1000
0000
0010
0100
0001
,  // measure 25
1000
0000
0000
0000
1000
0001
0000
0010
0000
0010
0100
0000
0000
1000
0010
1000
,  // measure 26
0001
0000
0000
0000
0001
0100
0000
0010
0000
0010
1000
0000
0000
0000
0100
1000
,  // measure 27
0001
0000
0000
0000
0001
1000
0000
0010
0000
0010
0100
0000
0000
0000
0001
1000
,  // measure 28
0100
0000
0000
0000
0010
0001
1000
0001
0000
0001
0100
0000
0000
0010
1000
0010
,  // measure 29
0100
0000
0000
0000
0001
1000
0001
0010
0000
0010
0100
0000
0000
1000
0001
0000
,  // measure 30
1001
0000
0000
0000
0010
1000
0010
0100
0000
0100
0001
0000
0000
0010
0001
0000
,  // measure 31
0011
0000
0000
0000
0100
0010
0100
1000
0000
1000
0001
0000
0000
0000
0100
0000
,  // measure 32
0010
0000
0000
0000
1000
0001
0010
0001
0000
0001
0100
0000
0000
0010
1000
0100
,  // measure 33
0001
0000
0010
0000
0001
0100
0010
1000
0000
1000
0001
0000
0000
0010
0100
1000
,  // measure 34
0010
0000
0100
0000
0010
1000
0001
1000
0000
0001
0100
0000
0010
0000
1000
0000
,  // measure 35
1010
0000
0000
0000
0100
0001
0100
0001
0000
0100
0001
0000
0000
0000
0010
0000
,  // measure 36
0100
0000
0000
0000
1000
0001
1000
0001
0000
1000
0001
0000
0000
1000
0010
0100
,  // measure 37
0001
0010
1000
0001
0100
1000
0000
0010
0000
0010
0000
0010
0000
1000
0100
0000
,  // measure 38
0010
0001
0100
0010
1000
0100
0000
0001
0000
0001
0000
0001
0000
1000
0100
0010
,  // measure 39
0001
0000
0100
0000
0001
1000
0010
0100
0000
0001
0000
0010
0000
0001
1000
0100
,  // measure 40
0010
0001
1000
0001
0010
0100
0000
1000
0000
0001
0000
1000
0000
0010
0100
0001
,  // measure 41
1000
0000
0010
0000
1000
0001
0000
0010
0000
0100
0000
1000
0010
1000
0001
0100
,  // measure 42
0010
0000
1000
0100
0001
1000
0010
0001
0000
0100
0000
0100
0000
0100
0010
1000
,  // measure 43
0001
0000
0010
0000
0001
0100
0001
1000
0000
0010
0000
0010
0000
0010
1000
0100
,  // measure 44
1000
0000
0001
0010
0001
0100
0010
1000
0000
0100
1000
0001
0000
0001
0100
0000
,  // measure 45
0110
0000
0010
0000
1000
0001
0010
0100
0000
1000
0010
1000
0000
0001
0010
0100
,  // measure 46
1000
0010
0100
0000
0001
0010
0001
1000
0000
0100
0010
0001
0000
1000
0001
0100
,  // measure 47
0010
1000
0100
0000
0010
0001
1000
0001
0000
0100
0001
1000
0000
0010
1000
0100
,  // measure 48
0001
0010
0001
0000
1000
0001
0100
0010
0000
1000
0000
0100
1000
0010
0100
0001
,  // measure 49
1000
0000
0100
0000
0001
0010
0000
0001
0000
1000
0000
0010
0000
0100
0000
0100
,  // measure 50
0001
0010
1000
0000
0100
0010
0000
0010
0000
0001
1000
0001
0000
0100
0000
1000
,  // measure 51
0001
0010
0001
0000
0100
0010
0000
1000
0000
1000
0000
1000
0000
0001
0100
0001
,  // measure 52
1000
0010
0100
0010
1000
0001
0010
0100
1000
0001
1000
0010
0100
0001
1000
0010
,  // measure 53
0100
0000
0001
0000
0010
0100
0000
1000
0010
0000
0100
0001
0000
0001
1000
0000
,  // measure 54
0010
0000
1000
0000
0001
0010
0001
0100
1000
0010
0100
0001
0000
0001
1000
0100
,  // measure 55
1000
0000
0010
0000
0100
0001
0100
0010
0000
1000
0100
0010
0000
0001
1000
0000
,  // measure 56
0010
0000
1000
0000
0001
0010
0001
0100
0010
1000
0001
1000
0000
1000
0100
0010
,  // measure 57
0001
0000
0100
0000
0001
0010
0001
1000
0100
0000
1000
0010
0000
1000
0001
0000
,  // measure 58
0100
0000
0010
0000
0100
0001
1000
0100
0010
0000
0001
1000
0000
1000
0001
0100
,  // measure 59
0010
0000
1000
0000
0001
0010
0001
0100
0010
0000
1000
0100
0000
1000
0001
0000
,  // measure 60
0010
0000
0001
0000
0100
0010
0100
0001
1000
0010
0100
0001
0010
0100
1000
0002
,  // measure 61
0200
0000
0000
0000
,  // measure 62
0000
0000
0000
0303
;
