#TITLE:Mind Your Own Business;
#ARTIST:Delta 5;
#BANNER:Mind Your Own Business-bn.png;
#BACKGROUND:Mind Your Own Business-bg.png;
#JACKET:Mind Your Own Business-jacket.png;
#MUSIC:Mind Your Own Business.ogg;
#SAMPLESTART:14.59;
#SAMPLELENGTH:20;
#DISPLAYBPM:128:136;
#BPMS:0=128,12=133,20=131,22=135,104=134,132=136,140=134.54,156=135.5,200=133.333,202=134.75,204=135.2,216=134.5,232=133.833;
#BGCHANGES:;

//---------------dance-single - ----------------
#NOTES:
     dance-single:
     :
     Beginner:
     2:
     :
0000
0000
0000
0000
,
0000
0000
0000
0000
,
0000
0000
0000
0000
,
0000
0000
0000
0000
,
0010
0000
1000
0000
,
0001
0000
0100
0000
,
0001
0000
0010
0000
,
0100
0000
1000
0000
,
0010
0000
0100
0000
,
0001
0001
0000
0000
,
0010
0000
0100
0000
,
1000
1000
0000
0000
,
0001
0000
1000
0000
,
0001
0001
0000
0000
,
1001
0000
0010
0000
,
0100
0100
0000
0000
,
0110
0000
0001
0000
,
1000
1000
0000
0000
,
0001
0000
1000
0000
,
0001
0001
0001
0000
,
0100
0000
0010
0000
,
1000
1000
1000
0000
,
0001
0000
1000
0000
,
0100
0100
0100
0000
,
0110
0000
0001
0000
,
1000
1000
0000
0000
,
1001
0000
0100
0000
,
0010
0010
0000
0000
,
2000
0000
3000
0000
,
0001
0000
0100
0000
,
0020
0000
0030
0000
,
1000
0000
0001
0000
,
0200
0000
0300
0000
,
0001
0000
0010
0000
,
0002
0000
0003
0000
,
0010
0000
0100
0000
,
2000
0000
0000
0000
,
0000
0000
3000
0000
,
0002
0000
0000
0000
,
0000
0000
0003
0000
,
0200
0000
0000
0000
,
0000
0000
0300
0000
,
0020
0000
0000
0000
,
0000
0000
0030
0000
,
1000
0000
1000
0000
,
1000
0000
0000
0000
,
0001
0000
0001
0000
,
0001
0000
0000
0000
,
0100
0000
0100
0000
,
0100
0000
0000
0000
,
1001
0000
0100
0000
,
0010
0000
0000
0000
,
0110
0000
0001
0000
,
1000
0000
0000
0000
,
0001
0000
0010
0000
,
0100
0100
0000
0000
,
1000
0000
0001
0000
,
1000
1000
0000
0000
,
0010
0000
1000
0000
,
0001
0001
0000
0000
,
0100
0000
0010
0000
,
1001
0000
0000
0000
,
1000
0000
0001
0000
,
0110
0000
0000
0000
;

//---------------dance-single - ----------------
#NOTES:
     dance-single:
     :
     Easy:
     6:
     :
0000
0000
0000
0000
,
0000
0000
0000
0000
,
0000
0000
0000
0000
,
0000
0000
0000
0000
,
0010
0000
1000
0001
,
0100
0100
0010
0100
,
0001
0000
0010
0100
,
1000
1000
0001
1000
,
0001
0100
1000
0100
,
0010
0010
0000
0000
,
0001
0010
1000
0010
,
0100
0100
0000
0000
,
0001
0010
0100
1000
,
0001
1000
0000
0000
,
1001
0000
0010
0100
,
0110
1001
0000
0000
,
0110
0000
0001
1000
,
1001
0110
0000
0000
,
1000
0010
1000
0001
,
0010
0100
0100
0000
,
0010
0001
0100
0001
,
1000
0010
0010
0000
,
1000
0001
0010
0001
,
0100
1000
1000
0000
,
1001
0000
0001
0010
,
0110
1001
0000
0000
,
0110
0000
0010
0001
,
1001
0110
0000
0000
,
1000
0010
1000
0001
,
0100
0010
0020
0030
,
0100
0001
0010
0001
,
1000
0100
0020
0030
,
0001
1000
0001
0010
,
1000
0100
0002
0003
,
0010
0001
0010
0100
,
1000
0010
2000
3000
,
0002
0003
2000
3000
,
0001
0100
0020
0030
,
2000
3000
0002
0003
,
1000
0100
0020
0030
,
0200
0300
2000
3000
,
0010
1000
0002
0003
,
0020
0030
0200
0300
,
0010
0100
2000
3000
,
0001
0001
1000
1000
,
0001
0100
0000
0000
,
0010
0010
1000
1000
,
0100
0010
0000
0000
,
0001
0001
0100
0100
,
0001
0010
0000
0000
,
1001
0000
0010
1000
,
0110
1001
0000
0000
,
0110
0000
0001
0100
,
1001
0110
0000
0000
,
1000
0010
2000
3000
,
0001
0001
0000
0000
,
0010
0001
0200
0300
,
0010
0010
0000
0000
,
1000
0010
1000
0000
,
0001
0001
0000
0000
,
0010
0010
0001
0100
,
1001
0110
0000
0000
,
1000
1000
0001
0100
,
1001
0110
0000
0000
;

//---------------dance-single - ----------------
#NOTES:
     dance-single:
     :
     Medium:
     9:
     :
0000
0000
0000
0000
,
0000
0000
0000
0000
,
0000
0000
0000
0000
,
0000
0000
0000
0000
,
0010
0000
1000
0001
0100
0000
0100
0000
,
0002
2003
3020
0230
,
0301
0000
0010
0100
1000
0000
1000
0000
,
0020
0230
0302
2003
,
3010
1000
0100
1000
0010
0000
0010
0100
,
0001
0001
0000
0000
,
0010
0001
0100
0001
0010
0000
0010
0100
,
1000
1000
0000
0000
,
0001
1000
0010
1000
0001
0000
0001
0100
,
0010
0010
0000
0000
,
1001
0000
0000
0000
1000
0100
0001
0000
,
0011
1100
0000
0000
,
1001
0000
0000
0000
0001
0010
1000
0000
,
1100
0101
0000
0000
,
0010
1000
0100
0000
0010
0001
0100
0000
,
0001
0010
1000
0000
0110
0000
0000
0000
,
1001
0000
0010
1000
0100
0000
0010
0001
,
1000
0101
1010
0000
,
0110
0000
0001
0100
0010
1000
0100
0000
,
1000
0001
0100
0000
0110
0000
0000
0000
,
1001
0000
0000
0000
0001
0010
1000
0000
,
0101
1010
0000
0000
,
1001
0000
0000
0000
0010
0001
0100
0000
,
0101
1100
0000
0000
,
0001
0000
0010
0000
0100
0000
1000
0000
0010
0000
0100
0000
,
0001
1000
0000
0020
0000
0230
0000
0000
,
0310
0000
1000
0000
0001
0000
0010
0000
0100
0000
1000
0000
,
0001
1000
0000
0200
0000
0320
0000
0000
,
0130
0000
1000
0000
0100
0000
1000
0000
0001
0000
0010
0000
,
0001
0100
0000
0020
0000
2030
0000
0000
,
3100
0000
0010
0000
0100
0000
0010
0000
0100
0000
0010
0000
,
0001
1000
0000
0002
0000
0203
0000
0000
,
0301
0000
0010
0000
0001
0000
1000
0000
0010
0000
1000
0000
,
0001
1000
0000
1100
0000
0011
0000
0000
,
0010
0000
1000
0000
0010
0000
0100
0000
0001
0000
1000
0000
,
0001
0100
0000
0110
0000
1001
0000
0000
,
1000
0000
0001
0000
0010
0000
0001
0000
1000
0000
0100
0000
,
0010
0001
0000
0101
0000
1010
0000
0000
,
1000
0000
0001
0000
1000
0000
0001
0000
1000
0000
0001
0000
,
0100
0010
0000
1010
0000
1100
0000
0000
,
0001
0100
0001
0100
0001
0000
0001
0100
,
0001
1000
0000
0000
,
0010
1000
0010
1000
0010
0000
0010
1000
,
0010
0100
0000
0000
,
0001
1000
0001
1000
0001
0000
0001
1000
,
0001
0010
0000
0000
,
0110
0000
0000
0000
0100
1000
0001
0000
,
0011
0000
1010
0000
0000
0001
0000
0001
,
1001
0000
0000
0000
1000
0100
0001
0000
,
0011
1100
0000
0000
,
0010
1000
0100
1000
0100
1000
0000
0001
,
1000
0001
0000
0000
,
0010
0001
0100
0001
0100
0010
0000
1000
,
0001
0010
0000
0000
,
0100
1000
0100
1000
0100
1000
0000
0001
,
0010
0100
0000
0000
,
1000
0010
1000
0000
0001
0010
0001
0000
,
0101
1100
0000
0000
,
1000
0100
1000
0000
0001
0100
0001
0000
,
1001
0110
0000
0000
;

//---------------dance-single - ----------------
#NOTES:
     dance-single:
     :
     Hard:
     11:
     :
0000
0000
0000
0000
,
0000
0000
0000
0000
,
0000
0000
0000
0000
,
0000
0000
0000
0000
,
0010
0000
1000
0100
0001
0000
0001
0000
,
1000
0100
1000
0100
0010
0001
0010
0001
,
0100
0000
0001
0010
1000
0000
1000
0000
,
0001
0100
0001
0100
0010
1000
0010
1000
,
0001
0100
1000
0100
0001
0000
0010
0100
,
0010
0000
1000
0001
0010
0001
0010
0100
,
1000
0010
0001
0010
1000
0000
0100
0010
,
0001
0000
1000
0001
0100
0001
0010
0100
,
1000
0010
0100
0010
1000
0001
0100
0001
,
0010
0000
0100
1000
0010
0100
0001
1000
,
1001
0000
0010
0100
0001
1000
0100
0000
,
0011
0000
1100
0000
0001
0100
0010
1000
,
1001
0000
0010
1000
0100
0010
0001
0000
,
0101
0000
1100
0000
0001
1000
0010
0100
,
0001
0010
1000
0010
0001
0100
0010
1000
,
0100
0010
0001
1000
0001
0100
0010
1000
,
1100
0000
0001
0100
0010
0100
0001
1000
,
0001
0010
0100
1000
0010
0100
0001
1000
,
0101
0000
0010
1000
0100
0010
0001
0000
,
1000
0001
0010
0001
0100
0010
1000
0001
,
0110
0000
0010
1000
0100
0010
0001
0000
,
0100
0001
0100
0001
1000
0010
1000
0010
,
0110
0000
0001
1000
0100
0010
0001
0000
,
1010
0000
0101
0000
0010
1000
0100
0000
,
0001
0000
0010
0000
1000
0000
0001
0000
0100
0000
1000
0000
,
0010
0100
0000
0002
0000
1003
0100
0010
,
0001
0000
0100
0000
1000
0000
0001
0000
0010
0000
1000
0000
,
0100
0010
0000
0002
0000
1003
0001
0100
,
0010
0000
1000
0000
0001
0000
0010
0000
0001
0000
1000
0000
,
0010
1000
0100
0010
0001
0100
1000
0000
,
0100
0000
0010
0000
0001
0000
0100
0000
0010
0000
1000
0000
,
0001
0010
0000
0200
0000
1300
0001
0000
,
0100
0000
0100
0000
0100
0000
0100
0000
0100
0000
0100
0000
,
0001
0010
1000
0200
0000
1300
0001
0000
,
0010
0000
0010
0000
0010
0000
0010
0000
0010
0000
0010
0000
,
1000
0001
0000
0020
0000
0130
1000
0000
,
0001
0000
0001
0000
0001
0000
0001
0000
0001
0000
0001
0000
,
1000
0001
0100
0010
1000
0001
0010
0000
,
1000
0000
1000
0000
1000
0000
1000
0000
1000
0000
1000
0000
,
0001
0010
0100
0020
0000
0031
1000
0000
,
0001
0100
1000
0100
0001
0000
0100
0010
,
1000
0101
0001
1100
,
0001
0010
1000
0010
0001
0000
0100
0010
,
1000
1010
0001
0011
,
0100
0001
1000
0001
0100
0000
0010
1000
,
0001
0110
1000
0110
,
1001
0000
0010
0000
1000
0100
0001
0000
,
0011
0000
1100
0000
0010
1001
0000
0110
,
1001
0000
0100
0001
1000
0001
0010
0000
,
1100
0000
0011
0000
0100
0001
0100
0001
,
0010
0100
1000
0010
1000
0002
0000
0100
,
0103
0000
0010
1000
0001
1000
0100
0010
,
0001
0100
0010
0100
0001
2000
0000
0010
,
3010
0000
0100
0001
0010
0001
1000
0100
,
0010
0001
0100
0001
1000
1000
0000
0010
,
0100
0000
0001
1000
0001
0010
0100
1000
,
0001
0100
0010
0000
1000
0100
0001
0000
,
1001
0000
1010
0000
0001
0100
0010
1000
,
0100
0010
0001
0000
0001
0100
1000
0000
,
1001
0110
0000
0000
;
