#VERSION:0.83;
#TITLE:Mambo No. 5;
#SUBTITLE:(A Little Bit of...);
#ARTIST:Lou Bega;
#TITLETRANSLIT:;
#SUBTITLETRANSLIT:;
#ARTISTTRANSLIT:;
#GENRE:;
#ORIGIN:;
#CREDIT:;
#BANNER:Mambo No. 5 (A Little Bit of...)-bn.png;
#BACKGROUND:Mambo No. 5 (A Little Bit of...)-bg.png;
#PREVIEWVID:;
#JACKET:Mambo No. 5 (A Little Bit of...)-jacket.png;
#CDIMAGE:;
#DISCIMAGE:;
#LYRICSPATH:;
#CDTITLE:;
#MUSIC:Mambo No. 5 (A Little Bit of...).ogg;
#OFFSET:0.000000;
#SAMPLESTART:43.318001;
#SAMPLELENGTH:20.000000;
#SELECTABLE:YES;
#DISPLAYBPM:174.000000;
#BPMS:0.000=174.060,
159.833=192.810,
160.000=174.060,
165.000=189.060,
166.000=174.060,
343.667=189.060,
344.000=165.000;
#STOPS:;
#DELAYS:;
#WARPS:;
#TIMESIGNATURES:0.000=4=4;
#TICKCOUNTS:0.000=4;
#COMBOS:0.000=1;
#SPEEDS:0.000=1.000=0.000=0;
#SCROLLS:0.000=1.000;
#FAKES:;
#LABELS:0.000=Song Start;
#BGCHANGES:;
#KEYSOUNDS:;
#ATTACKS:
;

//---------------dance-single - ----------------
#NOTEDATA:;
#CHARTNAME:;
#STEPSTYPE:dance-single;
#DESCRIPTION:;
#CHARTSTYLE:;
#DIFFICULTY:Hard;
#METER:12;
#RADARVALUES:0.552593,0.609461,0.281020,0.380203,0.785202,468.000000,434.000000,34.000000,46.000000,0.000000,0.000000,0.000000,0.000000,0.000000,0.552593,0.609461,0.281020,0.380203,0.785202,468.000000,434.000000,34.000000,46.000000,0.000000,0.000000,0.000000,0.000000,0.000000;
#CREDIT:;
#DISPLAYBPM:174.000000;
#NOTES:
0000
0000
0000
0000
,
0000
0000
0000
0000
,
0000
0000
0000
0000
,
0000
0000
0000
0000
,
0000
0000
0000
0000
,
0000
0000
0000
0000
,
0000
0000
0000
0000
,
0000
0000
0000
0000
,
0010
0000
0010
0000
,
1000
0000
0001
0000
0000
0100
0000
0000
0000
0001
0000
0001
,
1000
0000
1000
0100
0000
0100
0010
0000
0000
0001
0000
1000
,
0001
0000
0100
0000
0000
0020
0000
0000
0000
1030
0000
0001
,
0000
0000
0000
0100
0000
0100
0010
0000
0010
1000
0000
0001
,
2000
0000
0000
3100
0000
1000
0001
0000
0000
0001
0000
0100
,
0001
0000
0001
1000
0000
1000
0010
0000
0000
1000
0000
1000
,
0100
0000
0100
0010
0000
0000
0002
0000
0000
1003
0000
0000
,
1001
0000
0000
0020
0000
0000
0130
0000
0000
0010
0000
1000
,
0010
0000
0100
0001
0000
1000
0100
0000
0000
0000
0000
0010
,
0001
0000
0000
0100
0000
0001
0010
0000
0000
0100
0000
1000
,
0010
0000
0100
0001
0000
1000
0001
0000
0010
0100
0000
0000
,
1100
0000
1000
0001
0000
0000
0101
0000
0001
1000
0000
0000
,
1100
0000
1000
0000
0000
0010
0100
0000
0001
0000
0000
0010
,
0001
0000
0100
0000
0000
0010
1000
0000
0100
0000
0000
1000
,
0001
0000
0001
0100
0000
0100
0010
0000
0000
1001
0000
0000
,
0110
0000
1000
0001
0000
0000
0010
0000
0010
0001
0000
1000
,
0001
0000
0001
0100
0000
0100
0010
0000
0010
1000
0000
0100
,
1000
0000
0100
0010
0000
0000
0001
0000
0001
1000
0000
0000
,
0001
0000
0100
0001
0000
0100
0001
0000
0000
0000
0000
0000
,
1000
0000
0001
0100
0000
0000
1010
0000
0000
0000
0000
0100
,
0001
0000
0010
0001
0000
0010
0100
0000
0100
1000
0000
0100
,
1000
0000
0010
0000
0000
0100
0001
0000
1000
0000
0000
0001
,
0100
0000
0000
0110
0000
0000
0010
0000
0010
1000
0000
1000
,
0100
0000
0100
0010
0000
0000
0001
0000
1000
0000
0000
0001
,
0000
0000
0100
0000
0000
0100
0010
0000
0010
1000
0000
1000
,
0100
0000
1000
0001
0000
0000
0100
0000
0010
0000
0000
1000
,
0000
0000
0001
0000
0000
1000
0100
0000
0100
0010
0000
0010
,
0002
0000
0000
2003
0000
0000
3001
0000
0100
0000
0000
0010
,
0000
0000
1000
0010
0000
0100
0001
0000
0001
1000
0000
1000
,
0200
0000
0000
0320
0000
0000
0031
0000
1000
0000
0000
0010
,
0100
0000
0100
0001
0000
0001
1000
0000
1000
0100
0000
0100
,
0020
0000
0000
0031
0000
0000
1001
0000
0000
0100
0000
0010
,
2000
0000
0000
3000
0000
0100
1000
0000
1000
0001
0000
0001
,
0200
0000
0000
0302
0000
0000
0013
0000
0100
0000
0000
1000
,
0000
0000
0001
0100
0000
0001
1000
0000
1000
0010
0000
0010
,
0100
0000
0001
1000
0000
0000
0001
0000
0010
0000
0000
0100
,
0000
0000
1000
0010
0000
1000
0100
0000
0100
0010
0000
0010
,
0001
0000
0000
0101
0000
0000
1000
0000
0010
0000
0000
0100
,
0002
0000
0000
0203
0000
0000
0301
0000
1000
0001
0000
1000
,
0001
0000
0000
0022
0000
0000
0030
0000
1003
0000
0000
1010
,
0000
0000
0101
0000
0000
1000
0001
0000
1000
0100
0000
0000
,
1010
0000
0000
0202
0000
0000
0300
0000
1000
0000
0000
0103
,
0000
0000
0110
0000
0000
0001
1000
0000
0010
0100
0000
0000
,
0101
0000
0000
2200
0000
0000
0300
0000
3010
0000
0000
1010
,
0000
0000
1001
0000
0000
0100
0001
0000
1000
0001
0000
0000
,
0011
0000
0000
2020
0000
0000
3000
0000
0100
0000
0000
1030
,
0001
0000
1000
0001
0000
1000
0020
0000
0000
1030
0100
0010
,
0002
0000
0000
0100
0000
0000
0010
0000
0000
0000
0000
1000
,
0003
0000
1000
0000
0000
0001
0100
0000
0000
0000
0000
0000
,
0120
1000
0001
1000
,
0130
0000
0100
0001
0000
0001
0010
0000
0000
0000
0000
0000
,
2100
0001
0100
0001
,
3010
0000
1000
0100
0000
0000
1001
0000
0100
0001
0000
0000
,
0102
0000
0000
0010
0000
0000
2000
0000
0000
3003
0000
0001
,
0100
0000
0000
0110
0000
0000
1000
0000
1000
0001
0000
0000
,
2010
0100
0001
0100
,
3010
0000
0000
1000
0000
0100
0000
0010
0000
0001
0000
0000
,
0102
0023
2030
3020
,
0031
0000
0100
0010
0000
1000
0100
0000
0010
0001
0000
0000
,
0011
0100
1000
1100
,
0000
0000
0000
0000
0000
0001
1000
0000
1000
0001
0000
0001
,
0010
0000
0100
1000
0000
0000
0001
0000
0100
0000
0000
0020
,
0000
0000
0000
0000
0000
1030
0010
0000
0010
0100
0000
0100
,
0010
0000
1000
0001
0000
0000
0010
0000
0100
0000
0000
2000
,
0000
0000
0000
0000
0000
3001
1000
0000
1000
0100
0000
0100
,
0020
0000
0000
0032
0000
0000
0103
0000
0001
0000
0000
2000
,
0000
0000
0000
0000
0000
3001
0010
0000
0010
0001
0000
0001
,
0200
0000
0000
0320
0000
0000
1030
0000
0001
0000
0000
0200
,
0000
0000
0000
0000
0000
0310
1000
0000
1000
0100
0000
0100
,
2000
0000
0000
3001
0000
0000
1001
0000
0000
0100
0000
0010
,
2000
0000
0000
3000
0000
0001
0010
0000
0010
0100
0000
0100
,
2000
0000
0000
3002
0000
0000
0013
0000
0001
0000
0000
0100
,
0000
0000
0010
1000
0000
0010
0100
0000
0100
0001
0000
0001
,
0010
0000
0100
1000
0000
0000
0001
0000
1000
0000
0000
0010
,
0000
0000
0100
0001
0000
1000
0001
0000
0001
0010
0000
0010
,
0100
0000
0000
1100
0000
0000
1000
0000
0001
0000
0000
0100
,
0010
0000
0000
0010
0000
0000
1000
0000
0001
1000
0000
0001
,
2000
0100
3001
1001
;

//---------------dance-single - ----------------
#NOTEDATA:;
#CHARTNAME:;
#STEPSTYPE:dance-single;
#DESCRIPTION:;
#CHARTSTYLE:;
#DIFFICULTY:Medium;
#METER:9;
#RADARVALUES:0.423891,0.501909,0.446325,0.330611,0.475254,359.000000,305.000000,54.000000,40.000000,0.000000,0.000000,0.000000,0.000000,0.000000,0.423891,0.501909,0.446325,0.330611,0.475254,359.000000,305.000000,54.000000,40.000000,0.000000,0.000000,0.000000,0.000000,0.000000;
#CREDIT:;
#DISPLAYBPM:174.000000;
#NOTES:
0000
0000
0000
0000
,
0000
0000
0000
0000
,
0000
0000
0000
0000
,
0000
0000
0000
0000
,
0000
0000
0000
0000
,
0000
0000
0000
0000
,
0000
0000
0000
0000
,
0000
0000
0000
0000
,
0010
0000
0000
0000
0000
0000
0010
0000
0000
0000
0000
1000
,
0000
0000
0001
0000
0000
1000
0100
0000
0000
0000
0000
0000
,
0010
0000
0000
0000
0000
0000
0010
0000
0000
0000
0000
0001
,
0000
0000
1000
0000
0000
0001
0100
0000
0000
0000
0000
0000
,
0001
0000
0000
0000
0000
0000
0001
0000
0000
0000
0000
0100
,
0000
0000
0010
0000
0000
0100
0001
0000
0000
0000
0000
0000
,
1000
0000
0000
0000
0000
0000
1000
0000
0000
0000
0000
0020
,
0200
0000
0000
0330
,
1001
0000
0000
0010
0000
0000
1000
0000
0000
0001
0000
0100
,
0001
0000
0000
0010
0000
0000
0100
0000
0000
0000
0000
1000
,
0001
0100
0001
0100
,
0010
0000
1000
0000
0000
0100
0000
0000
1000
0001
0000
0000
,
0201
0310
1200
0310
,
0201
0000
0000
0310
0000
0000
1100
0000
0000
0000
0000
0001
,
1000
1000
0001
0001
,
1000
0000
0001
0100
0000
0000
0110
0000
0000
1001
0000
0000
,
0110
0000
0000
0000
0000
1000
0001
0000
0100
0000
0000
0010
,
0000
0000
0010
0000
0000
1000
0001
0000
0000
0000
0000
0100
,
0010
0000
0000
0000
0000
0100
0001
0000
1000
0000
0000
0100
,
0000
0000
0100
0000
0000
0010
0001
0000
0000
0000
0000
0000
,
1000
0000
0000
0000
0000
0001
0100
0000
0001
0000
0000
0010
,
0000
0000
0010
0000
0000
0100
1000
0000
0000
0000
0000
0001
,
1000
0000
0000
0000
0000
0010
1000
0000
0100
0000
0000
0010
,
0001
0000
0000
1001
0000
0000
0100
0000
0010
0100
0000
0000
,
1010
0000
0000
1010
0000
0000
1000
0000
0001
0000
0000
0200
,
0000
0000
0000
0300
0000
0010
1000
0000
0010
1000
0000
0000
,
0101
0000
0000
0101
0000
0000
0001
0000
1000
0000
0000
0020
,
0000
0000
0000
0030
0000
0100
0001
0000
0100
0001
0000
0000
,
0011
0000
0000
0011
0000
0000
0001
0000
0100
0000
0000
0020
,
0000
0000
0000
0030
0000
1000
0100
0000
1000
0100
0000
0000
,
1100
0000
0000
1100
0000
0000
1000
0000
0010
0000
0000
0200
,
0000
0000
0000
0300
0000
0001
1000
0000
0001
1000
0000
0000
,
1100
0000
0000
0101
0000
0000
0110
0000
0000
1000
0000
0002
,
0000
0000
0000
0003
0000
0010
0001
0000
0010
0001
0000
0000
,
0101
0000
0000
1010
0000
0000
1000
0000
0100
0000
0000
0020
,
0000
0000
0000
0030
0000
0001
0100
0000
0001
0100
0000
0000
,
0110
0000
0000
1001
0000
0000
0100
0000
0010
0000
0000
2000
,
0000
0000
0000
3000
0000
1000
0100
0000
1000
0100
0000
0000
,
1010
0000
0000
0011
0000
0000
0100
0000
0001
0000
0000
1000
,
0020
0000
0000
0230
0000
0000
0301
0000
1000
0001
0000
1000
,
0001
0000
0000
0022
0000
0000
0030
0000
1000
0000
0000
0100
,
0000
0000
1003
0000
0000
0001
0100
0000
0000
0100
0000
0000
,
1010
0000
0000
0202
0000
0000
0300
0000
1000
0000
0000
0103
,
0000
0000
0110
0000
0000
1000
0001
0000
0000
0000
0000
0000
,
0011
0000
0000
2200
0000
0000
0300
0000
0001
0000
0000
0100
,
0000
0000
3001
0000
0000
1000
0010
0000
0000
0010
0000
0000
,
0110
0000
0000
2002
0000
0000
3000
0000
0100
0000
0000
0103
,
0020
2030
3002
1003
,
2200
0000
0000
0000
0000
0000
0000
0000
0000
0300
0000
0001
,
0000
0000
3001
0000
0000
1000
0100
0000
0000
0000
0000
0000
,
0022
0000
0000
0030
,
0100
0100
1003
0000
,
2020
0000
0000
0000
,
0030
3100
1001
0000
,
0202
0000
0000
0300
0000
0000
0200
0000
0000
0303
0000
1000
,
0001
1001
0100
0100
,
0120
1000
0001
1000
,
0130
1000
0010
0100
,
0102
0010
1000
0010
,
0100
0100
0103
0000
,
0110
1000
0001
1001
,
0000
0000
0000
0000
0000
0000
0100
0000
0010
0100
0000
0000
,
0001
0000
0000
0000
0000
0000
0001
0000
0000
0000
0000
1000
,
0000
0000
0010
0000
0000
1000
0100
0000
0000
0000
0000
0000
,
1000
0000
0000
0000
0000
0000
1000
0000
0000
0000
0000
0001
,
0000
0000
0010
0000
0000
0001
0100
0000
0000
0000
0000
0000
,
0010
0000
0000
0000
0000
0000
0010
0000
0000
0000
0000
1000
,
0000
0000
0001
0000
0000
1000
0100
0000
0000
0000
0000
0000
,
0010
0000
0000
0000
0000
0000
0010
0000
0000
0000
0000
0001
,
0000
0000
1000
0000
0000
0001
0100
0000
0000
0000
0000
0000
,
1010
0000
0000
0101
0000
0000
1001
0000
0000
0100
0000
0020
,
0000
0000
0000
0030
0000
1000
0001
0000
1000
0100
0000
0000
,
0011
0000
0000
1100
0000
0000
0001
0000
1000
0000
0000
0200
,
0000
0000
0000
0300
0000
0100
1000
0000
0001
1000
0000
0000
,
1010
0000
0000
0011
0000
0000
0100
0000
1000
0000
0000
0002
,
0000
0000
0000
0003
0000
0010
0001
0000
0001
0100
0000
0000
,
0110
0000
0000
1001
0000
0000
0010
0000
1000
0000
0000
0100
,
0010
0000
0000
0010
0000
0000
0010
0000
0001
0010
0000
0001
,
2000
0100
3001
1001
;

//---------------dance-single - ----------------
#NOTEDATA:;
#CHARTNAME:;
#STEPSTYPE:dance-single;
#DESCRIPTION:;
#CHARTSTYLE:;
#DIFFICULTY:Easy;
#METER:6;
#RADARVALUES:0.295189,0.358507,0.198367,0.264489,0.000000,250.000000,226.000000,24.000000,32.000000,0.000000,0.000000,0.000000,0.000000,0.000000,0.295189,0.358507,0.198367,0.264489,0.000000,250.000000,226.000000,24.000000,32.000000,0.000000,0.000000,0.000000,0.000000,0.000000;
#CREDIT:;
#DISPLAYBPM:174.000000;
#NOTES:
0000
0000
0000
0000
,
0000
0000
0000
0000
,
0000
0000
0000
0000
,
0000
0000
0000
0000
,
0000
0000
0000
0000
,
0000
0000
0000
0000
,
0000
0000
0000
0000
,
0000
0000
0000
0000
,
0010
0000
0010
0000
,
1000
0001
0100
0000
,
0001
0001
1000
1000
,
0010
1000
0100
0000
,
0010
0000
0010
0000
,
0001
1000
0100
0000
,
1000
1000
0001
0001
,
0200
0000
0000
0300
,
1001
0010
0100
0010
,
1000
0001
1000
0000
,
0100
0100
0010
0010
,
0001
1000
0001
0000
,
0101
0000
1100
0000
,
0101
0000
1100
0000
,
0001
0000
1000
0000
,
0010
0010
1001
0110
,
1000
0000
0010
0100
,
0010
1000
0001
0100
,
0001
0000
0010
0000
,
0100
0100
0100
0000
,
1000
1000
0001
0000
,
0010
0001
0010
0100
,
1000
1000
0001
0001
,
0100
1001
0000
0000
,
0010
1000
0001
1000
,
0200
0000
0010
0310
,
0100
0010
0001
1000
,
0002
0000
0100
0103
,
0010
0100
0010
1000
,
0002
0000
1000
1003
,
0001
0010
0001
1000
,
0200
0000
1000
1300
,
0010
0010
1000
0001
,
0200
0000
0001
0301
,
0100
0001
0010
0100
,
2000
0000
0010
3010
,
0100
0100
1000
0001
,
0020
0000
0100
0130
,
0010
0100
0010
0001
,
2000
0000
0001
3001
,
0001
0022
0000
0030
,
0100
0103
1000
0001
,
1000
2020
0000
0030
,
0001
0100
3100
0000
,
1000
2200
0000
0300
,
0010
3010
1000
0001
,
0100
0202
0000
0300
,
0010
0010
0100
1003
,
2200
0000
0000
0300
,
0001
0001
3001
0000
,
0202
0000
0000
0300
,
1000
1000
1003
0000
,
0022
0000
0000
0030
,
0100
0103
1001
0000
,
2020
0000
0000
0030
,
3001
1001
0000
0000
,
0220
0000
0000
0030
,
0010
0010
1000
0301
,
0202
0000
0000
0300
,
1000
1000
1003
0000
,
1100
0000
0000
0101
,
0000
0000
0000
0000
,
0010
0000
0010
0000
,
1000
0001
0100
0000
,
0010
0000
0010
0000
,
0100
0010
1000
0000
,
0100
0000
0100
0000
,
0010
0001
1000
0000
,
0100
0000
0100
0000
,
1000
0001
0010
0000
,
0001
0001
1000
0010
,
0200
0000
0010
0310
,
0100
0001
1000
0001
,
0020
0000
1000
0031
,
0010
0010
0001
0100
,
2000
0000
0010
3010
,
1000
0001
1000
0100
,
0010
0010
0010
0000
,
0011
0000
0000
1001
;

//---------------dance-single - ----------------
#NOTEDATA:;
#CHARTNAME:;
#STEPSTYPE:dance-single;
#DESCRIPTION:;
#CHARTSTYLE:;
#DIFFICULTY:Beginner;
#METER:3;
#RADARVALUES:0.168848,0.322656,0.082653,0.049592,0.000000,143.000000,133.000000,10.000000,6.000000,0.000000,0.000000,0.000000,0.000000,0.000000,0.168848,0.322656,0.082653,0.049592,0.000000,143.000000,133.000000,10.000000,6.000000,0.000000,0.000000,0.000000,0.000000,0.000000;
#CREDIT:;
#DISPLAYBPM:174.000000;
#NOTES:
// measure 0
0000
0000
0000
0000
,  // measure 1
0000
0000
0000
0000
,  // measure 2
0000
0000
0000
0000
,  // measure 3
0000
0000
0000
0000
,  // measure 4
0000
0000
0000
0000
,  // measure 5
0000
0000
0000
0000
,  // measure 6
0000
0000
0000
0000
,  // measure 7
0000
0000
0000
0000
,  // measure 8
0010
0000
0010
0000
,  // measure 9
0010
0000
0000
0000
,  // measure 10
1000
0000
1000
0000
,  // measure 11
1000
0000
0000
0000
,  // measure 12
0001
0000
0001
0000
,  // measure 13
0001
0000
0000
0000
,  // measure 14
0100
0000
0100
0000
,  // measure 15
0100
0000
0000
0000
,  // measure 16
0010
0000
1000
0000
,  // measure 17
0001
0000
0000
0000
,  // measure 18
1000
0000
0001
0000
,  // measure 19
1000
0000
0000
0000
,  // measure 20
1001
0000
0110
0000
,  // measure 21
1001
0000
0110
0000
,  // measure 22
0100
0000
0100
0000
,  // measure 23
0100
0100
0100
0000
,  // measure 24
0001
0000
1000
0000
,  // measure 25
0000
0000
0000
0000
,  // measure 26
0010
0000
0100
0000
,  // measure 27
0000
0000
0000
0000
,  // measure 28
0010
0000
1000
0000
,  // measure 29
0000
0000
0000
0000
,  // measure 30
0001
0000
0100
0000
,  // measure 31
0110
0000
0000
0000
,  // measure 32
1000
1000
1000
0000
,  // measure 33
0001
0000
0010
0000
,  // measure 34
0001
0001
0001
0000
,  // measure 35
0100
0000
0010
0000
,  // measure 36
0100
0100
0100
0000
,  // measure 37
0001
0000
1000
0000
,  // measure 38
0010
0010
0010
0000
,  // measure 39
1000
0000
0100
0000
,  // measure 40
1001
0000
0100
0000
,  // measure 41
0010
0000
1000
1000
,  // measure 42
1000
0000
0001
0000
,  // measure 43
0010
0000
0100
0100
,  // measure 44
0100
0000
1000
0000
,  // measure 45
0010
0000
1000
1000
,  // measure 46
1000
0000
0010
0000
,  // measure 47
0100
0000
0001
0001
,  // measure 48
0001
0001
0000
0000
,  // measure 49
0010
0000
0100
0000
,  // measure 50
1000
1000
0000
0000
,  // measure 51
0001
0000
1000
0000
,  // measure 52
0010
0010
0000
0000
,  // measure 53
0100
0000
0001
0000
,  // measure 54
0100
0100
0000
0000
,  // measure 55
0010
0010
0010
0000
,  // measure 56
2000
0000
0000
0000
,  // measure 57
3000
0000
0000
0000
,  // measure 58
0200
0000
0000
0000
,  // measure 59
0300
0000
0000
0000
,  // measure 60
0020
0000
0000
0000
,  // measure 61
0030
0000
0000
0000
,  // measure 62
0002
0000
0000
0000
,  // measure 63
0003
0000
0000
0000
,  // measure 64
0200
0000
0000
0000
,  // measure 65
0300
0000
0000
0000
,  // measure 66
0020
0000
0000
0000
,  // measure 67
0030
0000
0000
0000
,  // measure 68
1001
0000
0000
0110
,  // measure 69
0000
0000
0000
0000
,  // measure 70
0010
0000
0010
0000
,  // measure 71
0010
0000
0000
0000
,  // measure 72
1000
0000
1000
0000
,  // measure 73
1000
0000
0000
0000
,  // measure 74
0001
0000
0001
0000
,  // measure 75
0001
0000
0000
0000
,  // measure 76
0100
0000
0100
0000
,  // measure 77
0100
0000
0000
0000
,  // measure 78
0010
0000
1000
0000
,  // measure 79
0001
0000
1000
1000
,  // measure 80
1000
0000
0100
0000
,  // measure 81
0010
0000
0100
0100
,  // measure 82
0100
0000
1000
0000
,  // measure 83
0001
0000
0010
0010
,  // measure 84
0010
0000
0001
0000
,  // measure 85
0100
0000
0000
0000
,  // measure 86
0110
0000
0000
1001
;
