#TITLE:MUSICAL '5 CHOUME MONOGATARI' YORI OVERTURE;
#SUBTITLE:;
#ARTIST:Naya~n & His Orchestra;
#TITLETRANSLIT:;
#SUBTITLETRANSLIT:;
#ARTISTTRANSLIT:;
#GENRE:;
#CREDIT:;
#BANNER:MUSICAL '5 CHOUME MONOGATARI' YORI OVERTURE-bn.png;
#BACKGROUND:MUSICAL '5 CHOUME MONOGATARI' YORI OVERTURE-bg.png;
#LYRICSPATH:;
#CDTITLE:;
#MUSIC:MUSICAL '5 CHOUME MONOGATARI' YORI OVERTURE.ogg;
#OFFSET:0.000000;
#SAMPLESTART:42.141998;
#SAMPLELENGTH:20.000000;
#SELECTABLE:YES;
#DISPLAYBPM:148.000000:186.000000;
#BPMS:0.000000=148.000000
,105.000000=150.000000
,106.000000=152.000000
,107.000000=154.000000
,108.000000=156.000000
,109.000000=158.000000
,110.000000=160.000000
,176.000000=186.000000
;
#STOPS:
;
#BGCHANGES:;
#KEYSOUNDS:;
#ATTACKS:;

//---------------dance-single - ----------------
#NOTES:
     dance-single:
     :
     Hard:
     14:
     0.668229,0.685053,0.674547,0.375977,0.663489,423.000000,362.000000,61.000000,34.000000,0.000000,0.000000,0.668229,0.685053,0.674547,0.375977,0.663489,423.000000,362.000000,61.000000,34.000000,0.000000,0.000000:
0000
0000
0000
0000
,
1010
0000
0202
0000
0003
0000
1300
0100
,
0002
0000
2000
3000
,
0103
0000
0000
0000
0000
0000
0000
0000
0010
0000
0010
0000
0010
0000
1000
0001
,
1000
0000
0110
0001
0000
0011
0000
1100
,
0001
0000
0100
0110
0000
1010
0000
0102
,
1000
0000
0000
0000
0100
0000
1000
0000
1003
0000
0000
0100
0000
0000
0010
0000
,
0001
0000
0000
1000
0000
0000
0001
0000
0200
0000
0000
0000
0310
0000
1000
0000
,
0001
0000
0110
1000
0100
1100
0000
0101
,
1000
0001
1000
1001
0000
0110
0000
2010
,
0001
0000
0000
0000
0100
0000
0001
0000
3001
0000
0000
0010
0000
0000
0100
0000
,
1000
0000
0000
0001
0000
0000
1000
0000
0010
0000
0100
0000
0001
0000
1000
0000
,
0000
0000
0100
0010
0000
0010
0001
0000
0001
0000
0000
1000
0000
0000
0010
0000
,
1000
0000
0001
0000
0000
0000
0010
0100
1000
0000
0000
0000
0001
0000
0100
0000
,
0000
0000
0010
1000
0000
1000
0001
0000
1000
0000
0100
0000
0010
0000
0001
0100
,
0001
0000
0000
1000
0000
0000
0010
0000
0100
0000
1001
0000
0000
0000
0001
0000
,
0001
0000
0000
0010
0000
0000
0001
1000
0001
0000
0100
0000
0100
0000
0010
0000
,
1000
0000
0100
0000
0000
0000
1000
0001
0100
0000
0010
0000
0000
0000
1000
0000
,
0000
1100
0000
0101
0000
0011
0000
1010
,
0000
0000
1000
0000
0100
0000
0010
0000
0001
0000
1000
0010
1000
0000
0001
0010
,
0001
0000
0100
0000
0010
0000
1000
0000
0100
0000
0010
0000
,
0001
0000
1000
0000
0001
0000
0100
0000
0010
0000
1000
0000
,
0100
0000
0100
0000
0010
0000
0002
0000
0000
1000
0000
0000
,
0013
0000
1001
0000
0000
0000
0100
0010
2000
0000
0001
0000
3001
0010
0100
1000
,
0001
0000
1000
0000
0100
0000
1000
0000
0010
0000
0100
0000
,
0001
0000
1000
0000
0001
0000
0100
0000
0010
0000
1000
0000
,
1100
0000
0110
0000
0011
0000
0202
0000
0000
0300
0000
0000
,
1003
0000
0001
1000
0000
0110
0000
0000
0010
0100
0001
1000
,
0100
0000
0100
0010
0000
0001
0000
0000
0000
1000
0001
0010
,
0001
0100
0010
1000
0100
0010
0001
0000
0100
0001
0000
1000
,
0000
0000
0000
0000
0010
0000
1000
0000
0000
0000
0100
0010
0100
0000
0000
0000
1000
0000
0001
0000
0000
0000
0020
0000
,
0000
0000
0000
0000
1000
0000
0000
0000
0000
0000
0100
0000
0000
0000
0000
0000
0031
1000
0001
0000
0000
0000
1010
0000
,
0000
0000
1000
0001
0000
0010
0001
0000
0100
0010
0000
2000
,
0000
0000
0000
0100
0000
3100
1000
0000
0001
1000
0000
0010
,
0000
0000
0110
0000
0000
1001
0000
0000
0001
0010
0000
0100
,
1000
0000
0000
0000
0001
0000
0000
0000
0000
0000
1100
0000
0000
0000
0000
0000
0001
1000
0001
0000
0000
0000
0000
0000
,
0100
0000
0010
1000
0000
0002
0000
0000
1003
0100
0000
0100
,
0010
0000
0001
0000
0000
1000
0001
0000
0100
0010
0000
2002
,
3000
0000
0000
0100
0000
0103
0010
0000
0010
1000
0000
0101
,
0000
0000
0000
0000
1000
0001
1000
0100
0010
0001
0100
0020
,
0000
0000
0000
1000
0000
1030
0001
0000
1000
0100
0000
0011
,
0000
0000
1000
0001
0000
0200
0000
0000
0310
0100
0000
0002
,
0000
0000
1003
0100
0000
0100
1000
0000
0001
0000
0000
0100
,
0000
0000
0010
0000
0000
0010
1000
0100
0010
0001
0000
0110
,
0000
0000
0000
0000
0000
0001
0000
0000
0000
0000
0000
0000
0200
0000
0000
0000
0000
0000
0320
0000
0000
0000
0000
0000
,
2030
3001
2000
3100
,
1010
0000
0001
1100
0000
0010
0101
0000
,
0010
1001
0100
0000
1100
0000
0101
0000
,
1000
0011
0100
0000
0110
0000
1000
0000
,
0001
0010
1000
0100
0001
1000
0010
0001
,
0100
1000
0010
0100
1000
0010
0001
1000
,
0001
0010
1001
0000
0100
1010
0000
0001
,
1000
0011
0000
0110
0110
0000
1100
1100
,
0000
0000
0101
0000
2200
0000
0000
0000
0000
0000
0000
0000
0300
0000
3001
1000
,
0200
0000
0310
0012
0000
1003
0201
0000
,
0310
0000
2010
0000
0000
0000
3100
0000
0110
0000
0000
0000
1001
0000
1000
0001
,
0200
0000
0310
2010
0000
3001
1200
0000
,
0310
0012
0000
1003
0101
0000
1100
0000
,
1002
0000
0000
0000
0103
0000
0001
0010
0001
0000
1000
0010
1000
0000
0100
0010
,
0001
0000
0000
0000
;

//---------------dance-single - ----------------
#NOTES:
     dance-single:
     :
     Medium:
     10:
     0.461283,0.554567,0.442326,0.298570,0.420210,292.000000,252.000000,40.000000,27.000000,0.000000,0.000000,0.461283,0.554567,0.442326,0.298570,0.420210,292.000000,252.000000,40.000000,27.000000,0.000000,0.000000:
0000
0000
0000
0000
,
1010
0000
0202
0000
0300
0000
1003
0001
,
0200
0000
0000
0000
,
0300
0000
0000
0000
0010
0010
0010
1000
,
0001
0000
1001
0100
0000
0110
0000
1001
,
0100
0000
0000
0101
0000
1100
0000
0202
,
0000
0000
0000
0000
0300
0000
1000
0000
1003
0000
0000
0001
0000
0000
0010
0000
,
0001
0000
0000
0100
0000
0000
0010
0000
1000
0000
0000
0000
0000
0000
0000
0000
,
0001
0000
1001
0100
0000
0110
0000
1001
,
0100
0010
0000
1010
0000
0101
0000
0022
,
0000
0000
0000
0000
0003
0000
0100
0000
0130
0000
0000
1000
0000
0000
0001
0000
,
0100
0000
0000
0010
0000
0000
1000
0000
0001
0000
0000
0000
0000
0000
0000
0000
,
0000
1000
0000
0100
1000
0001
0000
0100
,
0010
1000
0000
0001
0001
0000
0010
0100
,
0000
1000
0000
0010
1000
0001
0000
0100
,
0100
0000
0000
0010
0000
0000
1000
0000
0000
0000
1100
0000
0000
0000
0001
0000
,
1000
0000
0000
0100
0000
0000
0010
0000
0001
0000
0000
0000
0100
0000
0001
0000
,
1000
0000
0000
0010
0000
0000
1000
0000
0001
0000
0010
0000
0000
0000
0100
0000
,
0000
1001
0000
0110
0000
1010
0000
0101
,
0000
0011
0000
1100
0000
0101
1000
0001
,
0100
0000
0010
0000
0100
0000
0001
0000
1000
0000
0001
0000
,
0010
0000
0100
0000
1000
0000
0010
0000
0100
0000
0001
0000
,
1000
0000
0000
0000
1000
0000
0000
0000
0001
0000
0000
0000
0002
0000
0000
0000
0000
0000
0000
0000
0000
0003
0000
0000
,
0000
0110
0000
0010
0200
0010
0300
0000
,
0001
0000
1000
0000
0001
0000
0010
0000
0100
0000
0010
0000
,
0001
0000
0100
0000
0010
0000
1000
0000
0100
0000
0010
0000
,
0001
0000
0001
0000
1000
0000
2000
0000
0000
3000
0000
0000
,
0010
0000
1000
0001
0000
0100
0000
0000
2020
0000
0030
0000
,
3001
0000
0010
0001
0000
0100
0000
0000
0000
0000
0000
0010
,
1000
0000
1000
0100
0000
0100
1000
0000
0001
0100
0000
0010
,
0000
0000
0000
0000
0000
1000
0100
0000
1000
0001
0000
0200
,
0000
0000
0010
0000
0000
0010
0000
0000
0310
0100
0000
0002
,
0000
0000
1003
0001
0000
0001
1000
0000
0100
0010
0000
0002
,
0000
0000
0000
0000
0000
0000
0103
0000
0010
0100
0000
0010
,
0000
0000
1000
0000
0000
0001
0000
0000
1000
0000
0000
0001
,
0100
0000
0010
0000
0000
0110
0000
0000
2002
0000
0003
0000
,
3100
0000
0000
0000
0000
1000
0000
0000
0000
0001
0000
0000
,
0000
0000
0100
0000
0000
0100
0010
0000
0010
1000
0000
0002
,
0000
0000
0000
1000
0000
0000
1000
0000
0000
0003
0000
0011
,
0000
0000
0000
0000
0000
0000
0000
0000
0000
0010
0000
0000
0001
0000
0000
0100
0000
0000
0000
0000
0000
0000
0020
0000
,
0000
0000
0000
1000
0000
0000
1000
0000
0000
0030
0000
1010
,
0000
0000
0000
0000
0000
0002
0000
0000
0000
1003
0000
0002
,
0000
0000
1003
0100
0000
0100
0010
0000
0001
0000
0000
0100
,
0000
0000
0010
0000
0000
0010
1000
0000
0100
0000
0000
1001
,
0000
0000
0000
0000
0000
0020
0000
0000
0000
0000
0000
0000
1000
0000
0000
0000
0000
0000
0001
0000
0000
0000
0000
0000
,
0130
0000
0100
0000
,
0101
0000
0000
1100
0000
0000
0101
0000
,
0000
1100
0000
0000
0001
0000
1000
0000
,
0000
1010
0000
0000
0110
0000
0000
0000
,
1000
0001
0100
0000
0100
0000
0100
0010
,
0000
1000
0000
0001
0000
0000
1000
0100
,
0010
0001
0100
0000
0000
0010
0000
0000
,
0000
1010
0000
0000
1100
0000
0000
0011
,
0000
0000
0202
0000
0000
0000
0300
1000
,
2003
0000
0000
0010
0000
0000
0100
0000
,
0000
0010
0000
0000
0001
0000
3001
1000
,
0002
0000
0000
0010
0000
0000
1000
0000
,
0000
0100
0000
0000
1000
0000
0013
0000
,
2001
0010
0001
0100
,
3001
0000
0000
0000
;

//---------------dance-single - ----------------
#NOTES:
     dance-single:
     :
     Easy:
     7:
     0.308049,0.326216,0.199047,0.154814,0.049762,195.000000,177.000000,18.000000,14.000000,0.000000,0.000000,0.308049,0.326216,0.199047,0.154814,0.049762,195.000000,177.000000,18.000000,14.000000,0.000000,0.000000:
0000
0000
0000
0000
,
0000
0000
0000
0000
,
0200
0000
0000
0000
,
0300
0000
0010
0010
,
1000
0000
1001
0000
0000
0100
0000
0100
,
0000
0000
0000
1000
0000
0001
0000
2000
,
0000
0000
0010
3010
,
1000
0001
0100
0000
,
0010
0000
0110
0000
0000
0001
0000
0001
,
0000
0000
0000
1000
0000
0100
0000
2000
,
0000
0000
0010
3010
,
1000
0001
0100
0000
,
0000
0001
0000
0000
1000
0000
0010
0000
,
1000
0100
1000
0001
,
0000
0100
0000
0000
0010
0000
1000
0000
,
0100
1000
0001
0100
,
0010
0010
1000
0001
,
1000
0000
0100
0000
1000
0000
0000
0001
,
0000
1000
0000
1000
0000
0001
0000
1000
,
0000
0100
0000
0010
0000
0001
0000
0000
,
0100
0100
0010
0010
,
1000
1000
0001
0001
,
0010
0001
0200
0000
,
0000
1000
0000
0000
0301
0000
0000
0000
,
0100
0100
0010
0010
,
1000
1000
0001
0001
,
1000
0100
0020
0000
,
0031
0000
0000
0000
0000
1001
0000
0000
0110
0000
0000
0000
,
1000
0001
1000
0100
,
0010
0010
0001
0100
,
0010
1000
0100
0100
,
0010
0001
1000
0001
,
0100
0010
0100
0001
,
0010
0100
1000
0010
,
1000
0001
1000
0010
,
1000
0100
1000
0001
,
0100
0000
0000
0000
0000
0010
0000
0000
0000
1000
0000
0000
,
0000
0000
0001
0000
0000
0000
0010
0000
0000
0000
0000
2200
,
0000
0000
0000
0000
0000
0000
0300
0000
0000
0000
0000
3001
,
0000
0000
0000
0000
0000
0000
0100
0000
0000
0000
0000
0202
,
0000
0000
0000
0000
0000
0000
0300
0000
0000
0000
0000
1003
,
0000
0000
0000
0000
0000
0020
0000
0000
0000
0030
0000
0000
,
1000
0100
1000
0010
,
0100
0001
0010
0100
,
0000
1100
0001
0100
,
1000
0000
0001
0000
,
1001
0000
0000
1001
0000
0000
1001
0000
,
0000
1001
0000
0000
0010
0000
0100
0000
,
0000
0110
0000
0000
0110
0000
0000
0000
,
0001
0010
0001
0100
,
0010
1000
0100
0001
,
0010
0000
0100
0000
0000
0100
0000
0000
,
0000
1100
0000
0000
0101
0000
0000
1100
,
0000
0000
0101
0000
0000
0000
0000
1000
,
0002
0000
0000
1000
0000
0000
0100
0000
,
0000
1000
0000
0000
0010
0000
0013
0000
,
0200
0000
0000
0001
0000
0000
0010
0000
,
0000
0001
0000
0000
1000
0000
1300
0000
,
2002
0000
0000
0003
,
3001
0000
0000
0000
;

//---------------dance-single - ----------------
#NOTES:
     dance-single:
     :
     Beginner:
     4:
     0.150075,0.228351,0.088465,0.132698,0.000000,95.000000,87.000000,8.000000,12.000000,0.000000,0.000000,0.150075,0.228351,0.088465,0.132698,0.000000,95.000000,87.000000,8.000000,12.000000,0.000000,0.000000:
// measure 0
0000
0000
0000
0000
,  // measure 1
0000
0000
0000
0000
,  // measure 2
0200
0000
0000
0000
,  // measure 3
0300
0000
0000
0000
,  // measure 4
0000
1001
0000
0000
,  // measure 5
0010
0000
1000
0000
,  // measure 6
0100
0000
0010
0000
,  // measure 7
0010
0000
0001
0000
,  // measure 8
0000
0110
0000
0000
,  // measure 9
0001
0000
1000
0000
,  // measure 10
0010
0000
0100
0000
,  // measure 11
0100
0000
0001
0000
,  // measure 12
0000
0000
0010
0000
,  // measure 13
0001
0000
0100
0000
,  // measure 14
0000
0000
0010
0000
,  // measure 15
1000
0000
0100
0000
,  // measure 16
1000
0000
1000
0000
,  // measure 17
0001
0000
0001
0000
,  // measure 18
0100
0000
0010
0000
,  // measure 19
0100
0000
0001
0000
,  // measure 20
2000
0000
3000
0000
,  // measure 21
0002
0000
0003
0000
,  // measure 22
0100
0000
0010
0000
,  // measure 23
0000
0000
0110
0000
,  // measure 24
2000
0000
3000
0000
,  // measure 25
0002
0000
0003
0000
,  // measure 26
0010
0000
0100
0000
,  // measure 27
1000
0000
0001
0000
,  // measure 28
0100
0100
0000
0000
,  // measure 29
0001
0001
0001
0001
,  // measure 30
0000
0000
0010
0020
,  // measure 31
0000
0000
0000
0030
,  // measure 32
0000
0100
0100
0100
,  // measure 33
0100
0000
1000
1000
,  // measure 34
0000
0000
0000
0001
,  // measure 35
0001
0000
0100
0000
,  // measure 36
0010
0000
0000
0000
,  // measure 37
0000
0000
0000
0000
,  // measure 38
2000
0000
0000
0000
,  // measure 39
3000
0000
1001
0000
,  // measure 40
0002
0000
0000
0000
,  // measure 41
0003
0000
0100
0000
,  // measure 42
0010
0010
0010
0000
,  // measure 43
1000
1000
1000
0000
,  // measure 44
0001
0000
0000
0000
,  // measure 45
0010
0000
0010
0000
,  // measure 46
1001
0000
0000
0110
,  // measure 47
0000
0000
1000
1000
,  // measure 48
0000
0000
0001
0000
,  // measure 49
0010
0000
0000
0100
,  // measure 50
0000
0000
1000
0000
,  // measure 51
0000
0001
0000
0000
,  // measure 52
0000
0100
0000
0100
,  // measure 53
0000
0100
0000
0000
,  // measure 54
2002
0000
0000
0000
,  // measure 55
0000
0000
3003
0000
,  // measure 56
0220
0000
0000
0000
,  // measure 57
0000
0000
0330
0000
,  // measure 58
1000
0000
0000
0000
,  // measure 59
0001
0000
0000
0000
;
