#VERSION:0.83;
#TITLE:MR. DABADA (Groove Wonder Remix);
#SUBTITLE:;
#ARTIST:CARLOS JEAN;
#TITLETRANSLIT:;
#SUBTITLETRANSLIT:;
#ARTISTTRANSLIT:;
#GENRE:;
#ORIGIN:;
#CREDIT:;
#BANNER:MR. DABADA (Groove Wonder Remix)-bn.png;
#BACKGROUND:MR. DABADA (Groove Wonder Remix)-bg.png;
#PREVIEWVID:;
#JACKET:MR. DABADA (Groove Wonder Remix)-jacket.png;
#CDIMAGE:;
#DISCIMAGE:;
#LYRICSPATH:;
#CDTITLE:;
#MUSIC:MR. DABADA (Groove Wonder Remix).ogg;
#OFFSET:0.000000;
#SAMPLESTART:3.440000;
#SAMPLELENGTH:20.000000;
#SELECTABLE:YES;
#DISPLAYBPM:124.000000:137.000000;
#BPMS:0.000=127.200,
4.000=128.000,
43.000=132.000,
44.000=128.000,
55.000=124.000,
56.000=128.000,
67.000=124.000,
68.000=128.000,
71.000=130.000,
72.000=128.000,
81.000=133.000,
82.000=128.000,
95.000=137.000,
96.000=128.000,
99.000=132.000,
100.000=128.000,
116.000=131.000,
117.000=128.000,
124.000=132.000,
125.000=128.000,
131.000=131.000,
133.000=128.000,
151.000=131.000,
152.000=128.000,
155.000=126.000,
156.000=128.000,
162.000=129.000,
164.000=128.000,
168.000=129.000,
172.000=128.000,
175.000=130.000,
176.000=128.000;
#STOPS:;
#DELAYS:;
#WARPS:;
#TIMESIGNATURES:0.000=4=4;
#TICKCOUNTS:0.000=4;
#COMBOS:0.000=1;
#SPEEDS:0.000=1.000=0.000=0;
#SCROLLS:0.000=1.000;
#FAKES:;
#LABELS:0.000=Song Start;
#BGCHANGES:;
#KEYSOUNDS:;
#ATTACKS:
;

//---------------dance-single - ----------------
#NOTEDATA:;
#CHARTNAME:;
#STEPSTYPE:dance-single;
#DESCRIPTION:;
#CHARTSTYLE:;
#DIFFICULTY:Beginner;
#METER:3;
#RADARVALUES:0.129661,0.130687,0.000000,0.000000,0.000000,79.000000,79.000000,0.000000,0.000000,0.000000,0.000000,0.000000,0.000000,0.000000,0.129661,0.130687,0.000000,0.000000,0.000000,79.000000,79.000000,0.000000,0.000000,0.000000,0.000000,0.000000,0.000000,0.000000;
#CREDIT:;
#DISPLAYBPM:128.000000;
#NOTES:
0000
0000
0000
0000
,
0000
0000
0000
0000
,
0000
0000
0000
0000
,
0000
0000
0000
0000
,
0000
0000
0000
0000
,
0000
0000
0000
0000
,
1000
0000
0001
0000
,
0100
0000
0001
0000
,
0010
0000
0001
0000
,
0010
0000
0100
0000
,
0010
0000
0100
0000
,
0010
0000
0100
0000
,
0010
0000
0010
0000
,
1000
0000
0010
0000
,
0100
0000
1000
0000
,
0100
0000
0100
0000
,
0010
0000
0001
0000
,
0100
0000
0010
0000
,
0001
0000
1000
0000
,
0100
0000
1000
0000
,
0010
0000
0001
0000
,
0010
0000
0100
0000
,
1000
0000
0100
0000
,
0010
0000
0100
0000
,
0001
0000
0100
0000
,
0010
0000
0000
0100
,
0000
0100
0000
0000
,
0001
0000
0010
0000
,
1000
0000
0001
0000
,
1000
0000
0001
0000
,
0100
0000
0001
0000
,
1000
0000
1000
0000
,
0001
0000
0010
0000
,
1000
0000
0001
0000
,
0100
0000
0001
0000
,
0010
0000
0010
0000
,
0001
0000
0100
0000
,
0010
0000
0100
0000
,
0010
0000
1000
0000
,
0010
0000
1000
0000
,
0100
0000
0100
0000
,
0010
0000
1000
0000
,
0100
0000
1000
0000
,
0100
0000
0010
0000
,
1000
0000
0100
0000
,
0100
0000
0001
0000
;

//---------------dance-single - ----------------
#NOTEDATA:;
#CHARTNAME:;
#STEPSTYPE:dance-single;
#DESCRIPTION:;
#CHARTSTYLE:;
#DIFFICULTY:Easy;
#METER:4;
#RADARVALUES:0.223214,0.262810,0.045956,0.080423,0.000000,136.000000,132.000000,4.000000,7.000000,0.000000,0.000000,0.000000,0.000000,0.000000,0.223214,0.262810,0.045956,0.080423,0.000000,136.000000,132.000000,4.000000,7.000000,0.000000,0.000000,0.000000,0.000000,0.000000;
#CREDIT:;
#DISPLAYBPM:128.000000;
#NOTES:
0000
0000
0000
0000
,
0000
0000
0000
0000
,
0000
0000
0000
0000
,
0000
0000
0000
0000
,
0000
0000
0000
0000
,
0000
0000
0000
0000
,
1000
0100
0001
0010
,
0100
1000
0001
0000
,
0010
0100
0001
0100
,
0010
1000
0100
0000
,
0010
0001
0100
0000
,
0010
1000
0100
0000
,
0010
0100
0010
0000
,
1000
0001
0010
1001
,
0100
0010
1000
0001
,
0100
1000
0100
0000
,
0010
1000
0001
0010
,
0100
0001
0010
0000
,
0001
0010
1000
0010
,
0100
0001
1000
0000
,
0010
0100
0001
0100
,
0010
1000
0100
0000
,
2000
3000
0200
0300
,
0020
0030
0200
0300
,
0002
0003
0200
0300
,
0020
0000
0030
0100
,
1000
0100
0010
0000
,
0001
1000
0010
0100
,
1000
0010
0001
0000
,
1000
0100
0001
0010
,
0100
1000
0001
0000
,
1000
0010
1000
0000
,
0001
0100
0010
0100
,
1000
0010
0001
1001
,
0100
0010
0001
0100
,
0010
1000
0010
0000
,
0001
1000
0100
0001
,
0010
0001
0100
0000
,
0010
0100
1000
0100
,
0010
0001
1000
0000
,
0100
1000
0100
0001
,
0010
0001
1000
1001
,
0100
0000
1000
0010
,
0100
0000
0010
0001
,
1000
0000
0100
0010
,
0100
0000
0001
1001
;

//---------------dance-single - ----------------
#NOTEDATA:;
#CHARTNAME:;
#STEPSTYPE:dance-single;
#DESCRIPTION:;
#CHARTSTYLE:;
#DIFFICULTY:Medium;
#METER:7;
#RADARVALUES:0.334821,0.367432,0.310202,0.160846,0.005744,204.000000,177.000000,27.000000,14.000000,0.000000,0.000000,0.000000,0.000000,0.000000,0.334821,0.367432,0.310202,0.160846,0.005744,204.000000,177.000000,27.000000,14.000000,0.000000,0.000000,0.000000,0.000000,0.000000;
#CREDIT:;
#DISPLAYBPM:128.000000;
#NOTES:
0000
0000
0000
0000
,
0000
0000
0000
0000
,
0000
0000
0000
0000
,
0000
0000
0000
0000
,
0000
0000
0000
0000
,
0000
0000
0000
0000
,
1000
0100
0010
0000
0001
0000
0100
0000
,
0010
0001
1000
0000
0001
0000
0010
0000
,
0100
0001
0010
0000
1000
0000
0010
0000
,
0100
1000
0001
0000
0010
0000
0001
0000
,
0010
1100
0010
0101
,
1000
0011
0100
1001
,
0100
1010
0100
0011
,
0001
0110
1000
0101
,
0010
0001
0100
0000
1000
0000
0001
0000
,
0010
0100
1000
0000
0010
0000
1000
0000
,
0100
0001
1000
0000
0001
0000
0100
0000
,
0010
1000
0001
0000
0100
0000
1000
0000
,
0001
0010
0100
0000
1000
0000
0100
0000
,
0010
1000
0001
0000
0100
0000
0010
0000
,
0100
1000
0010
0000
0001
0000
0010
0000
,
0100
0010
0001
0000
0100
0000
0001
0000
,
2002
3003
0220
0330
,
0202
0303
0022
0033
,
2200
3300
2020
3030
,
2002
0000
3003
0110
,
1000
0000
0010
0000
0100
1000
0001
0000
,
0010
0000
1000
0000
0010
0001
0100
0000
,
1000
0000
0100
0000
1000
0010
0100
0000
,
1000
0100
0001
0100
,
0010
0001
1000
0000
0110
0000
0000
0000
,
1000
0001
0100
0000
1100
0000
0000
0000
,
0010
1000
0010
0000
0001
0010
0001
0000
,
1000
0100
0001
1001
,
0010
0001
0100
0000
0001
0000
0010
0000
,
0100
0010
1000
0000
0100
0000
0001
0000
,
0010
0001
1000
0000
0010
0000
0001
0000
,
0100
1000
0001
0000
0010
0000
1000
0000
,
0001
0100
0010
0000
1000
0000
0010
0000
,
0100
1000
0001
0000
0010
0000
0100
0000
,
0010
1000
0100
0000
0010
0000
0001
0000
,
0100
0010
0001
0000
0100
0000
0001
0000
,
1010
0101
1000
0100
,
0110
1001
0010
0001
,
1100
0101
0010
0100
,
0011
0000
0000
0000
1100
0000
0000
0000
0001
0000
0000
1000
0000
0000
0000
0000
;

//---------------dance-single - ----------------
#NOTEDATA:;
#CHARTNAME:;
#STEPSTYPE:dance-single;
#DESCRIPTION:;
#CHARTSTYLE:;
#DIFFICULTY:Hard;
#METER:10;
#RADARVALUES:0.428374,0.472412,0.287224,0.045956,0.178079,261.000000,236.000000,25.000000,4.000000,0.000000,0.000000,0.000000,0.000000,0.000000,0.428374,0.472412,0.287224,0.045956,0.178079,261.000000,236.000000,25.000000,4.000000,0.000000,0.000000,0.000000,0.000000,0.000000;
#CREDIT:;
#DISPLAYBPM:124.000000:137.000000;
#NOTES:
0000
0000
0000
0000
,
0000
0000
0000
0000
,
0000
0000
0000
0000
,
0000
0000
0000
0000
,
0000
0000
0000
0000
,
0000
0000
0000
0000
,
0001
0000
0010
0000
0100
0000
0000
1000
0000
0000
0100
0000
0010
0000
0000
0000
,
0100
0000
1000
0000
0001
0000
0000
0100
0000
0000
1000
0000
0100
0000
0000
0000
,
0010
0000
1000
0000
0100
0000
0000
0001
0000
0000
1000
0000
0100
0000
0000
0000
,
0010
0000
0001
0000
1000
0000
0000
0010
0000
0000
0100
0000
0001
0000
0000
0000
,
0010
0001
0011
0000
0100
1000
1100
0000
,
0010
1000
1010
0000
0100
0001
0101
0000
,
1000
0001
1001
0000
0010
0100
0110
0000
,
1000
0010
1010
0000
0001
0010
0011
0000
,
0100
0000
1000
0000
0010
0000
0000
1000
0000
0000
0001
0000
1000
0000
0000
0000
,
0100
0000
0010
0000
0001
0000
0000
0100
0000
0000
0010
0000
0100
0000
0000
0000
,
0010
0000
1000
0000
0001
0000
0000
0010
0000
0000
0100
0000
1000
0000
0000
0000
,
0100
0000
0001
0000
0100
0000
0000
1000
0000
0000
0010
0000
0001
0000
0000
0000
,
1000
0000
0100
0000
0010
0000
0000
0001
0000
0000
0100
0000
0010
0000
0000
0000
,
0100
0000
0001
0000
1000
0000
0000
0100
0000
0000
0001
0000
0100
0000
0000
0000
,
0010
0000
0001
0000
0100
0000
0000
1000
0000
0000
0001
0000
0100
0000
0000
0000
,
0010
0000
0100
0000
0001
0000
0000
0010
0000
0000
0100
0000
1000
0000
0000
0000
,
0102
0000
0010
0000
1000
1000
1003
0000
,
0120
0000
0001
0000
0100
0100
0130
0000
,
2001
0000
0100
0000
0010
0010
3010
0000
,
0102
1000
0013
1100
,
0001
0000
0000
0000
0100
0000
0000
0001
0010
0000
0001
0000
1000
0000
0010
0000
,
0100
0000
0000
0000
0001
0000
0000
1000
0100
0000
1000
0000
0010
0000
0000
0000
,
0001
0000
0000
0000
0010
0000
0000
1000
0001
0000
0100
0000
0010
0000
1000
0000
,
0100
0000
0000
0000
0010
0000
0000
0100
1000
0000
0001
0000
0010
0000
0000
0000
,
0100
0000
1000
0000
0001
0000
1000
0000
0100
0000
0000
0000
1001
0000
0000
0010
,
0001
1000
0100
0000
0001
0000
1010
0000
,
0001
0000
0010
0000
0100
0000
0010
0000
0001
0000
0000
0000
1100
0000
0000
0010
,
0100
1000
0010
0000
1000
0000
0101
0000
,
0100
0000
1000
0000
0010
0000
0000
1000
0000
0000
0001
0000
0100
0000
0000
0000
,
0010
0000
0100
0000
0001
0000
0000
0010
0000
0000
0001
0000
1000
0000
0000
0000
,
0100
0000
1000
0000
0001
0000
0000
0100
0000
0000
0010
0000
1000
0000
0000
0000
,
0010
0000
0001
0000
0010
0000
0000
1000
0000
0000
0100
0000
0001
0000
0000
0000
,
1000
0000
0010
0000
0100
0000
0000
0001
0000
0000
0010
0000
0100
0000
0000
0000
,
0010
0000
0001
0000
1000
0000
0000
0100
0000
0000
0001
0000
0010
0000
0000
0000
,
0100
0000
0001
0000
0010
0000
0000
1000
0000
0000
0100
0000
1000
0000
0000
0000
,
0100
0000
0010
0000
0001
0000
0000
0100
0000
0000
0010
0000
1000
0000
0000
0000
,
0101
0000
0000
0000
1100
0000
0000
0001
0010
0000
0100
0000
1000
0000
0000
0000
,
0110
0000
0000
0000
1001
0000
0000
0010
0100
0000
0001
0000
1000
0000
0000
0000
,
0011
0000
0000
0000
1010
0000
0000
0010
0100
0000
0001
0000
0010
0000
0000
0000
,
1100
0000
0000
0000
0101
0000
0000
1000
0001
0000
0000
0010
0000
0000
0000
0000
;

//---------------dance-double - ----------------
#NOTEDATA:;
#CHARTNAME:;
#STEPSTYPE:dance-double;
#DESCRIPTION:;
#CHARTSTYLE:;
#DIFFICULTY:Easy;
#METER:5;
#RADARVALUES:0.213367,0.262810,0.045956,0.080423,0.000000,130.000000,126.000000,4.000000,7.000000,0.000000,0.000000,0.000000,0.000000,0.000000,0.213367,0.262810,0.045956,0.080423,0.000000,130.000000,126.000000,4.000000,7.000000,0.000000,0.000000,0.000000,0.000000,0.000000;
#CREDIT:;
#DISPLAYBPM:128.000000;
#NOTES:
00000000
00000000
00000000
00000000
,
00000000
00000000
00000000
00000000
,
00000000
00000000
00000000
00000000
,
00000000
00000000
00000000
00000000
,
00000000
00000000
00000000
00000000
,
00000000
00000000
00000000
00000000
,
00001000
00000010
00000001
00000100
,
00000010
00001000
00000001
00000000
,
00000100
00000010
00000001
00000010
,
00001000
00010000
00100000
00000000
,
01000000
00000000
00010000
00000000
,
01000000
00000000
00100000
00000000
,
10000000
00000000
01000000
00000000
,
00010000
00000000
01000000
10010000
,
00100000
01000000
10000000
00100000
,
00010000
00001000
00000010
00000000
,
00000100
00001000
00000001
00000100
,
00000010
00000001
00000100
00000000
,
00000001
00000100
00001000
00010000
,
00100000
00010000
10000000
00000000
,
01000000
00100000
00010000
00100000
,
01000000
10000000
00100000
00000000
,
20000000
30000000
02000000
03000000
,
00200000
00300000
00020000
00030000
,
02000000
03000000
00200000
00300000
,
00020000
00000000
00030000
00001000
,
00001000
00000100
00000010
00000000
,
00000001
00001000
00000100
00000010
,
00000001
00000100
00001000
00000000
,
00010000
00001000
00010000
00001000
,
00010000
01000000
10000000
00000000
,
00010000
00100000
10000000
00000000
,
01000000
00100000
10000000
01000000
,
00010000
00100000
01000000
10010000
,
01000000
00100000
00010000
01000000
,
10000000
01000000
00010000
00000000
,
00001000
00000100
00000010
00000001
,
00000100
00000001
00000010
00000000
,
00000100
00000010
00001000
00000010
,
00000001
00000100
00001000
00000000
,
00010000
00100000
10000000
00010000
,
01000000
00010000
00100000
10010000
,
00100000
00000000
10000000
00000000
,
01000000
00000000
00010000
00000000
,
00001000
00000000
00000010
00000000
,
00000001
00000100
00000010
00001001
;

//---------------dance-double - ----------------
#NOTEDATA:;
#CHARTNAME:;
#STEPSTYPE:dance-double;
#DESCRIPTION:;
#CHARTSTYLE:;
#DIFFICULTY:Medium;
#METER:7;
#RADARVALUES:0.316767,0.314941,0.080423,0.045956,0.005744,193.000000,186.000000,7.000000,4.000000,0.000000,0.000000,0.000000,0.000000,0.000000,0.316767,0.314941,0.080423,0.045956,0.005744,193.000000,186.000000,7.000000,4.000000,0.000000,0.000000,0.000000,0.000000,0.000000;
#CREDIT:;
#DISPLAYBPM:128.000000;
#NOTES:
00000000
00000000
00000000
00000000
,
00000000
00000000
00000000
00000000
,
00000000
00000000
00000000
00000000
,
00000000
00000000
00000000
00000000
,
00000000
00000000
00000000
00000000
,
00000000
00000000
00000000
00000000
,
00000010
00000100
00000001
00000000
00001000
00000000
00000100
00000000
,
00000010
00001000
00000001
00000000
00001000
00000000
00000010
00000000
,
00000100
00001000
00000010
00000000
00000001
00000000
00000100
00000000
,
00001000
00010000
00001000
00000000
00010000
00000000
01000000
00000000
,
00100000
00000000
00010000
00000000
01000000
01000000
01000000
00000000
,
00100000
00000000
10000000
00000000
01000000
01000000
01000000
00000000
,
00010000
00000000
00001000
00000000
00000010
00000010
00000010
00000000
,
00000001
00001000
00000100
00001001
,
00000010
00001000
00000100
00000000
00000001
00000000
00001000
00000000
,
00000010
00000100
00000001
00000000
00000010
00000000
00000001
00000000
,
00000100
00001000
00000001
00000000
00001000
00000000
00000100
00000000
,
00000010
00000001
00001000
00000000
00000010
00000000
00000001
00000000
,
00000100
00001000
00010000
00000000
00001000
00000000
00010000
00000000
,
00100000
01000000
00010000
00000000
00100000
00000000
01000000
00000000
,
10000000
00010000
01000000
00000000
10000000
00000000
00100000
00000000
,
01000000
00100000
10000000
00000000
00010000
00000000
00100000
00000000
,
01000000
01000000
10000000
10000000
,
00100000
00100000
00010000
00010000
,
00001000
00001000
00000100
00000100
,
00000001
00000010
00000100
00001001
,
00000001
00000000
00000010
00000000
00000100
00000001
00001000
00000000
,
00000010
00000000
00000001
00000000
00000010
00001000
00000100
00000000
,
00000001
00000100
00001000
00000100
,
00000001
00000010
00001000
00010000
,
00100000
10000000
01000000
00000000
02020000
00000000
03030000
00000000
,
00100000
00010000
01000000
00000000
22000000
00000000
33000000
00000000
,
00100000
00010000
00100000
10000000
,
00010000
01000000
00100000
10010000
,
01000000
10000000
00010000
00000000
10000000
00000000
00100000
00000000
,
01000000
00100000
00010000
00000000
01000000
00000000
10000000
00000000
,
00100000
10000000
00010000
00000000
00100000
00000000
01000000
00000000
,
00010000
00001000
00010000
00000000
00000100
00000000
00001001
00000000
,
00001000
00000100
00000010
00000000
00000001
00000000
00000010
00000000
,
00000100
00000001
00001000
00000000
00000010
00000000
00000100
00000000
,
00001000
00000001
00000100
00000000
00000010
00000000
00000100
00000000
,
00000010
00000001
00001000
00000000
00000100
00000000
00000101
00000000
,
00001000
00000010
00000001
00000010
,
00001000
00000000
00010000
00000000
01000000
00100000
01000000
00000000
,
10000000
01000000
00010000
01000000
,
10000000
00000000
00000000
00000000
00100000
00000000
00000000
00000000
00010000
00000000
00000000
00001000
00000000
00000000
00000000
00000000
;

//---------------dance-double - ----------------
#NOTEDATA:;
#CHARTNAME:;
#STEPSTYPE:dance-double;
#DESCRIPTION:;
#CHARTSTYLE:;
#DIFFICULTY:Hard;
#METER:11;
#RADARVALUES:0.456276,0.524902,0.298713,0.022978,0.120634,278.000000,252.000000,26.000000,2.000000,0.000000,0.000000,0.000000,0.000000,0.000000,0.456276,0.524902,0.298713,0.022978,0.120634,278.000000,252.000000,26.000000,2.000000,0.000000,0.000000,0.000000,0.000000,0.000000;
#CREDIT:;
#DISPLAYBPM:128.000000;
#NOTES:
00000000
00000000
00000000
00000000
,
00000000
00000000
00000000
00000000
,
00000000
00000000
00000000
00000000
,
00000000
00000000
00000000
00000000
,
00000000
00000000
00000000
00000000
,
00000000
00000000
00000000
00000000
,
10000000
10000000
01000000
00010000
00001000
00000100
00000101
00000000
,
00000001
00000001
00000100
00001000
00010000
01000000
11000000
00000000
,
10000000
10000000
01000000
00010000
00001000
00000100
00000101
00000000
,
00000001
00000001
00000100
00001000
00010000
01000000
11000000
00000000
,
00100000
00000000
00000000
00000000
10000000
00000000
00000000
01000000
00000000
00010000
00000000
00000000
01010000
00000000
00000000
00000000
,
00100000
00000000
00000000
00000000
00010000
00000000
00000000
01000000
00000000
10000000
00000000
00000000
11000000
00000000
00000000
00000000
,
00100000
00000000
00000000
00000000
00010000
00000000
00000000
00001000
00000000
00010000
00000000
00000000
00011000
00000000
00000000
00000000
,
00000010
00000000
00000000
00000000
00000100
00000000
00000000
00001000
00000000
00000010
00000000
00000000
00001010
00000000
00000000
00000000
,
00000001
00000001
00000010
00001000
00010000
01000000
11000000
00000000
,
10000000
10000000
00100000
00010000
00001000
00000100
00000101
00000000
,
00000001
00000001
00000010
00001000
00010000
01000000
11000000
00000000
,
01000000
10000000
01000000
00010000
00001000
00000010
00000011
00000000
,
00000010
00000001
00000100
00001000
00010000
01000000
11000000
10000000
,
01000000
10000000
01000000
00010000
00001000
00000100
00000101
00000001
,
00000100
00000001
00000100
00001000
00010000
00100000
10100000
01000000
,
10000000
10000000
01000000
00010000
00001000
00000100
00000011
00000000
,
00000101
00000000
00000010
00000000
00000001
00000100
00000001
00000000
,
00000110
00000000
00001000
00000000
00010000
00001000
01000000
00000000
,
01100000
00000000
00010000
00000000
00100000
00001000
01000000
00000000
,
00220000
00000000
00330000
01010000
,
10000000
00000000
01000000
00000000
00100000
00010000
10000000
01000000
,
00010000
00000000
00001000
00000000
00000100
00000001
00000010
00000000
,
00001000
00000000
00000100
00000000
00000010
00000100
00010000
00001000
,
00000100
00000000
00000010
00000000
00000001
00000010
00001000
00000000
,
00010000
01000000
10000000
00000000
00100000
00010000
10000000
00000000
,
00010000
01000000
00100000
00000000
10000000
00010000
00100000
00000000
,
10000000
00100000
01000000
00000000
00010000
00000000
00100000
00010000
,
10000000
01000000
00010000
00001000
00010000
00000000
00001100
00000000
,
00000001
00000001
00000010
00001000
00010000
01000000
11000000
00000000
,
10000000
10000000
00100000
00010000
00001000
00000100
00000101
00000000
,
00000001
00000001
00000010
00001000
00010000
01000000
11000000
00000000
,
01000000
00000000
10000000
00000000
01000000
00000000
00000000
00010000
00001000
00000000
00000010
00000000
00000011
00000000
00000000
00000000
,
00000010
00000000
00000001
00000000
00000100
00000000
00000000
00001000
00010000
00000000
01000000
00000000
10000000
00000000
00000000
01000000
,
10000000
00000000
01000000
00000000
00100000
00000000
00000000
00010000
00001000
00000000
00000100
00000000
00000001
00000000
00000000
00000100
,
00000001
00000000
00000100
00000000
00000010
00000000
00000000
00001000
00010000
00000000
00100000
00000000
10000000
00000000
00000000
01000000
,
10000000
00000000
01000000
00000000
00100000
00000000
00000000
00010000
00001000
00000000
00000100
00000000
00000001
00000000
00000000
00000100
,
00000001
00000000
00000000
00000000
00000010
00000000
00000000
00000100
00001000
00000000
00000010
00000000
00010000
00000000
00000000
00000000
,
00001000
00000000
00000000
00000000
00010000
00000000
00000000
01000000
10000000
00000000
00010000
00000000
01000000
00000000
00000000
00000000
,
00100000
00000000
00000000
00000000
01000000
00000000
00000000
00010000
00100000
00000000
01000000
00000000
10000000
00000000
00000000
00000000
,
00010000
00000000
00000000
00000000
10000000
00000000
00000000
00000000
00100000
00000000
00000000
01000000
00000000
00000000
00000000
00000000
;

//---------------dance-single - ----------------
#NOTEDATA:;
#CHARTNAME:;
#STEPSTYPE:dance-single;
#DESCRIPTION:;
#CHARTSTYLE:;
#DIFFICULTY:Challenge;
#METER:15;
#RADARVALUES:0.753348,0.866089,0.367647,0.137868,1.160386,459.000000,427.000000,32.000000,12.000000,0.000000,0.000000,0.000000,0.000000,0.000000,0.753348,0.866089,0.367647,0.137868,1.160386,459.000000,427.000000,32.000000,12.000000,0.000000,0.000000,0.000000,0.000000,0.000000;
#CREDIT:;
#DISPLAYBPM:124.000000:137.000000;
#NOTES:
// measure 0
0000
0000
0000
0000
,  // measure 1
0000
0000
0000
0000
,  // measure 2
0000
0000
0000
0000
,  // measure 3
0000
0000
0000
0000
,  // measure 4
0000
0000
0000
0000
,  // measure 5
0000
0000
0000
0000
,  // measure 6
1000
0100
1000
0010
1000
0100
1000
0010
0000
0000
0100
0000
0000
0001
0010
0001
,  // measure 7
0100
0001
0010
0001
0100
0001
0010
0001
0000
0000
1001
0000
0000
0110
0000
0000
,  // measure 8
0100
0001
1000
0001
0100
0001
1000
0001
0000
0000
0010
0000
0000
0100
1000
0010
,  // measure 9
1000
0001
1000
0010
1000
0100
1000
0001
0000
0000
0011
0000
0000
1100
0000
0000
,  // measure 10
0101
0000
0000
0000
0010
0000
1000
0001
0000
1000
0000
0100
0010
0001
0000
1000
,  // measure 11
0001
0100
0001
0000
1010
0000
0000
0100
0000
1000
0000
0001
0100
0000
0010
1000
,  // measure 12
0010
0100
0001
0000
1010
0000
0000
0001
0000
0010
0000
0001
1000
0010
0100
0010
,  // measure 13
1000
0100
1000
0000
0011
0000
0000
0000
1000
0001
1000
0000
0110
0000
1000
0001
,  // measure 14
0100
0010
1000
0010
0100
0010
1000
0001
0000
0000
0010
0000
0000
0001
1000
0001
,  // measure 15
0010
0001
0100
0001
0010
0001
1000
0010
0000
0000
0100
0000
0000
0010
1000
0100
,  // measure 16
0010
0100
0010
0100
1000
0100
0010
0001
0000
0000
0101
0000
0000
1100
0000
0000
,  // measure 17
0001
1000
0001
0010
0001
1000
0001
0100
0000
0000
0010
0000
0000
1000
0001
1000
,  // measure 18
0010
0100
0001
0100
0010
0100
0001
1000
0000
0000
1001
0000
0000
1010
0000
0000
,  // measure 19
0100
0001
0010
0100
0010
0100
0010
0001
0000
0000
1000
0000
0000
0010
1000
0010
,  // measure 20
1000
0100
0010
0100
1000
0100
0010
0001
0000
0000
0011
0000
0000
0101
0000
0000
,  // measure 21
1000
0010
0100
0010
1000
0100
0010
0100
0000
0000
1100
0000
0000
0011
0000
0000
,  // measure 22
1001
0010
0100
0001
0110
2000
3002
0003
,  // measure 23
0010
0002
0203
0320
2030
3002
0103
0000
,  // measure 24
2010
0000
0001
0000
0100
0100
0001
0000
,  // measure 25
0020
0000
0000
0000
3000
0000
0000
0000
1000
0000
1000
0000
1030
0001
0000
0000
,  // measure 26
0011
0000
0000
0000
0000
0000
0100
0000
0000
0000
0000
0000
1000
0000
0000
0000
0000
0000
0010
0000
0000
1000
0000
0000
0000
0000
0000
0000
0001
0000
0000
0000
0000
0000
0000
0000
0000
0000
0000
0010
0000
0000
0001
0000
0000
0010
0000
0000
,  // measure 27
0100
0000
0000
0000
1000
0000
0000
0000
0001
0000
1000
0000
0010
0000
0000
0000
2100
0000
0000
0000
0000
0000
0000
0000
3001
0000
0100
0000
0000
0000
0000
0010
,  // measure 28
2000
0000
0000
3200
0000
0000
0310
0000
0001
1000
0001
0100
0000
0010
1000
0001
,  // measure 29
1000
0000
0100
0010
0100
1000
0000
0001
1000
0010
0100
0001
0000
1000
0000
0000
,  // measure 30
0010
1000
0100
0000
1000
0000
0001
0000
0010
0001
0000
0100
0000
0000
0010
1000
,  // measure 31
0001
0000
0010
0000
0100
1000
0001
1000
0100
1000
0001
1000
0100
1000
0001
1000
,  // measure 32
0100
1000
0001
1000
0100
1000
0001
1000
0100
1000
0001
1000
0100
1000
0001
1000
,  // measure 33
0100
0000
0010
0000
0001
0000
0000
0000
1001
0000
0000
0000
0000
0000
0000
0010
1000
0000
0000
0000
0000
0000
0001
0000
0000
0000
0000
0000
0010
0000
0100
0000
,  // measure 34
1000
0001
0100
0010
1000
0001
0100
0010
0000
0000
1000
0000
0000
0100
0010
0001
,  // measure 35
0010
0100
1000
0001
0100
0010
1000
0001
0010
0100
0000
1000
0000
0010
1000
0001
,  // measure 36
1000
0010
0100
0001
1000
0010
0100
0001
0000
0000
0011
0000
0000
0110
0000
0000
,  // measure 37
0100
0010
0001
1000
0010
1000
0001
0100
0010
1000
0000
0100
0000
1000
0001
0010
,  // measure 38
0001
0100
0010
0100
0001
1000
0100
1000
0000
0000
1010
0000
0000
0101
0000
0000
,  // measure 39
0010
0100
0010
1000
0010
0100
0001
1000
0001
0010
0000
0100
0000
1000
0001
1000
,  // measure 40
0001
0010
0100
1000
0001
0010
0100
1000
0000
0000
1100
0000
0000
0101
0000
0000
,  // measure 41
1000
0001
0010
0100
1000
0010
0100
0001
0000
0000
1001
0000
0000
1100
0000
0000
,  // measure 42
0001
0010
0001
0010
0001
0100
0001
0100
0000
0000
0010
0000
0000
1000
0100
0010
,  // measure 43
0001
1000
0001
1000
0010
1000
0010
1000
0100
0010
0000
0001
0000
0100
0001
0100
,  // measure 44
0010
1000
0010
1000
0100
1000
0100
1000
0000
0000
0001
0000
0000
0010
0001
0010
,  // measure 45
0100
1000
0100
1000
0001
0100
0001
0100
0010
1000
0000
0101
0000
0000
0000
0000
;
