#TITLE:MEGALOVANIA;
#SUBTITLE:(Acapella ver.);
#ARTIST:Toby Fox reharmonized by Smooth McGroove;
#BANNER:MEGALOVANIA (Acapella ver.)-bn.png;
#BACKGROUND:MEGALOVANIA (Acapella ver.)-bg.png;
#JACKET:MEGALOVANIA (Acapella ver.)-jacket.png;
#MUSIC:MEGALOVANIA (Acapella ver.).ogg;
#SAMPLESTART:32;
#SAMPLELENGTH:20;
#DISPLAYBPM:120;
#BPMS:0=120;
#BGCHANGES:;

//---------------dance-single - ----------------
#NOTES:
     dance-single:
     :
     Beginner:
     3:
     :
0000
0000
0000
0000
,
0000
0000
0000
0000
,
0000
0000
0000
0000
,
0000
0000
0000
0000
,
0001
0000
1000
0000
,
0010
0000
0100
0000
,
0001
0000
0010
0000
,
0100
0000
1000
0000
,
0001
0000
0100
0000
,
0010
0000
1000
0000
,
0100
0000
1000
0000
,
0001
0000
0010
0000
,
0001
0001
0001
0000
,
1000
1000
1000
0000
,
0100
0100
0100
0000
,
0010
0010
0010
0000
,
0001
0000
0100
0000
,
0010
0010
0010
0000
,
1000
0000
0001
0000
,
1000
1000
1000
0000
,
0001
0000
0010
0000
,
0100
0100
0100
0000
,
1000
1000
1000
0000
,
0001
0001
0001
0000
,
0100
0000
0010
0000
,
0100
0100
0000
0000
,
1000
0000
1000
0000
,
0001
0000
0100
0000
,
0010
0010
0010
0000
,
1000
0000
0001
0000
,
0100
0000
0100
0000
,
0010
0000
1000
0000
,
0001
0000
1000
0000
,
0100
0100
0000
0000
,
0010
0000
0001
0000
,
1000
0000
0001
0000
,
1000
1000
1000
0000
,
0010
0000
1000
0000
,
0001
0000
0001
0000
,
0001
0000
0010
0000
,
0002
0000
0003
0000
,
2000
0000
3000
0000
,
0020
0000
0030
0000
,
0200
0000
0300
0000
,
0020
0000
0030
0000
,
2000
0000
3000
0000
,
0002
0000
0003
0000
,
0200
0000
0300
0000
,
0001
0001
0000
0000
,
1000
1000
0000
0000
,
0100
0100
0000
0000
,
0010
0010
0000
0000
,
0100
0100
0000
0000
,
1000
1000
0000
0000
,
0020
0000
0030
0000
,
0200
0000
0300
0000
,
0001
0000
0000
0000
;

//---------------dance-single - ----------------
#NOTES:
     dance-single:
     :
     Easy:
     8:
     :
0000
0000
0000
0000
,
0000
0000
0000
0000
,
0000
0000
0000
0000
,
0000
0000
0000
0000
,
0001
0100
0010
1000
,
0100
0010
0001
1000
,
0010
1000
0100
0001
,
1000
0010
0100
0001
,
0010
0100
1000
0000
0001
0000
0100
0000
,
0001
1000
0010
0000
1000
0000
0100
0000
,
0010
0100
0010
0000
0001
0000
0100
0000
,
1000
0010
1000
0000
0001
0000
1000
0000
,
0100
0010
0001
0000
0100
0000
0010
0000
,
0100
0001
1000
0000
0001
0000
0010
0000
,
0001
1000
0010
0000
0100
0000
0100
0000
,
0010
1000
0001
0000
0010
0000
0100
0000
,
1000
0000
0010
0000
1000
0001
0100
0000
,
0001
0000
0010
0000
0001
0100
1000
0000
,
0010
0000
1000
0000
0001
1000
0100
0000
,
0010
0010
0001
1000
0200
0000
0000
0000
,
1300
0000
0010
0000
0100
0001
0100
0000
,
0001
0000
0010
0000
0001
1000
0001
0000
,
1000
0010
1000
0000
0001
0010
0001
0000
,
0100
0000
0010
1000
0002
0000
0000
0000
,
0013
0010
0001
0100
,
1000
0001
0200
0000
0000
0000
0000
0000
,
0310
1000
0100
0001
,
1000
1000
0010
0100
0002
0000
0000
0000
,
0013
0001
0100
0000
1020
0000
0130
0000
,
0102
1003
2100
3001
,
0022
0000
0003
0000
0031
1000
0001
1000
,
0020
1000
0230
0001
,
0310
0100
0001
1000
,
0100
0010
0002
0000
0000
0000
0000
0000
,
1003
0001
0010
0100
,
0010
0010
0001
0100
2000
0000
0000
0000
,
3001
1000
0100
0000
2010
0000
3001
0000
,
0201
0310
1200
1300
,
0022
0000
0003
0000
0130
0010
0001
1000
,
0002
0010
2003
0100
,
3010
0000
0100
0000
0000
0001
0000
1000
,
0000
0000
0100
0000
0000
1000
0000
0010
,
0000
0000
1000
0000
0000
0001
0000
0010
,
0000
0000
0100
0000
0000
1000
0000
0001
,
0000
0000
1010
0000
0000
0100
0000
0001
,
0000
0000
0011
0000
0000
1000
0000
0100
,
0000
0000
1100
0000
0000
0001
0000
0010
,
0000
0000
0101
0000
0000
0010
0000
1000
,
0001
1000
0100
0000
0010
0000
0010
0000
,
0001
1000
0001
0000
0100
0000
0010
0000
,
0100
0001
1000
0000
0001
0000
0010
0000
,
0001
0100
0001
0000
0010
0000
0100
0000
,
1000
0010
1000
0000
0001
0000
1000
0000
,
0010
1000
0001
0000
1000
0000
1000
0000
,
0000
0100
0010
0000
0110
0000
1001
0000
,
0000
0100
0010
0000
0110
0000
1001
0000
,
1000
0010
0100
0001
;

//---------------dance-single - ----------------
#NOTES:
     dance-single:
     :
     Medium:
     12:
     :
0000
0000
0000
0000
,
0000
0000
0000
0000
,
0000
0000
0000
0000
,
0000
0000
0000
0000
,
0001
0100
0100
0000
0010
1000
0001
0000
,
0010
0100
0100
0000
1000
0010
0001
0000
,
1000
0100
0100
0000
1000
0001
0010
0000
,
0001
1000
1000
0000
0010
1000
0001
0000
,
0001
0100
1010
0000
0100
1000
0001
0100
,
0010
0100
0101
0000
0001
0010
0100
1000
,
0010
1000
1100
0000
0001
0010
0001
0100
,
0010
1000
0110
0000
0001
0010
0001
1000
,
0100
0010
0011
0000
0100
0001
0010
0100
,
1000
0010
0101
0000
0010
1000
0100
0001
,
1000
0010
1010
0000
1000
0001
0010
0100
,
1000
0000
0001
0000
1001
0000
0000
0000
0001
0000
0000
1000
0000
0000
0001
0000
,
0100
0010
1000
0001
0010
0100
2000
0000
,
3001
0000
0100
0000
0010
0000
0100
0000
0001
0000
0010
0000
0001
1000
0000
0000
,
0010
1000
0100
0010
0001
0100
0001
1000
,
0110
0000
0110
0000
1000
0001
1000
0002
0000
0000
0000
0023
0000
0000
0000
0000
,
0031
0100
0010
1000
0001
1000
0200
0000
,
0310
0001
0100
0010
1000
0100
1000
0001
,
0010
0010
0100
0100
1000
0001
1000
0001
,
0100
0000
0010
1000
0000
0002
0000
0200
0000
0000
0000
0000
0003
0000
0000
0000
,
0310
0010
0100
0100
0001
0010
0001
0100
,
1000
0001
1000
0000
0020
0000
0000
0000
0000
0000
0000
0000
0000
0130
0000
0100
,
0001
0010
0001
1000
0100
0100
1000
0001
,
1001
0000
1001
0000
0010
1000
0010
2000
0000
0000
0000
0000
0000
0000
0000
0000
,
3001
0100
0010
1000
1100
0000
0011
0000
,
0101
1010
1001
0110
,
2010
0001
3001
0000
0010
1000
0100
1000
,
0002
0000
0100
0000
0103
0000
0000
0000
1100
0000
0000
0101
0000
0000
1100
0000
,
0001
0001
1000
1000
0010
0100
0001
1000
,
0100
0010
0100
0000
2000
0000
0000
0000
0000
0000
0000
0000
0000
3001
0000
0001
,
0100
0010
0100
1000
0100
0001
0010
0100
,
1100
0000
1100
0000
0001
0100
0001
0200
0000
0000
0000
0000
0000
0000
0000
0000
,
0310
1000
0001
0100
1010
0000
1100
0000
,
0110
0011
0101
1001
,
0012
0100
0103
0000
0010
1000
0001
1000
,
0200
0000
0010
0000
0310
0000
0000
0000
0011
0000
0000
1100
0000
0000
0011
0000
,
1000
0001
0100
0010
1000
0100
0001
0000
,
0010
0001
0100
0001
0010
0100
1000
0000
,
0001
0100
0001
0010
1000
0100
0001
0000
,
1000
0001
1000
0010
1000
0100
0010
0000
,
0100
0010
0001
0100
1000
0001
1000
0000
,
0001
0010
0001
0100
0010
1000
0001
0000
,
1000
0100
0010
0001
1000
0001
0010
0000
,
0001
0100
1000
0010
0100
0010
1000
0000
,
0001
0100
0101
0000
0010
1000
1010
0000
,
0100
1000
1001
0000
0010
0100
0101
0000
,
0001
0010
1100
0000
0010
1000
0101
0000
,
0001
0010
0011
0000
1000
0001
1010
0000
,
0100
0001
0110
0000
0001
0010
1100
0000
,
0001
1000
0101
0000
0010
1000
1100
0000
,
0000
0000
0001
0000
0001
0000
0000
0000
1000
0000
0000
0100
0000
0000
1000
0000
,
0000
0000
0010
0000
0010
0000
0000
0000
1000
0000
0000
0001
0000
0000
0100
0000
,
0001
1000
1000
0000
0010
1000
0100
0001
;

//---------------dance-single - ----------------
#NOTES:
     dance-single:
     :
     Hard:
     15:
     :
0000
0000
0000
0000
,
0000
0000
0000
0000
,
0000
0000
0000
0000
,
0000
0000
0000
0000
,
0001
0010
0100
0000
0100
0000
0000
1000
0000
0001
0000
1000
0000
0010
0100
0010
,
1000
0100
0010
0000
0010
0000
0000
0001
0000
1000
0000
0001
0000
0100
0010
0100
,
0010
1000
0001
0000
0001
0000
0000
0010
0000
0100
0000
0010
0000
0100
1000
0100
,
0010
0001
1000
0000
1000
0000
0000
0001
0000
0100
0000
0001
0000
0010
0100
1000
,
0001
1000
0100
0000
0100
0000
0000
0011
0000
0110
0000
1100
0000
0010
1000
0001
,
1000
0010
0100
0000
0100
0000
0000
0101
0000
1001
0000
1010
0000
0001
0010
0001
,
0010
0100
1000
0000
1000
0000
0000
0101
0000
1010
0000
1100
0000
0001
0010
0001
,
1000
0001
0010
0000
0010
0000
0000
1001
0000
0011
0000
0110
0000
1000
0100
0010
,
0001
1000
0010
0000
0010
0000
1000
0100
0000
0110
0000
1001
0000
0001
0010
0001
,
0100
0010
1000
0000
1000
0000
0001
0010
0000
0011
0000
1100
0000
0010
0100
0001
,
1000
0100
0010
0000
0010
0000
0001
1000
0000
1010
0000
0101
0000
0010
0100
0001
,
0100
0010
1000
0000
1000
0000
0001
0000
0101
0000
0000
1100
0000
0000
0101
0000
,
1100
0000
0010
0100
0000
0001
0000
1100
0000
1100
0000
2200
0000
0000
0300
0000
,
3001
0000
0010
0100
0000
0110
0000
0110
0000
0010
0001
1000
0001
0100
0010
0000
,
1000
0000
0001
0100
0000
0010
0000
1010
0000
0101
0000
0011
0000
2100
0000
0000
,
0010
0000
3010
0000
1000
0001
0100
0001
1000
0000
0000
0102
0000
0000
0013
0000
,
0001
0000
1000
0010
0000
0100
0000
0101
0000
0101
0000
0202
0000
0000
0003
0000
,
0310
0000
1000
0001
0000
0100
0000
0101
0000
1100
0000
0101
0000
0010
0100
0000
,
0001
0001
1000
1000
0001
0001
1000
1000
0010
0010
0100
0100
0010
0010
0100
0100
,
0001
0000
0010
0100
0000
1000
0000
0002
0100
0000
0000
0010
0000
0000
0103
0000
,
1000
0000
0010
0000
0100
0001
0100
0000
0001
0010
0100
0010
1000
0010
0100
0010
,
0001
0100
0010
0000
1002
0000
0100
0000
0000
0000
0010
0000
0000
1000
0000
1003
,
0001
0000
0010
0100
1000
0010
0100
0001
0020
0000
0230
0000
2300
0000
3002
0000
,
0103
0000
0010
0000
1000
0001
0010
0200
1000
0000
0001
0001
0000
1000
1300
0000
,
0110
0011
0101
1010
2100
0001
3020
0100
,
2030
0100
3002
0100
0023
1000
0032
0100
,
2003
0000
0010
0000
0001
0000
3100
0000
1000
1000
0010
0010
0100
0100
0001
0001
,
0020
0000
0001
0000
0031
0100
0010
1000
0002
0000
0100
0100
0000
0010
0013
0000
,
1000
0000
0001
0000
0010
0100
0010
0000
0001
1000
0010
1000
0100
0010
0001
0100
,
0001
0010
0100
0000
2001
0000
0010
0000
0000
0000
0100
0000
0000
0001
0000
3001
,
1000
0000
0010
0001
0010
1000
0010
0100
0002
0000
0023
0000
0230
0000
2300
0000
,
3010
0000
1000
0000
0001
1000
0100
0020
1000
0000
0001
0001
0000
0100
0130
0000
,
0011
0101
1001
0110
2010
0001
3200
0001
,
2300
0010
3002
0010
0203
1000
0320
0001
,
2030
0000
0001
0000
0100
0000
3010
0000
1000
1000
0001
0001
0010
0010
0100
0100
,
2000
0000
0001
0000
3001
1000
0100
0010
0001
0100
0010
1000
0100
0010
0001
0000
,
0100
0000
0100
0000
0100
0010
0100
0010
0000
1000
0000
1000
0100
0010
0001
0000
,
0010
0000
0010
0000
0010
1000
0010
1000
0000
0001
0000
0001
0010
0100
1000
0000
,
0001
0000
0001
0000
0001
0100
0001
0100
0000
0010
0000
0010
1000
0001
0100
0000
,
1000
0000
1000
0000
1000
0001
1000
0001
0000
0100
0000
0100
0010
1000
0001
0000
,
1000
0000
1000
0000
1000
0010
0100
0001
0000
0001
0000
0001
1000
0010
0100
0000
,
0010
0000
0010
0000
0010
1000
0001
0100
0000
0100
0000
0100
0010
1000
0001
0000
,
0100
0000
0100
0000
0100
0001
1000
0010
0000
0010
0000
0010
1000
0001
0100
0000
,
0001
0000
0001
0000
0001
0010
0100
1000
0000
1000
0000
1000
0001
0100
0010
0000
,
1000
0100
0001
0000
0101
0000
0000
0020
0000
2030
0000
3002
0000
1003
0100
0010
,
0001
0100
0010
0000
1010
0000
0000
0200
0000
0302
0000
2003
0000
3001
0010
0100
,
1000
0001
0010
0000
1100
0000
0000
0200
0000
2300
0000
3020
0000
1030
0001
0100
,
0010
1000
0100
0000
0011
0000
0000
0002
0000
0203
0000
0320
0000
1030
0100
0001
,
0100
1000
0001
0000
0110
0000
0000
0002
0000
0023
0000
0230
0000
1300
0001
0100
,
0001
0010
0100
0000
1001
0000
0000
2000
0000
3002
0000
0023
0000
0130
0010
0001
,
0000
0000
1010
0000
0101
0000
0000
0010
0000
1000
0000
0001
0000
0010
0001
0100
,
0000
0000
0110
0000
1001
0000
0000
0010
1000
0000
0100
1000
0000
0001
1000
0000
,
0010
0100
0001
0000
0001
0000
0000
1000
0000
0100
0000
0010
0000
0001
1000
0001
;
