#TITLE:чен JAPAN;
#SUBTITLE:(25th Anniversary Special);
#ARTIST:Unknown artist;
#TITLETRANSLIT:MATSURI JAPAN;
#SUBTITLETRANSLIT:;
#ARTISTTRANSLIT:;
#GENRE:;
#CREDIT:;
#BANNER:MATSURI JAPAN (25th Anniversary Special)-bn.png;
#BACKGROUND:MATSURI JAPAN (25th Anniversary Special)-bg.png;
#LYRICSPATH:;
#CDTITLE:;
#MUSIC:MATSURI JAPAN (25th Anniversary Special).ogg;
#OFFSET:0.000000;
#SAMPLESTART:34.667000;
#SAMPLELENGTH:20.000000;
#SELECTABLE:YES;
#DISPLAYBPM:180.000000;
#BPMS:0.000000=180.000000
;
#STOPS:
;
#BGCHANGES:;
#KEYSOUNDS:;
#ATTACKS:;

//---------------dance-single - ----------------
#NOTES:
     dance-single:
     :
     Challenge:
     12:
     0.476560,0.655012,0.124320,0.663041,0.264180,322.000000,310.000000,12.000000,64.000000,0.000000,0.000000,0.476560,0.655012,0.124320,0.663041,0.264180,322.000000,310.000000,12.000000,64.000000,0.000000,0.000000:
// measure 0
0000
0000
0000
0000
,  // measure 1
0000
0000
0000
0000
,  // measure 2
0000
0000
0000
0000
,  // measure 3
0000
0000
0000
0000
,  // measure 4
0000
0000
0000
0000
,  // measure 5
0000
0000
0020
0000
,  // measure 6
0000
0000
0000
0000
0000
0000
0000
0000
0000
0000
0000
0031
,  // measure 7
1000
0000
1000
0010
0000
0010
1000
0000
1000
0001
0000
0001
,  // measure 8
0100
0100
0100
0100
,  // measure 9
2002
0000
3000
0103
,  // measure 10
0001
0010
0001
0100
0010
1000
0100
1000
,  // measure 11
0002
0203
0320
2030
,  // measure 12
3100
0010
0100
1000
0010
1000
0001
0100
,  // measure 13
0002
0023
0032
0203
,  // measure 14
0310
1000
0010
0100
0010
1000
0001
0010
,  // measure 15
0200
0320
0230
0320
,  // measure 16
0031
0100
0010
1000
0001
0010
0100
1000
,  // measure 17
0020
2030
3002
0203
,  // measure 18
0301
0010
0001
1000
0010
0100
0010
1000
,  // measure 19
0200
0000
1300
0010
0002
0000
2003
0000
,  // measure 20
3001
0100
0001
0010
0001
0100
0010
1000
,  // measure 21
0200
0000
0310
0001
2000
0000
3020
0000
,  // measure 22
1030
0010
0100
0001
0010
0001
0100
0001
,  // measure 23
0020
0000
0031
0100
2000
0000
3002
0000
,  // measure 24
0103
0010
0100
0001
0100
0010
1000
0001
,  // measure 25
0010
0100
1000
0010
1000
0100
1000
0001
,  // measure 26
0020
0000
0000
0000
,  // measure 27
0000
0032
0000
0000
,  // measure 28
0000
1000
1000
1000
,  // measure 29
0000
1000
1000
1000
,  // measure 30
0000
0203
0000
0000
0000
0000
0000
0000
,  // measure 31
0310
1000
0020
0000
0000
0000
0000
0000
0000
0000
0000
0000
0000
0000
0000
0000
,  // measure 32
0000
0000
1030
0000
0002
0000
0103
0002
,  // measure 33
0000
0013
0002
0000
1003
0002
0000
0103
,  // measure 34
0020
0000
0000
0000
0001
0001
0000
0000
,  // measure 35
0000
0000
2030
0000
0001
0001
0000
0000
,  // measure 36
0000
0000
0000
3200
1000
1000
0000
0000
,  // measure 37
0000
0000
0000
0000
0310
0001
0020
0000
1000
0000
1000
0000
0000
0000
0000
0000
,  // measure 38
0000
0000
0001
0001
0000
0000
0230
0010
,  // measure 39
0000
0000
0000
0000
1000
0000
1000
0000
0000
0000
1300
0001
2000
0000
0010
0000
,  // measure 40
0000
0000
3002
0100
0000
0000
0023
0001
,  // measure 41
0000
0000
0000
0031
0000
1000
0010
0000
1000
0010
0000
0100
,  // measure 42
0002
0000
0000
0000
0000
2003
0000
0000
,  // measure 43
0000
0000
0000
0000
0000
0000
0000
0000
0000
0000
0000
3010
,  // measure 44
0100
0000
0100
0001
0000
0001
0100
0000
0100
0010
0000
0010
,  // measure 45
1000
1000
1000
1000
,  // measure 46
0001
0001
0001
0001
,  // measure 47
0100
0000
0000
0000
0000
0000
0010
0000
0000
0000
0000
0000
0000
0000
0000
0000
0000
0000
1000
0000
0000
0001
0000
0000
1000
0000
0000
0000
0000
0000
0000
0000
0001
0000
0000
0000
0100
0000
0000
0000
0000
0000
0000
0000
0000
0000
0000
0000
,  // measure 48
0010
0020
0000
0000
,  // measure 49
0200
0000
0000
0000
0000
0000
0000
0000
0030
0000
0000
0000
0301
0000
1000
0100
,  // measure 50
2000
0000
0000
3000
0000
0001
0200
0000
0000
0300
0000
0000
,  // measure 51
0110
0000
0000
1001
0000
0100
0001
0000
0100
0001
0000
0000
,  // measure 52
1010
0000
0000
1100
0000
1000
0001
0000
1000
0001
0000
0000
,  // measure 53
0100
0010
0100
0001
,  // measure 54
0010
0000
0000
0000
0000
0000
0000
0000
0000
0000
0000
0000
0001
0000
0000
0000
0000
0000
0000
0000
1000
0000
0000
0000
0010
0000
0000
0000
0000
0000
0000
0000
0000
0000
0000
0000
0100
0000
0000
0000
0000
0000
0001
0000
0000
1000
0000
0000
,  // measure 55
0001
0000
0000
0010
0100
0010
0100
0000
0000
1000
0001
1000
,  // measure 56
0001
0000
0000
0100
0000
0010
2000
0000
0000
3000
0000
0000
,  // measure 57
0001
0000
0000
1000
0000
0010
1000
0000
0002
0000
0000
0103
,  // measure 58
0001
0000
0000
0001
0000
1000
0100
0000
1000
0100
0000
0000
,  // measure 59
0010
0012
1003
1020
,  // measure 60
0130
0000
0000
0000
0001
0000
1000
0100
1000
0000
0000
0000
0010
0000
1000
0001
,  // measure 61
1000
0000
0000
0000
0000
0000
0000
0000
0000
0000
0000
0000
0100
0000
0000
0000
0000
0000
0000
0000
0100
0000
0000
0000
0010
0000
0000
0000
0000
0000
0000
0000
0000
0000
0000
0000
0001
0000
0000
1000
0000
0000
0001
0000
0000
0000
0000
0000
,  // measure 62
0100
0000
0000
0000
0000
0000
0000
0000
0100
0000
0000
0000
0010
0000
0000
0000
0000
0000
1000
0000
0000
0001
0000
0000
1000
0000
0000
0000
0000
0000
0000
0000
0100
0000
0000
0000
0010
0000
0000
0000
0000
0000
0000
0000
0000
0000
0000
0000
,  // measure 63
0001
0201
0310
2010
,  // measure 64
3100
2100
3001
0012
,  // measure 65
0103
0000
0020
0000
0000
2030
0000
0000
3002
0000
0000
0203
,  // measure 66
0000
0000
0302
1000
0000
0000
0100
0000
0000
1000
0000
1000
,  // measure 67
0000
0000
0000
0010
0000
0000
0000
0000
,  // measure 68
1003
0000
0000
0000
0010
0100
0010
0100
0020
0000
0000
0000
0000
0000
0000
0000
,  // measure 69
0000
0001
0000
0000
,  // measure 70
0000
0030
0000
0000
1001
0000
0000
0000
0000
0000
0000
0000
0000
0000
0000
0000
;
