#TITLE:MARLIN;
#SUBTITLE:;
#ARTIST:Zekk;
#MUSIC:MARLIN.ogg;
#BANNER:MARLIN-bn.png;
#BACKGROUND:MARLIN-bg.png;
#LYRICSPATH:;
#CDTITLE:;
#SAMPLESTART:63.245998;
#SAMPLELENGTH:20.000000;
#OFFSET:0.666667;
#BPMS:0.000000=184.000000;
#STOPS:;
#TIMESIGNATURES:;
#BGCHANGES:;
#FGCHANGES:;
#ATTACKS:;
#SPEEDS:;
#SCROLLS:;
#DISPLAYBPM:184.000000;
#KEYSOUNDS:;

//---------------dance-single - ---------------
#NOTES:
     dance-single:
     :
     Beginner:
     4:
     0,0,0,0,0:
// measure 0
0000
0000
0000
0000
,  // measure 1
0000
0000
0000
0000
,  // measure 2
0000
0000
0000
0000
,  // measure 3
0000
0000
0000
0000
,  // measure 4
0000
0000
0000
0000
,  // measure 5
0000
0000
0000
0000
,  // measure 6
0000
0000
0000
0000
,  // measure 7
0000
0000
0000
0000
,  // measure 8
0000
0000
0000
0000
,  // measure 9
0001
0000
0000
0000
,  // measure 10
1000
0000
0000
0000
,  // measure 11
0001
0000
0000
0000
,  // measure 12
0100
0100
0100
0000
,  // measure 13
0010
0000
0000
0000
,  // measure 14
0100
0000
0000
0000
,  // measure 15
0010
0000
0000
0000
,  // measure 16
1000
0000
0001
0000
,  // measure 17
1001
0000
0000
0000
,  // measure 18
0000
0000
0000
0000
,  // measure 19
0110
0000
0010
0000
,  // measure 20
1000
0000
0100
0000
,  // measure 21
0110
0000
0010
0000
,  // measure 22
0001
0000
0100
0000
,  // measure 23
0010
0000
0000
0000
,  // measure 24
1000
0000
0001
0000
,  // measure 25
1001
0000
0100
0000
,  // measure 26
0010
0000
1000
0000
,  // measure 27
1001
0000
0001
0000
,  // measure 28
0010
0000
0100
0000
,  // measure 29
0110
0000
0010
0000
,  // measure 30
0001
0000
1000
0000
,  // measure 31
0010
0000
0000
0000
,  // measure 32
0100
0000
0010
0000
,  // measure 33
1000
1000
1000
0000
,  // measure 34
0001
0000
1000
0000
,  // measure 35
0100
0100
0100
0000
,  // measure 36
0010
0000
0001
0000
,  // measure 37
1000
1000
1000
0000
,  // measure 38
0001
0000
0100
0000
,  // measure 39
0010
0000
0100
0000
,  // measure 40
0001
0001
0001
0000
,  // measure 41
1000
0000
0000
0000
,  // measure 42
0000
0000
0000
0000
,  // measure 43
0000
0000
0000
0000
,  // measure 44
0000
0000
0000
0000
,  // measure 45
0001
0000
0000
0000
,  // measure 46
1000
0000
0000
0000
,  // measure 47
0001
0000
0000
0000
,  // measure 48
0100
0000
0000
0000
,  // measure 49
0010
0000
0000
0000
,  // measure 50
0010
0000
0000
0000
,  // measure 51
0010
0000
0000
0000
,  // measure 52
1000
1000
1000
0000
,  // measure 53
0100
0000
0000
0000
,  // measure 54
0100
0000
0000
0000
,  // measure 55
0100
0000
0000
0000
,  // measure 56
0010
0010
0010
0000
,  // measure 57
0001
0000
0000
0000
,  // measure 58
1000
0000
0000
0000
,  // measure 59
0001
0000
0000
0000
,  // measure 60
0010
0010
0010
0000
,  // measure 61
0001
0000
0000
0000
,  // measure 62
0100
0000
0000
0000
,  // measure 63
0010
0000
0000
0000
,  // measure 64
0110
0000
0000
0000
,  // measure 65
1000
0000
0001
0000
,  // measure 66
1001
0000
0000
0000
,  // measure 67
0000
0000
0000
0000
,  // measure 68
0010
0000
0100
0000
,  // measure 69
0010
0000
0100
0000
,  // measure 70
0110
0000
0001
0000
,  // measure 71
1001
0000
1000
0000
,  // measure 72
0100
0000
0000
0000
,  // measure 73
0010
0000
0000
0000
,  // measure 74
1001
0000
0010
0000
,  // measure 75
0110
0000
1000
0000
,  // measure 76
0001
0000
0001
0000
,  // measure 77
1000
0000
1000
0000
,  // measure 78
0110
0000
1000
0000
,  // measure 79
1001
0000
0001
0000
,  // measure 80
0010
0000
0000
0000
,  // measure 81
0100
0000
0100
0000
,  // measure 82
1000
1000
1000
0000
,  // measure 83
0001
0000
0100
0000
,  // measure 84
0010
0010
0010
0000
,  // measure 85
1000
0000
0001
0000
,  // measure 86
0010
0010
0010
0000
,  // measure 87
0100
0000
1000
0000
,  // measure 88
0001
0000
1000
0000
,  // measure 89
0010
0010
0010
0010
;

//---------------dance-single - ---------------
#NOTES:
     dance-single:
     :
     Easy:
     8:
     0,0,0,0,0:
// measure 0
0000
0000
0000
0000
,  // measure 1
0000
0000
0000
0000
,  // measure 2
0000
0000
0000
0000
,  // measure 3
0000
0000
0000
0000
,  // measure 4
0000
0000
0000
0000
,  // measure 5
0000
0000
0000
0000
,  // measure 6
0000
0000
0000
0000
,  // measure 7
0000
0000
0000
0000
,  // measure 8
0000
0000
0000
0000
,  // measure 9
0001
0001
0000
0000
0000
0000
0000
0000
,  // measure 10
1000
1000
0000
0000
0000
0000
0000
0000
,  // measure 11
0001
0001
0000
0000
0000
0000
0000
0000
,  // measure 12
1000
0100
1000
0100
1000
0000
0000
0000
,  // measure 13
0010
0010
0000
0000
0000
0000
0000
0000
,  // measure 14
0100
0100
0000
0000
0000
0000
0000
0000
,  // measure 15
0010
0010
0000
0000
0000
0000
0000
0000
,  // measure 16
1000
0001
1000
0001
1000
0000
0000
0000
,  // measure 17
1001
1000
0000
0010
,  // measure 18
0000
0000
0100
0000
0000
0001
1000
0000
,  // measure 19
0110
1000
0100
0001
,  // measure 20
0010
0001
0100
0010
,  // measure 21
1010
0100
0001
0010
,  // measure 22
0001
1000
0010
0100
,  // measure 23
0110
0001
0100
0010
,  // measure 24
1000
1000
2000
3000
,  // measure 25
1001
0010
0100
0001
,  // measure 26
0010
0001
0100
1000
,  // measure 27
1100
0010
0001
0100
,  // measure 28
0001
0010
0001
0100
,  // measure 29
0101
0010
1000
0100
,  // measure 30
1000
0001
0100
0010
,  // measure 31
1001
0100
0001
0010
,  // measure 32
0100
1000
0100
1000
0100
0000
0000
0000
,  // measure 33
1100
0000
0101
0000
1000
0000
0000
0010
,  // measure 34
0000
0100
0001
1000
,  // measure 35
1010
0000
0011
0000
0100
0000
0000
1000
,  // measure 36
0000
0001
0100
0000
0000
0010
0100
0000
,  // measure 37
0110
0000
1001
0000
0010
0000
0000
1000
,  // measure 38
0000
0100
1000
0001
,  // measure 39
0101
1000
0010
1000
,  // measure 40
0100
0001
0010
0100
,  // measure 41
2000
0000
0000
0000
,  // measure 42
0000
0000
0000
0000
,  // measure 43
0000
0000
0000
0000
,  // measure 44
3000
0000
0000
1001
,  // measure 45
0010
0010
0010
0010
,  // measure 46
0100
0100
0100
0100
,  // measure 47
0010
0010
0100
0100
,  // measure 48
0002
0000
0000
0003
,  // measure 49
1000
1000
0000
0000
0000
0000
0000
0000
,  // measure 50
0001
0001
0000
0000
0000
0000
0000
0000
,  // measure 51
1000
1000
0000
0000
0000
0000
0000
0000
,  // measure 52
0001
0100
0001
0100
0001
0000
0000
0000
,  // measure 53
0010
0010
0000
0000
0000
0000
0000
0000
,  // measure 54
0100
0100
0000
0000
0000
0000
0000
0000
,  // measure 55
0010
0010
0000
0000
0000
0000
0000
0000
,  // measure 56
0100
1000
0100
1000
0100
0000
0000
0000
,  // measure 57
1000
1000
0000
0000
0010
0000
0000
0000
,  // measure 58
0001
0001
0000
0000
0010
0000
0000
0000
,  // measure 59
0100
0100
0000
0000
1000
0000
0000
0000
,  // measure 60
0010
1000
0010
1000
0010
0000
0000
0000
,  // measure 61
1000
1000
0000
0000
0001
0000
0000
0000
,  // measure 62
0100
0100
0000
0000
0101
0000
1100
0000
,  // measure 63
0010
0010
0000
0000
0000
0000
0000
0000
,  // measure 64
1001
0000
0000
0000
,  // measure 65
0001
1000
0001
1000
0001
0000
0000
0000
,  // measure 66
0110
0000
0100
0000
0000
0010
0000
0100
,  // measure 67
0000
0001
0100
1000
,  // measure 68
1001
0020
1030
0200
,  // measure 69
0310
0002
1003
0100
,  // measure 70
0011
0001
1000
0010
,  // measure 71
1010
0000
0010
0000
1000
0001
0100
0000
,  // measure 72
0020
2030
3002
0203
,  // measure 73
0302
2003
3002
0003
,  // measure 74
0101
0100
0010
1000
,  // measure 75
1100
0000
0100
0000
1000
0001
0100
0000
,  // measure 76
0110
0002
1003
0200
,  // measure 77
0310
0002
0103
0010
,  // measure 78
0110
0010
1000
0100
,  // measure 79
0011
0000
0001
0000
1000
0010
0100
0000
,  // measure 80
1001
0010
0010
0010
,  // measure 81
1000
0001
1000
0001
1000
0000
0000
0000
,  // measure 82
1100
0000
0101
0000
0010
0000
0000
1000
,  // measure 83
0000
0100
1000
0001
,  // measure 84
1001
0000
1010
0000
0001
0000
0000
0010
,  // measure 85
0000
0001
1000
0000
0000
0010
0100
0000
,  // measure 86
0110
0000
1001
0000
0100
0000
0000
0001
,  // measure 87
0000
0010
0100
1000
,  // measure 88
1010
0001
0010
1000
,  // measure 89
0100
0000
0010
0000
0001
1000
0001
0000
;

//---------------dance-single - ---------------
#NOTES:
     dance-single:
     :
     Medium:
     11:
     0.212383,0.259638,0.101944,0.067962,0.076458,175.000000,163.000000,12.000000,8.000000,0.000000,0.000000,0.212383,0.259638,0.101944,0.067962,0.076458,175.000000,163.000000,12.000000,8.000000,0.000000,0.000000:
// measure 0
0000
0000
0000
0000
,  // measure 1
0000
0000
0000
0000
,  // measure 2
0000
0000
0000
0000
,  // measure 3
0000
0000
0000
0000
,  // measure 4
0000
0000
0000
0000
,  // measure 5
0000
0000
0000
0000
,  // measure 6
0000
0000
0000
0000
,  // measure 7
0000
0000
0000
0000
,  // measure 8
0000
0000
0000
0000
,  // measure 9
0001
0001
0100
0000
0010
0000
0100
0000
,  // measure 10
1000
1000
0100
0000
0010
0000
0100
0000
,  // measure 11
0001
0001
0100
0000
0010
0000
0100
0000
,  // measure 12
0001
0001
1000
1000
0001
0000
0000
0000
,  // measure 13
0010
0010
0001
0000
1000
0000
0001
0000
,  // measure 14
0100
0100
0001
0000
1000
0000
0001
0000
,  // measure 15
0010
0010
0001
0000
1000
0000
0001
0000
,  // measure 16
0100
0100
0100
0100
0100
0000
0000
0000
,  // measure 17
0110
0000
0000
0000
0010
0000
0000
0010
0000
0000
0000
0000
0100
0000
0000
0100
,  // measure 18
0000
0000
0000
0000
0001
0000
0000
0001
0000
0000
0000
0000
1000
0000
0000
0000
,  // measure 19
1001
0000
0000
0000
1000
0000
0000
0001
0000
0000
0000
0000
0010
0000
0000
0000
,  // measure 20
0001
0100
0010
1000
0200
0000
0320
0000
,  // measure 21
0031
0000
0000
0000
1000
0000
0000
1000
0000
0000
0000
0000
0010
0000
0000
0100
,  // measure 22
0000
0000
0000
0000
0010
0000
0000
1000
0000
0000
0000
0000
0001
0000
0000
0000
,  // measure 23
0020
0032
0203
2300
,  // measure 24
3010
0000
0000
0010
0000
0000
0001
0000
1000
0000
0000
0000
0000
0000
0000
0000
,  // measure 25
1100
0000
0000
0000
1000
0000
0000
0100
0000
0000
0000
0000
0001
0000
0000
0100
,  // measure 26
0000
0000
0000
0000
0010
0000
0000
0010
0000
0000
0000
0000
0001
0000
0000
0000
,  // measure 27
0101
0000
0000
0000
1000
0000
0000
1000
0000
0000
0100
0000
0010
0000
0000
0000
,  // measure 28
0001
0100
0001
0000
2000
0000
3002
0000
,  // measure 29
0013
0000
0000
0000
0001
0000
0000
0001
0000
0000
0000
0000
1000
0000
0000
0010
,  // measure 30
0000
0000
0000
0000
1000
0000
0000
1000
0000
0000
0000
0000
0100
0000
0000
0000
,  // measure 31
1001
0000
0001
0100
0001
0000
1000
0100
,  // measure 32
1000
1000
1000
1000
1000
0000
0000
0000
,  // measure 33
1010
0000
0011
0000
0100
0000
0001
1000
,  // measure 34
0000
0001
1000
0000
0100
0000
0001
0000
,  // measure 35
0101
0000
0000
0000
1100
0000
0000
0000
0010
0000
0000
0010
0000
0000
0010
0000
,  // measure 36
0001
0100
0001
0000
1000
0100
1000
0000
,  // measure 37
1001
0000
0110
0000
1000
0000
0010
0100
,  // measure 38
0000
0010
0100
0000
0001
0000
1000
0000
,  // measure 39
1100
0000
0010
0001
0000
0010
0100
0000
,  // measure 40
1000
0000
0001
0000
0010
0001
0100
0000
,  // measure 41
2000
0000
0000
0000
,  // measure 42
0000
0000
0000
0000
,  // measure 43
0000
0000
0000
0000
,  // measure 44
3000
0000
0000
1001
,  // measure 45
0010
0010
0100
0100
,  // measure 46
0001
0001
1000
1000
,  // measure 47
0001
0010
0100
1000
,  // measure 48
0020
0000
0000
0130
,  // measure 49
0010
0010
1000
0000
0001
0000
1000
0000
,  // measure 50
0100
0100
0010
0000
0001
0000
0010
0000
,  // measure 51
0001
0001
0100
0000
0010
0000
0100
0000
,  // measure 52
0001
0001
1000
1000
0001
0000
0000
0000
,  // measure 53
1000
1000
0100
0000
0010
0000
0010
0000
,  // measure 54
0001
0001
1000
0000
0010
0000
1000
0000
,  // measure 55
0100
0100
0010
0000
0001
0000
0100
0000
,  // measure 56
0010
0010
0100
0100
0010
0000
0000
0000
,  // measure 57
1000
1000
0100
0000
1000
0000
0001
0000
,  // measure 58
0010
0010
0100
0000
1000
0000
0001
0000
,  // measure 59
1000
1000
0001
0000
0010
0000
0001
0000
,  // measure 60
0100
0100
0010
0010
0100
0000
0000
0000
,  // measure 61
0001
0001
0010
0000
0100
0000
1000
0000
,  // measure 62
0010
0010
1000
0000
0100
0000
0001
0000
,  // measure 63
2000
3020
0230
0302
,  // measure 64
0023
0000
0000
0000
,  // measure 65
0130
0100
0100
0100
0100
0000
0000
0000
,  // measure 66
0110
0000
0000
0000
0001
0000
0000
0001
0000
0000
0001
0000
0000
0000
1000
0000
,  // measure 67
0000
0000
0001
0000
0100
0000
0000
0100
0000
0000
0010
0000
1000
0000
0000
0000
,  // measure 68
1100
0000
1000
0010
0001
0000
1000
0100
,  // measure 69
0001
0000
1000
0010
0100
0000
0001
0000
,  // measure 70
0011
0000
0000
0000
0100
0000
0000
0100
0000
0000
1000
0000
0000
0000
0001
0000
,  // measure 71
0100
0000
0000
0000
0010
0000
0000
0010
0000
0000
1000
0000
0001
0000
0000
0000
,  // measure 72
1000
0000
0000
1000
0000
0000
0000
0000
0001
0000
0000
0001
0000
0000
0000
0000
,  // measure 73
1000
0000
0000
0001
0000
0000
1000
0000
0001
0000
0000
0000
0000
0000
0000
0000
,  // measure 74
0011
0000
0000
0000
0100
0000
0000
1000
0000
0000
0001
0000
0100
0000
0000
0000
,  // measure 75
0110
0000
0000
0000
0010
0000
0000
0010
0000
0000
1000
0000
0001
0000
0000
0000
,  // measure 76
1010
0000
0001
0100
1000
0000
0001
0010
,  // measure 77
1000
0000
0001
0100
0010
0000
1000
0000
,  // measure 78
1100
0000
0000
0000
0100
0000
0000
0100
0000
0000
0010
0000
0001
0000
0000
0000
,  // measure 79
1001
0000
0000
0000
0001
0000
0000
1000
0000
0000
0001
0000
0100
0000
0000
0000
,  // measure 80
0110
2000
3002
2003
,  // measure 81
3010
0010
0010
0010
0010
0000
0000
0000
,  // measure 82
1010
0000
0101
0000
0001
0000
1000
0010
,  // measure 83
0000
1000
0010
0000
1000
0000
0100
0000
,  // measure 84
1100
0000
0000
0000
0101
0000
0000
0000
0001
0000
0000
0001
0000
0000
0001
0000
,  // measure 85
0000
0010
0100
0000
1000
0001
0100
0000
,  // measure 86
0110
0000
1001
0000
0010
0000
0100
0001
,  // measure 87
0000
0100
0001
0000
1000
0000
0001
0000
,  // measure 88
0011
0000
0001
0100
1000
0000
0001
0000
,  // measure 89
1000
0010
0100
0010
1000
0001
0100
0000
;

//---------------dance-single - ---------------
#NOTES:
     dance-single:
     :
     Hard:
     13:
     0.625012,0.648989,0.263355,0.025486,0.203887,515.000000,484.000000,31.000000,3.000000,0.000000,0.000000,0.625012,0.648989,0.263355,0.025486,0.203887,515.000000,484.000000,31.000000,3.000000,0.000000,0.000000:
// measure 0
0000
0000
0000
0000
,  // measure 1
0000
0000
0000
0000
,  // measure 2
0000
0000
0000
0000
,  // measure 3
0000
0000
0000
0000
,  // measure 4
0000
0000
0000
0000
,  // measure 5
0000
0000
0000
0000
,  // measure 6
0000
0000
0000
0000
,  // measure 7
0000
0000
0000
0000
,  // measure 8
0000
0000
0000
0000
,  // measure 9
0001
0001
0100
0010
1000
0001
0100
0000
,  // measure 10
0001
0001
1000
0100
0010
0001
0100
0000
,  // measure 11
0001
0001
0010
0001
1000
0001
0100
0000
,  // measure 12
0001
0001
1000
1000
0001
0100
0010
0000
,  // measure 13
1000
1000
0100
0010
0100
1000
0001
0000
,  // measure 14
1000
1000
0001
0010
0001
0100
0010
0000
,  // measure 15
1000
1000
0010
0100
0010
1000
0001
0000
,  // measure 16
0100
0000
0100
0000
0100
0000
0100
0000
0100
0000
0000
0110
0000
0000
0000
0000
,  // measure 17
1001
0000
0000
0000
1000
0000
0000
1000
0000
0000
0001
0000
0100
0000
0000
0100
,  // measure 18
0000
0000
0010
0000
1000
0000
0000
0100
0000
0000
0010
0000
0001
0000
0000
0000
,  // measure 19
0011
0000
0000
0000
1000
0000
0000
1000
0000
0000
0001
0000
0100
0000
0000
0010
,  // measure 20
0000
0100
0001
0100
0010
1000
0001
0000
,  // measure 21
1100
0000
0000
0000
1000
0000
0000
0001
0000
0000
1000
0000
0010
0000
0000
0100
,  // measure 22
0000
0000
0001
0000
0010
0000
0000
0010
0000
0000
0100
0000
1000
0000
0000
0000
,  // measure 23
0001
0100
0001
0100
1000
0100
1000
0100
,  // measure 24
0001
0000
0000
0010
0000
0000
0001
0000
1000
0000
0100
0000
0010
0000
0000
0000
,  // measure 25
0011
0000
0000
0000
1000
0000
0000
0010
0000
0000
1000
0000
0100
0000
0000
0010
,  // measure 26
0000
0000
0001
0000
0100
0000
0000
0001
0000
0000
1000
0000
0100
0000
1000
0000
,  // measure 27
0001
0000
0000
0000
0100
0000
0000
0100
0000
0000
0010
0000
1000
0000
0000
0001
,  // measure 28
0000
1000
0010
1000
0100
0010
0001
0000
,  // measure 29
0110
0000
0000
0000
1000
0000
0000
1000
0000
0000
0001
0000
0010
0000
0000
0010
,  // measure 30
0000
0000
0001
0000
0100
0000
0000
0010
0000
0000
1000
0000
0001
0000
1000
0000
,  // measure 31
0001
0100
0010
1000
0001
0010
0100
1000
,  // measure 32
0001
0000
0001
0000
0001
0000
0001
0000
0001
0000
0000
1001
0000
0000
0000
0000
,  // measure 33
0101
0000
0000
0000
1100
0000
0000
0000
1000
0000
0000
0010
0000
0000
1000
0000
,  // measure 34
0000
0001
0000
0000
0010
0000
0000
0100
0000
0000
1000
0000
0001
0000
0000
0000
,  // measure 35
0011
0000
0000
0000
1010
0000
0000
0000
0001
0000
0000
0100
0000
0000
0010
0000
,  // measure 36
1000
0100
1000
0001
0010
0100
1000
0000
,  // measure 37
1001
0000
0000
0000
0110
0000
0000
0000
0010
0000
0000
1000
0000
0000
0100
0000
,  // measure 38
0000
1000
0000
0000
0001
0000
0000
0010
0000
0000
0001
0000
0100
0000
0000
0000
,  // measure 39
0101
0000
0001
0010
1000
0010
0001
0100
,  // measure 40
0010
1000
0100
0010
0001
0100
1000
0010
,  // measure 41
0200
0000
0000
0000
,  // measure 42
0000
0000
0000
0000
,  // measure 43
0000
0000
0000
0000
,  // measure 44
0300
0000
0000
0000
0000
0001
0001
0000
,  // measure 45
0010
0001
0100
0010
,  // measure 46
1000
0100
1000
0001
,  // measure 47
0100
0001
0100
0001
1000
0100
1000
0100
,  // measure 48
0020
0000
0000
0000
0030
0001
1000
0000
,  // measure 49
0001
0000
0001
0000
0100
0000
0000
0000
0010
0000
0000
0010
0000
0000
0010
0000
,  // measure 50
1000
1000
0100
0010
0001
0100
0001
0000
,  // measure 51
1000
0000
1000
0000
0001
0000
0000
0000
0100
0000
0000
0100
0000
0000
0100
0000
,  // measure 52
0001
0001
1000
1000
0001
0100
0010
0000
,  // measure 53
0100
0000
0100
0000
0010
0000
0000
0000
1000
0000
0000
1000
0000
0000
1000
0000
,  // measure 54
0001
0001
0010
0001
1000
0010
0100
0000
,  // measure 55
0010
0000
0010
0000
1000
0000
0000
0000
0100
0000
0000
0100
0000
0000
0100
0000
,  // measure 56
1000
1000
0001
0001
1000
0010
0100
0000
,  // measure 57
0001
0001
0010
0001
0100
0010
1000
0000
,  // measure 58
0100
0100
1000
0010
1000
0001
0100
0000
,  // measure 59
0010
0010
1000
0100
1000
0001
0010
0000
,  // measure 60
0100
0100
0010
0010
0100
1000
0001
0000
,  // measure 61
0100
0100
0001
0010
0001
0100
1000
0000
,  // measure 62
0001
0001
0010
0000
0001
0100
0010
1000
,  // measure 63
0100
0010
0100
1000
0010
0100
0001
0000
,  // measure 64
2000
0000
0000
0000
,  // measure 65
3001
0000
0001
0000
0001
0000
0001
0000
0001
0000
0000
1001
0000
0000
0000
0000
,  // measure 66
0110
0000
1000
0000
0001
0000
0000
0010
0000
0000
0001
0000
0000
0000
0100
0000
,  // measure 67
0010
1000
0100
1000
0010
0100
0001
0000
,  // measure 68
0011
0000
0001
0100
0001
1000
0100
0010
,  // measure 69
0100
1000
0010
1000
0100
0010
0001
0000
,  // measure 70
0101
0000
0100
0000
0010
0000
0000
1000
0000
0000
0100
0000
1000
0000
0001
0000
,  // measure 71
0110
0000
0000
0000
1000
0000
0000
0001
0000
0000
1000
0000
0001
0000
0100
0000
,  // measure 72
0010
0000
0000
0010
0000
0000
0010
0000
1000
0000
0000
0001
0000
0000
1000
0000
,  // measure 73
0001
0100
0010
1000
0100
0010
0001
0000
,  // measure 74
1001
0000
0100
0000
0010
0000
0000
1000
0000
0000
0100
0000
1000
0000
0001
0000
,  // measure 75
0100
0000
0001
0000
0010
0000
0000
0010
0000
0000
0100
0000
1000
0000
0001
0000
,  // measure 76
1100
0000
1000
0010
0100
0001
0010
1000
,  // measure 77
0010
0001
0100
0010
1000
0100
0001
0000
,  // measure 78
0010
0000
0001
0000
1000
0000
0000
1000
0000
0000
0010
0000
1000
0000
0001
0000
,  // measure 79
0101
0000
0000
0000
0010
0000
0000
0010
0000
0000
0100
0000
0001
0000
1000
0000
,  // measure 80
1010
0000
0010
0100
0010
1000
0100
0010
,  // measure 81
0001
0000
0001
0000
0001
0000
0001
0000
0001
0000
0000
1001
0000
0000
0000
0000
,  // measure 82
1100
0000
0000
0000
0101
0000
0000
0000
0010
0000
0000
0100
0000
0000
0001
0000
,  // measure 83
0000
1000
0000
0000
0100
0000
0000
0010
0000
0000
0001
0000
1000
0000
0000
0000
,  // measure 84
1010
0000
0000
0000
0101
0000
0000
0000
0001
0000
0000
0010
0000
0000
1000
0000
,  // measure 85
0100
0010
0001
0001
0100
0010
1000
0000
,  // measure 86
1010
0000
0000
0000
0011
0000
0000
0000
0010
0000
0000
0100
0000
0000
1000
0000
,  // measure 87
0000
0001
0000
0000
1000
0000
0000
0010
0000
0000
0100
0000
0001
0000
0000
0000
,  // measure 88
0110
0000
1000
0001
1000
0010
0100
0001
,  // measure 89
0010
1000
0010
0001
0100
0010
1000
0001
;

//---------------dance-single - ---------------
#NOTES:
     dance-single:
     :
     Challenge:
     17:
     0.978174,1.260678,0.390784,0.084953,0.989704,806.000000,760.000000,46.000000,10.000000,0.000000,0.000000,0.978174,1.260678,0.390784,0.084953,0.989704,806.000000,760.000000,46.000000,10.000000,0.000000,0.000000:
// measure 0
0000
0000
0000
0000
,  // measure 1
0000
0000
0000
0000
,  // measure 2
0000
0000
0000
0000
,  // measure 3
0000
0000
0000
0000
,  // measure 4
0000
0000
0000
0000
,  // measure 5
0000
0000
0000
0000
,  // measure 6
0000
0000
0000
0000
,  // measure 7
0000
0000
0000
0000
,  // measure 8
0000
0000
0000
0000
,  // measure 9
0001
0000
0001
0000
0010
0100
1000
0000
0001
0000
0100
0000
0010
0000
0100
0000
,  // measure 10
0001
0000
0001
0000
0010
0100
1000
0000
0001
0000
1000
0000
0100
0000
0010
0000
,  // measure 11
0001
0000
0001
0000
1000
0010
0100
0000
0001
0000
0010
0000
0001
0000
1000
0000
,  // measure 12
1100
0001
0101
1000
1100
0010
0100
0000
,  // measure 13
0010
0000
0010
0000
1000
0001
0100
0000
0010
0000
1000
0000
0100
0000
0010
0000
,  // measure 14
0001
0000
0001
0000
1000
0010
0100
0000
0001
0000
1000
0000
0100
0000
1000
0000
,  // measure 15
0010
1000
0010
1000
0001
0010
0001
0010
0001
0100
0001
0100
1000
0100
1000
0100
,  // measure 16
0001
0000
0001
0000
0001
0000
0001
0000
0001
0000
0000
1001
0000
0000
0110
0000
,  // measure 17
1001
0000
0000
0000
0100
0000
0001
0020
0000
0000
0100
0000
0130
0000
1000
0002
,  // measure 18
0000
0000
0010
0000
0013
0000
0001
0200
0000
0000
0310
0100
0010
0000
0000
0000
,  // measure 19
0110
0000
0000
0000
1000
0000
0100
0010
0000
0010
0001
0000
0100
0000
0001
1000
,  // measure 20
0000
1000
0100
0000
0010
0001
1000
0001
0100
0000
0010
0000
2000
0000
0000
0000
,  // measure 21
3100
0000
0000
0000
1100
0000
0010
0001
0000
0001
0100
0000
0010
0000
1000
0001
,  // measure 22
0000
0001
0100
0000
0001
0000
0010
0100
0000
0100
1000
0000
0001
0000
0100
0000
,  // measure 23
0010
1000
0001
1000
0001
0010
0100
1000
0100
0010
0100
0010
0001
1000
0010
0100
,  // measure 24
0010
1000
0100
0010
0100
1000
0100
1000
0001
0100
0001
1000
0010
0100
0001
1000
,  // measure 25
0200
0000
0000
0000
0310
0000
0001
0100
0000
0001
1000
0000
0100
0000
0010
0001
,  // measure 26
0000
1000
0010
0000
0100
0000
0010
1000
0000
0001
1000
0000
0100
1000
0001
0100
,  // measure 27
0020
0000
0000
0000
1030
0000
0001
0010
0000
0100
1000
0000
0010
0000
1000
0001
,  // measure 28
0000
1000
0010
0000
1000
0100
0010
0001
0100
0000
0010
0000
0200
0000
0000
0000
,  // measure 29
0301
0000
0000
0000
1010
0000
1000
0100
0000
0010
0001
0000
0100
0000
0010
1000
,  // measure 30
0000
1000
0001
0000
0010
0000
0100
1000
0000
0001
0100
0000
0010
0000
1000
0001
,  // measure 31
1000
0100
1000
0100
0001
0100
0001
0100
0010
0001
0010
0001
1000
0010
1000
0010
,  // measure 32
0100
0000
0100
0000
0100
0000
0100
0000
0100
0000
0000
0110
0000
0000
1000
0001
,  // measure 33
0100
0000
0000
0000
0101
0000
0000
0000
1100
0000
1000
0100
0000
0100
0001
0000
,  // measure 34
0001
0010
0000
0010
1000
0000
1000
0100
0000
1000
0100
0010
0001
0000
0000
0000
,  // measure 35
1001
0000
0000
0000
0110
0000
0000
0000
1000
0000
0100
0010
0100
0010
0001
0000
,  // measure 36
1000
0010
0100
0001
1000
0000
0100
0000
0010
0100
1000
0001
0100
0000
0001
0000
,  // measure 37
1000
0000
0000
0000
1010
0000
0000
0000
0011
0000
0001
0010
0000
0010
1000
0000
,  // measure 38
1000
0100
0000
0100
0001
0000
0001
0010
0000
0001
0010
0100
1000
0000
0000
0000
,  // measure 39
1001
0000
0000
0000
1000
0010
0100
0010
1000
0100
0010
0100
1000
0001
0100
0010
,  // measure 40
1000
0100
0001
0100
1000
0100
0001
0100
1000
0001
1000
0001
0100
0000
0010
1000
,  // measure 41
0002
0000
0000
0000
,  // measure 42
0000
0000
0000
0000
,  // measure 43
0000
0000
0000
0000
,  // measure 44
0003
0000
0000
0000
0000
0000
0000
0000
0000
0000
0100
0010
1000
0000
0000
0000
,  // measure 45
0001
0010
0001
0100
0010
1000
0100
0010
,  // measure 46
0001
1000
0001
0100
0001
0010
0100
1000
,  // measure 47
0010
1000
0100
1000
0001
0100
0010
1000
,  // measure 48
0200
0000
0000
0000
0000
0000
0000
0000
0300
0000
1000
0001
1000
0000
0000
0000
,  // measure 49
0010
0000
0010
0000
1000
0000
0100
0010
0001
0000
0100
0001
1000
0001
0100
0000
,  // measure 50
0010
0000
0010
0000
1000
0000
0001
0000
1000
0100
1000
0100
1000
0000
0001
0000
,  // measure 51
0100
0000
0100
0000
0010
0000
1000
0001
1000
0000
0010
0100
0010
0100
0001
0000
,  // measure 52
0011
1000
1010
0001
0011
0100
0010
0000
,  // measure 53
1000
0000
1000
0000
0001
0000
0010
0100
1000
0000
0001
0100
0001
0010
0100
0000
,  // measure 54
1000
0000
1000
0000
0010
0000
0100
0000
0001
0010
0100
0010
0001
0000
1000
0000
,  // measure 55
0001
0000
0001
0000
0100
0000
0010
0000
1000
0000
0100
0010
0001
1000
0001
0000
,  // measure 56
0101
1000
1100
0001
0101
0010
0100
0000
,  // measure 57
0001
0000
0001
0000
1000
0000
0010
1000
0100
0000
0010
0000
0001
0000
1000
0000
,  // measure 58
0010
0000
0010
0000
0100
0000
0010
1000
0001
0000
1000
0000
0100
0000
0010
0000
,  // measure 59
0001
0000
0001
0000
0100
0000
0001
1000
0010
0000
1000
0000
0001
0000
0100
0000
,  // measure 60
1010
0001
0011
1000
1010
0100
0010
0000
,  // measure 61
0001
0000
0001
0000
1000
0000
0100
1000
0010
0000
0100
0000
0001
0000
1000
0000
,  // measure 62
0100
0000
0000
0000
0000
0000
0100
0000
0000
0000
0000
0000
1000
0000
0000
0000
0000
0000
0001
0000
0000
0000
0000
0000
0010
0000
0000
0000
0100
0000
0000
0000
0010
0000
0000
0000
0001
0000
0000
0100
0000
0000
0010
0000
0000
1000
0000
0000
,  // measure 63
0100
0010
0100
1000
0010
0100
0010
1000
0001
0010
0001
0100
0001
1000
0100
0010
,  // measure 64
0002
0000
0000
0000
,  // measure 65
1003
0000
1000
0000
1000
0000
1000
0000
1000
0000
0000
1001
0000
0000
0010
0000
,  // measure 66
0110
0000
0100
0000
0001
0000
1000
0010
1000
0000
0100
0000
0010
0001
0100
0000
,  // measure 67
0001
0000
0010
0000
1000
0000
0100
1000
0010
0100
0001
0000
0011
0000
0000
0000
,  // measure 68
1100
0000
0000
0000
0001
0100
0010
1000
0100
0010
0001
0000
1000
0010
1000
0001
,  // measure 69
0010
0100
1000
0000
0001
1000
0010
1000
0100
0010
0001
0000
0110
0000
0000
0000
,  // measure 70
1001
0000
0100
0000
0001
0000
1000
0010
0000
1000
0001
0000
0010
0000
0100
0000
,  // measure 71
1100
0000
1000
0000
0001
0000
0100
0010
0000
0010
1000
0000
0001
0000
0010
0100
,  // measure 72
0010
0001
0010
0001
1000
0010
1000
0010
0100
1000
0100
1000
0100
0001
0100
0001
,  // measure 73
1000
0100
0010
0001
0010
0100
1000
0100
0010
0001
0010
0100
1000
0000
0001
0100
,  // measure 74
0001
0000
0010
0000
1000
0000
0100
0010
0000
0010
0001
0000
1000
0000
0001
0000
,  // measure 75
1010
0000
0100
0000
0001
0000
1000
0100
0000
0100
1000
0000
0001
0000
0100
0000
,  // measure 76
0101
0000
0000
0000
1000
0010
0100
0001
0010
0100
1000
0000
0001
1000
0010
0100
,  // measure 77
0001
1000
0100
0000
0010
0001
1000
0001
0100
0010
1000
0000
0110
0000
0000
0000
,  // measure 78
0101
0000
1000
0000
0100
0000
1000
0001
0000
0100
0010
0000
1000
0000
0100
0000
,  // measure 79
0001
0000
0010
0000
0100
0000
1000
0001
0000
0001
0100
0000
0010
0000
1000
0100
,  // measure 80
0010
0000
0000
0000
0001
1000
0001
0000
0100
0010
1000
0010
0100
0000
0001
0000
,  // measure 81
0010
0000
0010
0000
0010
0000
0010
0000
0010
0000
0000
0110
0000
0000
1000
0001
,  // measure 82
0100
0000
0000
0000
0101
0000
0000
0000
1100
0000
1000
0010
0000
0010
0001
0000
,  // measure 83
0001
0100
0000
0100
1000
0000
1000
0010
0000
1000
0010
0100
0001
0000
0000
0000
,  // measure 84
1001
0000
0000
0000
0110
0000
0000
0000
1000
0000
0001
0100
0010
0100
0001
0000
,  // measure 85
1000
0100
0001
0100
1000
0000
0010
0000
0100
0001
0010
0100
1000
0000
0001
0000
,  // measure 86
0011
0000
0000
0000
1010
0000
0000
0000
0101
0000
0001
0010
0000
0010
1000
0000
,  // measure 87
1000
0100
0000
0100
0001
0000
0001
0010
0000
0001
0010
0100
1000
0000
0000
0000
,  // measure 88
1001
0000
0000
0000
1000
0010
0100
0010
0100
0001
0010
0100
1000
0001
0100
0001
,  // measure 89
0010
0100
0010
0100
1000
0001
1000
0001
0100
0010
1000
0001
0010
0000
0100
1000
;
