#TITLE:Love Me Like You Mean It;
#SUBTITLE:;
#ARTIST:Kelsea Ballerini;
#TITLETRANSLIT:;
#SUBTITLETRANSLIT:;
#ARTISTTRANSLIT:;
#GENRE:;
#CREDIT:;
#BANNER:Love Me Like You Mean It-bn.png;
#BACKGROUND:Love Me Like You Mean It-bg.png;
#LYRICSPATH:;
#CDTITLE:;
#MUSIC:Love Me Like You Mean It.ogg;
#OFFSET:-0.016667;
#SAMPLESTART:37.122002;
#SAMPLELENGTH:20.000000;
#SELECTABLE:YES;
#DISPLAYBPM:152.000000;
#BPMS:0.000000=152.000000
;
#STOPS:
;
#BGCHANGES:;
#KEYSOUNDS:;
#ATTACKS:;

//---------------dance-single - ----------------
#NOTES:
     dance-single:
     :
     Hard:
     12:
     0.508948,0.536671,0.205841,0.205841,0.000000,450.000000,424.000000,26.000000,26.000000,0.000000,0.000000,0.508948,0.536671,0.205841,0.205841,0.000000,450.000000,424.000000,26.000000,26.000000,0.000000,0.000000:
0000
0000
0000
0000
,
0000
0000
0000
0000
,
0000
0000
0000
0000
,
0000
0000
0000
0000
,
0001
0000
1000
0100
0000
1000
0100
0000
,
0010
0001
0100
0000
1001
0000
0100
0000
,
0010
0000
1000
0001
0000
0010
0100
0000
,
1000
1000
0101
0100
,
2010
0000
3001
0000
,
0010
0001
0010
0100
1000
0010
0001
0000
,
0100
0001
0010
0001
1000
0100
0001
0000
,
0010
0001
0100
0001
1000
0010
0200
0000
,
0301
0110
1000
0000
,
0001
1000
0100
1000
0001
0100
0010
0000
,
1000
0001
0100
0010
1000
0100
0001
0000
,
0010
0001
0010
0000
1100
0000
1000
0001
,
0000
0010
0001
2000
0000
0000
3001
0100
,
0010
1000
0100
0010
0000
0000
0001
0010
,
0000
1000
0001
0020
0000
0000
0031
0100
,
0010
1000
0001
1000
0100
0000
0000
0010
,
0001
1000
0001
1000
0010
0000
0000
0100
,
0002
0000
2003
0000
3001
0010
0100
0000
,
1000
0010
1000
0000
0101
0000
0000
0001
,
0000
0000
1000
0000
0001
0100
0001
0100
,
0001
0010
0100
0001
0010
0100
1000
0001
,
0100
0000
1001
0000
0010
1000
0010
1000
,
0100
1000
0001
0100
1000
0001
0100
0010
,
2000
0000
3001
0000
1000
0100
1000
0100
,
0010
0000
0001
0101
0000
1100
0000
0010
,
2000
0000
3002
0000
0013
0001
1000
0001
,
0100
0010
1000
0100
0010
1000
0001
0010
,
0001
0000
1100
0000
0001
0010
0001
0010
,
0100
1000
0010
0100
1000
0010
0100
0001
,
0010
0000
1001
0000
0100
0010
0100
0010
,
1000
0100
0001
1000
0100
0001
0010
0100
,
2000
0000
3010
0000
0100
0001
0100
0001
,
1000
0000
0010
1010
0000
0011
0000
1000
,
0002
0000
0103
0000
1000
0010
1000
0010
,
1000
0100
0010
0001
0100
0000
0000
0010
,
0000
1000
0001
1000
0100
0010
0002
0000
,
0103
0000
0010
1000
0000
0100
0001
0000
,
0010
0001
1000
0000
0110
0000
0001
0000
,
0100
0000
0001
0010
0000
0100
1000
0000
,
0010
0010
0101
1000
,
2100
0000
0000
0000
3001
0000
0000
0100
,
0001
0010
0001
0010
0100
1000
0001
0000
,
0100
0001
1000
0000
0001
0010
0100
0000
,
1000
0010
0100
0010
0100
0001
1000
0200
,
0000
0310
0001
2000
0000
3001
0000
0000
,
0000
0100
0001
0010
0001
0100
1000
0000
,
0000
0010
1000
0100
1000
0001
0000
0100
,
0001
1000
0001
0000
0011
0000
0100
1000
,
0000
0010
1000
0002
0000
0000
0013
0100
,
1000
0010
1000
0001
0000
0000
1000
0100
,
0000
1000
0001
0020
0000
0000
0130
0010
,
0001
1000
0001
0100
0010
0000
0000
1000
,
0002
0000
0013
0100
0000
1100
0000
0010
,
1000
0001
0000
2010
0000
3010
0000
0100
,
0001
0000
1000
0001
0000
1000
0100
0010
,
0000
0000
0001
0000
1000
0100
1000
0100
,
1000
0010
0001
1000
0010
0001
0100
0010
,
1000
0000
1001
0000
0010
1000
0010
1000
,
0001
0100
0010
0001
0100
0010
1000
0100
,
0002
0000
0013
0000
0001
1000
0001
0100
,
0010
0000
1000
1100
0000
0011
0000
0001
,
0200
0000
0302
0000
0013
0001
0010
0001
,
0100
0001
1000
0100
0001
1000
0001
0010
,
0001
0000
1010
0000
0010
0100
0010
0100
,
0001
1000
0010
0001
1000
0010
0100
0010
,
1000
0000
0110
0000
0001
1000
0001
1000
,
0100
0010
0001
0100
0010
0001
0100
0010
,
2000
0000
3100
0000
1000
0001
1000
0001
,
0010
0000
0001
0101
0000
1010
0000
0010
,
2000
0000
3001
0000
1000
0010
1000
0010
,
0100
0001
1000
0010
1000
0000
0000
0100
,
0000
0001
1000
0010
1000
0200
0020
0000
,
0000
0000
0000
0000
,
0000
0000
0000
0000
,
0000
0000
0000
0000
,
0000
0000
0000
0330
;

//---------------dance-single - ----------------
#NOTES:
     dance-single:
     :
     Medium:
     9:
     0.393586,0.441965,0.269177,0.221675,0.000000,348.000000,314.000000,34.000000,28.000000,0.000000,0.000000,0.393586,0.441965,0.269177,0.221675,0.000000,348.000000,314.000000,34.000000,28.000000,0.000000,0.000000:
0000
0000
0000
0000
,
0000
0000
0000
0000
,
0000
0000
0000
0000
,
0000
0000
0000
0000
,
0001
0000
1000
0100
0000
1000
0100
0000
,
0010
0001
1001
0100
,
0000
0000
0010
1000
0000
0001
1000
0000
,
0100
0000
1100
0001
,
0102
0000
1003
0000
,
0001
0000
0010
0001
1000
0000
0100
0000
,
1000
0010
1000
0000
0100
0000
0001
0000
,
0100
0010
0100
0010
0100
0000
0002
0000
,
0000
1003
0110
0000
,
0001
1000
0001
0000
0100
0000
0010
0000
,
1000
0100
1000
0000
0010
0000
1000
0000
,
0100
0010
0001
0000
1000
0000
0001
0100
,
0000
0101
0000
1100
0000
0000
0010
0100
,
0001
0000
1000
0200
0000
0000
0310
0001
,
0000
0011
0000
1010
0000
0000
0002
0000
,
1003
0001
1000
0100
0000
0000
0000
0000
,
0010
0001
1000
0001
0000
0000
0000
0000
,
0100
0000
0100
0000
0001
1000
0001
0000
,
0010
0000
0100
0000
1000
0000
0000
0001
,
0000
0000
1000
0000
0010
0100
0010
0000
,
1000
0000
0100
0010
0000
0100
0010
0000
,
0001
0000
1001
0000
0010
1000
0010
0000
,
0100
0000
0001
1000
0000
0001
1000
0000
,
1010
0000
0000
0000
0100
0001
0100
0000
,
0010
0000
0000
0101
0000
1100
0000
0000
,
0002
0000
2003
0000
3010
1000
0010
0000
,
0100
0000
0001
0010
0000
0001
0010
0000
,
0200
0000
0320
0000
0031
1000
0001
0000
,
1000
0000
0001
0100
0000
0001
0100
0000
,
0010
0000
1001
0000
0100
0001
0100
0000
,
0010
0000
1000
0100
0000
1000
0100
0000
,
0011
0000
0000
0000
1000
0001
1000
0000
,
0010
0000
0000
1010
0000
0011
0000
0000
,
0200
0000
0302
0000
1003
0100
1000
0000
,
0010
0000
1000
0001
0000
0000
0000
0100
,
0000
0001
1000
0010
2000
0000
3200
0000
,
0000
0000
0310
0001
0000
1000
0001
0000
,
0100
0010
1001
0100
,
0000
0000
0001
0010
0000
0100
1000
0000
,
0010
0010
0101
1000
,
2100
0000
3001
0000
,
0010
0001
0100
0000
0001
0000
1000
0000
,
0100
0010
0001
0000
0100
0000
0010
0000
,
1000
0001
1000
0001
1000
0000
0000
0020
,
0000
2030
0000
3002
0000
0103
0000
0000
,
0000
0001
1000
0000
1010
0000
0110
0000
,
0000
0000
0001
0010
0001
1000
0000
0000
,
0010
0100
0001
0000
0101
0000
0010
1000
,
0000
1100
0000
0011
0000
0000
1000
0001
,
1000
0000
0010
0200
0000
0000
0301
1000
,
0000
1010
0000
0101
0000
0000
0020
0000
,
1030
0100
1000
0100
0000
0000
0000
0000
,
0002
0000
1003
0001
0000
0100
0000
0000
,
0010
1000
0000
0002
0000
1003
0000
0000
,
0010
0000
1000
0001
0000
1000
0100
0000
,
0000
0000
0000
0000
0010
0001
0010
0000
,
0100
0000
1000
0001
0000
1000
0100
0000
,
0010
0000
0110
0000
0001
1000
0001
0000
,
0100
0000
0010
1000
0000
0010
0100
0000
,
0101
0000
0000
0000
1000
0100
1000
0000
,
0010
0000
0000
1010
0000
0101
0000
0000
,
0002
0000
2003
0000
3001
0100
0001
0000
,
0010
0000
0100
1000
0000
0001
1000
0000
,
0020
0000
0230
0000
0310
1000
0010
0000
,
0100
0000
0001
0010
0000
0100
1000
0000
,
0010
0000
1001
0000
0100
0001
0100
0000
,
0010
0000
1000
0001
0000
1000
0100
0000
,
1100
0000
0000
0000
1000
0010
1000
0000
,
0001
0000
0000
0011
0000
1100
0000
0000
,
0020
0000
2030
0000
3100
0010
0001
0000
,
1000
0000
0001
0100
0000
0000
0000
0010
,
0000
1000
0001
1000
0200
0000
0020
0000
,
0000
0000
0000
0000
,
0000
0000
0000
0000
,
0000
0000
0000
0000
,
0000
0000
0000
0330
;

//---------------dance-single - ----------------
#NOTES:
     dance-single:
     :
     Easy:
     6:
     0.274832,0.284120,0.095004,0.047502,0.000000,243.000000,231.000000,12.000000,6.000000,0.000000,0.000000,0.274832,0.284120,0.095004,0.047502,0.000000,243.000000,231.000000,12.000000,6.000000,0.000000,0.000000:
0000
0000
0000
0000
,
0000
0000
0000
0000
,
0000
0000
0000
0000
,
0000
0000
0000
0000
,
0001
0000
1000
0000
,
0001
0100
0100
0010
,
1000
0000
0001
1000
,
0100
0000
0000
1000
,
0020
0000
0030
0000
,
1000
0001
1001
0000
,
0100
0010
0110
0000
,
1000
0010
0100
0002
,
0000
1003
0001
0000
,
0100
0010
0110
0000
,
1000
0001
1001
0000
,
0010
0001
0010
0100
,
1000
0001
0001
0000
,
0010
0001
0100
0000
,
0010
1000
1000
0100
,
1000
0001
0100
0000
,
1001
0100
0000
0000
,
0010
0010
1000
0001
,
0100
0000
0110
0000
,
0010
0000
1000
1000
,
0001
0010
0001
0100
,
0010
0010
1000
0001
,
1000
0100
1000
0010
,
0100
0000
0001
0001
,
1000
0000
0001
0010
,
0100
0100
1000
0001
,
1000
0010
1000
0001
,
0100
0100
0001
1000
,
0001
0010
0001
0100
,
0010
0010
1000
0001
,
1000
0100
0010
0001
,
0100
0000
0001
1000
,
0001
0000
0010
0010
,
0010
0000
0100
1000
,
0001
1000
0010
0000
,
1000
0001
1000
0020
,
0000
0130
0010
1000
,
0001
0001
0100
0010
,
0000
1000
0001
1000
,
0100
0000
0000
1000
,
0020
0000
0030
0000
,
0100
0010
1001
0000
,
0001
1000
0110
0000
,
1000
0010
1000
0000
,
0001
0001
0001
0000
,
0000
0010
1001
0100
,
0000
1000
0110
0000
,
0001
0010
0001
0100
,
0010
1000
1000
0000
,
0001
1000
0100
0000
,
0010
0001
0001
0100
,
0010
1000
0001
0000
,
0110
0000
1000
0000
,
1001
0000
0100
0000
,
0010
0001
1000
0001
,
0100
0000
0010
0010
,
1000
0001
1000
0010
,
0100
0100
0010
1000
,
0100
0010
0001
0100
,
0001
0000
1000
1000
,
0001
0000
0010
0001
,
0100
0000
0010
1000
,
0010
0100
0010
1000
,
0100
0010
0001
0001
,
0001
0010
0100
0010
,
0001
1000
0010
0010
,
0100
0010
1000
0100
,
0001
0000
0010
0001
,
1000
0000
0010
0010
,
0010
0000
1000
0100
,
0010
0001
0100
0000
,
0010
1000
0200
0020
,
0000
0000
0000
0000
,
0000
0000
0000
0000
,
0000
0000
0000
0000
,
0000
0000
0000
0330
;

//---------------dance-single - ----------------
#NOTES:
     dance-single:
     :
     Beginner:
     3:
     0.143636,0.216133,0.047502,0.015834,0.000000,127.000000,121.000000,6.000000,2.000000,0.000000,0.000000,0.143636,0.216133,0.047502,0.015834,0.000000,127.000000,121.000000,6.000000,2.000000,0.000000,0.000000:
// measure 0
0000
0000
0000
0000
,  // measure 1
0000
0000
0000
0000
,  // measure 2
0000
0000
0000
0000
,  // measure 3
0000
0000
0000
0000
,  // measure 4
0001
0000
1000
0000
,  // measure 5
0001
0001
0001
0000
,  // measure 6
0010
0000
0100
0000
,  // measure 7
1000
0000
0000
0000
,  // measure 8
1001
0000
0000
0000
,  // measure 9
0010
0000
0000
0000
,  // measure 10
1000
0000
0000
0000
,  // measure 11
0100
0000
0010
0000
,  // measure 12
0000
0000
0001
0000
,  // measure 13
1000
0000
0000
0000
,  // measure 14
0001
0000
0000
0000
,  // measure 15
0100
0000
0010
0000
,  // measure 16
1000
0000
1000
0000
,  // measure 17
0001
0000
0001
0000
,  // measure 18
0010
0000
0001
0000
,  // measure 19
0100
0000
0000
0000
,  // measure 20
0110
0000
0000
0000
,  // measure 21
1000
1000
1000
0000
,  // measure 22
0001
0000
0000
0000
,  // measure 23
0000
0000
0010
0010
,  // measure 24
0010
0000
0001
0000
,  // measure 25
0100
0000
0010
0000
,  // measure 26
1000
0000
0100
0000
,  // measure 27
1000
0000
0001
0000
,  // measure 28
1000
0000
0000
0000
,  // measure 29
0010
0000
0000
0000
,  // measure 30
0100
0000
0001
0000
,  // measure 31
1000
0000
0010
0010
,  // measure 32
0010
0000
1000
0000
,  // measure 33
0001
0000
1000
0000
,  // measure 34
0100
0000
0010
0000
,  // measure 35
0001
0000
0100
0000
,  // measure 36
0001
0000
0000
0000
,  // measure 37
0010
0000
0000
0000
,  // measure 38
0100
0000
0000
0000
,  // measure 39
1000
1000
1000
0000
,  // measure 40
0002
0000
0000
0000
,  // measure 41
0003
0000
1000
0000
,  // measure 42
0010
0000
1000
0000
,  // measure 43
0100
0000
0000
0000
,  // measure 44
1001
0000
0000
0000
,  // measure 45
0010
0000
0000
0000
,  // measure 46
0100
0000
0000
0000
,  // measure 47
0001
0000
1000
0000
,  // measure 48
0001
0000
0000
0000
,  // measure 49
0000
0000
0010
0000
,  // measure 50
0000
0000
0100
0000
,  // measure 51
1000
1000
1000
0000
,  // measure 52
0001
0000
1000
0000
,  // measure 53
0010
0000
0010
0000
,  // measure 54
1000
0000
0001
0000
,  // measure 55
0100
0000
0000
0000
,  // measure 56
0110
0000
0000
0000
,  // measure 57
1001
0000
0000
0000
,  // measure 58
0001
0000
1000
0000
,  // measure 59
0110
0000
0100
0100
,  // measure 60
0100
0000
0010
0000
,  // measure 61
0100
0000
0001
0000
,  // measure 62
0010
0000
0100
0000
,  // measure 63
1000
0000
0001
0000
,  // measure 64
1000
0000
0000
0000
,  // measure 65
0100
0000
0000
0000
,  // measure 66
0010
0000
0001
0000
,  // measure 67
1000
0000
0001
0001
,  // measure 68
0001
0000
0100
0000
,  // measure 69
0010
0000
1000
0000
,  // measure 70
0100
0000
1000
0000
,  // measure 71
0010
0000
0100
0000
,  // measure 72
0001
0000
0000
0000
,  // measure 73
0100
0000
0000
0000
,  // measure 74
0001
0000
0000
0000
,  // measure 75
0010
0010
0010
0020
,  // measure 76
0000
0000
0000
0000
,  // measure 77
0000
0000
0000
0000
,  // measure 78
0030
0000
0000
0000
;
