#VERSION:0.83;
#TITLE:Lollipop;
#SUBTITLE:;
#ARTIST:F 50's;
#TITLETRANSLIT:;
#SUBTITLETRANSLIT:;
#ARTISTTRANSLIT:;
#GENRE:;
#ORIGIN:;
#CREDIT:;
#BANNER:Lollipop-bn.png;
#BACKGROUND:Lollipop-bg.png;
#PREVIEWVID:;
#JACKET:Lollipop-jacket.png;
#CDIMAGE:;
#DISCIMAGE:;
#LYRICSPATH:;
#CDTITLE:;
#MUSIC:Lollipop.ogg;
#OFFSET:0.000000;
#SAMPLESTART:58.737000;
#SAMPLELENGTH:20.000000;
#SELECTABLE:YES;
#DISPLAYBPM:143.000000;
#BPMS:0.000=143.010;
#STOPS:;
#DELAYS:;
#WARPS:;
#TIMESIGNATURES:0.000=4=4;
#TICKCOUNTS:0.000=4;
#COMBOS:0.000=1;
#SPEEDS:0.000=1.000=0.000=0;
#SCROLLS:0.000=1.000;
#FAKES:;
#LABELS:0.000=Song Start;
#BGCHANGES:;
#KEYSOUNDS:;
#ATTACKS:
;

//---------------dance-single - ----------------
#NOTEDATA:;
#CHARTNAME:;
#STEPSTYPE:dance-single;
#DESCRIPTION:;
#CHARTSTYLE:;
#DIFFICULTY:Hard;
#METER:14;
#RADARVALUES:0.637952,0.585661,0.292831,0.097610,1.142852,549.000000,513.000000,36.000000,12.000000,0.000000,0.000000,0.000000,0.000000,0.000000,0.637952,0.585661,0.292831,0.097610,1.142852,549.000000,513.000000,36.000000,12.000000,0.000000,0.000000,0.000000,0.000000,0.000000;
#CREDIT:;
#DISPLAYBPM:143.000000;
#NOTES:
0000
0000
0000
0000
,
0000
0000
0000
0000
,
0000
1000
0100
1000
0000
0001
0000
0100
0010
0100
0000
0001
,
0000
0010
0100
0010
0000
0001
0000
1000
0010
1000
0000
0001
,
0000
0010
0001
0010
0000
0100
0000
1000
0001
1000
0000
0010
,
0000
0100
0001
0100
0000
0010
0000
1000
0100
1000
0000
0001
,
1000
0010
1000
0001
0000
0100
0000
0001
0010
0001
0000
1000
,
0100
0010
0100
1000
0000
0001
0100
0010
0100
0001
0000
1000
,
0010
0000
0000
0000
0000
0000
1000
0000
1000
0000
1000
0100
,
0010
0000
0010
0000
0010
0001
0100
0000
0100
0000
0100
0001
,
1000
0000
1000
0000
1000
0001
0010
0000
0010
0000
0010
0001
,
0100
0000
0100
0000
0100
0010
1000
0000
0010
0100
0000
0010
,
1000
0000
1000
0000
1000
0001
0100
0000
0100
0000
0100
0001
,
0010
0000
0010
0000
0010
0100
1000
0000
0001
0100
0000
0100
,
0010
0000
0010
0000
0010
1000
0001
0000
0001
0000
0001
1000
,
0001
0000
0001
0000
0001
0010
0100
0000
0100
1000
0000
0001
,
1000
0000
0100
0010
0000
0000
0110
0000
0001
1000
0001
1000
,
0001
0000
0100
0010
0000
0000
1001
0000
0000
1001
0000
0000
,
1010
0000
0010
0100
0000
0000
0101
0000
0001
0010
0100
1000
,
0001
0000
0100
0010
0000
0100
0001
0010
0001
1000
0000
0100
,
1000
0000
0100
0010
0000
0000
0011
0000
0001
1000
0010
0100
,
0001
0000
0010
0100
0000
0010
0001
0100
0010
1000
0000
0001
,
0100
0000
0100
0010
0000
0000
1010
0000
1000
0100
0010
0001
,
0100
0000
0100
0010
0000
0010
1000
0100
1000
0001
0000
0100
,
0010
0000
0010
1000
0000
0000
0000
0000
0000
0001
0000
0001
,
0100
0000
1001
1001
,
0010
0000
1000
0001
0000
1000
0100
0000
0100
0010
0000
0001
,
0100
0000
0020
0000
2030
0000
3002
0000
1003
0100
0010
0001
,
0100
0000
0100
0010
0000
0010
1000
0000
1000
0001
0000
0001
,
1000
0000
0100
0000
0000
0011
0000
0000
1000
0001
1000
0010
,
0100
0000
0001
0100
0000
0100
0010
0000
0010
1000
0000
0001
,
1000
0000
0100
0000
0000
0110
0000
0000
0010
0001
1000
0001
,
0100
0000
0010
0100
0000
0001
1000
0000
0100
1000
0000
0001
,
0100
0000
0110
0000
,
0002
0013
1001
1001
,
1100
0000
0001
0100
0000
0000
0101
0000
1000
0010
1000
0001
,
0100
0000
0100
0010
0000
0010
0100
0001
0100
0001
0000
1000
,
0100
0000
0100
0010
0000
0000
0011
0000
1000
0001
1000
0010
,
0100
0000
0100
0001
0000
1000
0001
0010
0001
0100
0000
0100
,
0010
0000
0010
1000
0000
0000
0101
0000
1000
0001
0010
0100
,
1000
0000
0001
1000
0000
0010
0100
0001
0100
0010
0000
1000
,
0100
0000
0100
0010
0000
0000
1001
0000
0100
0010
1000
0001
,
0010
0000
0010
0100
0000
0100
1000
0001
1000
0001
0000
0000
,
0010
0000
0001
1000
0000
0000
0110
0000
0000
0010
0000
1000
,
0100
0000
1001
1001
,
0001
0000
0100
1000
0000
1000
0001
0000
0010
1000
0000
0000
,
1200
0000
0000
0310
0000
0001
0000
0000
0100
0010
1000
0001
,
0010
0000
0010
0100
0000
0100
1000
0000
0001
1000
0000
0002
,
0000
0000
0103
0010
0000
1000
0010
0000
1000
0100
0010
0001
,
0100
0000
0010
0100
0000
0100
0001
0000
1000
0100
0000
0000
,
1020
0000
0000
0130
0000
0001
0000
0000
0000
1000
0000
1000
,
0100
0000
1000
0001
0000
0001
0100
0000
0100
0010
0000
0000
,
1002
0203
0320
2030
,
3001
0000
0010
0001
0000
0000
0101
0000
0100
0010
1000
0100
,
0010
0000
0001
1000
0000
1000
0001
0100
0010
1000
0000
0100
,
0010
0000
0010
0001
0000
0000
1001
0000
0001
0010
0100
1000
,
0001
0000
0001
0100
0000
0100
0001
1000
0100
0010
0000
0100
,
1000
0000
1000
0100
0000
0000
1100
0000
0010
0001
0100
0001
,
1000
0000
0010
1000
0000
0100
0010
0001
0100
0001
0000
1000
,
0001
0000
1000
0100
0000
0000
0011
0000
1000
0001
0010
0100
,
1000
0000
0010
1000
0000
0001
1000
0100
0010
0001
0000
0000
,
0100
0000
0001
1000
0000
0000
0110
0000
0000
0010
0000
1000
,
0001
0000
1001
1001
,
0010
0101
0010
1100
,
0100
0011
0100
1010
,
0000
1000
0010
0001
0000
0100
0000
0001
1000
0010
0000
0100
,
0000
0001
0010
1000
0000
0001
0000
0010
0001
0100
0000
1000
,
0000
0010
0100
1000
0000
0100
0000
1000
0010
0001
0000
0010
,
0000
0001
1000
0100
0000
0001
0000
0010
1000
0100
0000
1000
,
0000
0010
0001
0100
0000
0010
0000
1000
0010
0100
0000
0001
,
0000
1000
0001
0010
0000
1000
0000
0100
0001
0010
0000
0001
,
0200
0000
0000
0000
0000
0000
0301
1000
0001
1000
0001
1000
,
0001
0000
0000
0000
;

//---------------dance-single - ----------------
#NOTEDATA:;
#CHARTNAME:;
#STEPSTYPE:dance-single;
#DESCRIPTION:;
#CHARTSTYLE:;
#DIFFICULTY:Medium;
#METER:10;
#RADARVALUES:0.483403,0.409963,0.227757,0.292831,0.736143,416.000000,388.000000,28.000000,36.000000,0.000000,0.000000,0.000000,0.000000,0.000000,0.483403,0.409963,0.227757,0.292831,0.736143,416.000000,388.000000,28.000000,36.000000,0.000000,0.000000,0.000000,0.000000,0.000000;
#CREDIT:;
#DISPLAYBPM:143.000000;
#NOTES:
0000
0000
0000
0000
,
0000
0000
0000
0000
,
0000
1000
0000
0100
0000
1000
0000
0001
0000
0100
0000
0001
,
0000
0010
0000
0100
0000
1000
0000
0010
0000
1000
0000
0001
,
0000
0100
0000
0001
0000
0010
0000
0100
0000
1000
0000
0010
,
0000
1000
0000
0001
0000
1000
0000
0010
0000
0100
0000
0001
,
0000
0010
0000
0001
0000
0100
0000
0010
0000
1000
0000
0001
,
0000
1000
0000
0100
0000
0010
0000
0001
0000
1000
0000
0001
,
0010
0000
0000
0000
0000
0000
0001
0000
0001
0000
0001
0000
,
1000
0000
1000
0000
1000
0000
0010
0000
0010
0000
0010
0000
,
1000
1100
0001
0101
,
0010
0000
0000
0100
0000
0000
0001
0000
0001
1000
0000
1000
,
0100
0011
0100
1010
,
0001
0000
0000
1000
0000
0000
0010
0000
0010
0100
0000
0100
,
0010
1001
0100
1001
,
0001
0000
0000
0010
0000
0000
0100
0000
0100
1000
0000
1000
,
0001
0000
1000
0100
0000
0000
0110
0000
0000
0000
0000
0000
,
0001
0000
0100
0010
0000
0000
1001
0000
0000
1001
0000
0000
,
0010
0000
0010
1000
0000
0000
0100
0000
0100
0010
0000
0002
,
0000
0000
2003
0000
0000
3010
1000
0000
1000
0100
0000
0100
,
0010
0000
0010
0001
0000
0000
1000
0000
1000
0001
0000
0200
,
0000
0000
0320
0000
0000
0130
0001
0000
0001
1000
0000
1000
,
0100
0000
0100
0010
0000
0000
0001
0000
0001
1000
0000
0020
,
0000
0000
0230
0000
0000
0301
0100
0000
0100
0010
0000
0010
,
1000
0000
0100
1000
0000
0000
0000
0000
0000
0001
0000
0100
,
0001
0000
1001
1001
,
0010
0000
0010
1000
0000
1000
0010
0000
0010
0100
0000
0000
,
0000
0000
0002
0000
2003
0000
3020
0000
0000
0030
0000
0000
,
0000
0000
0100
0001
0000
0100
0001
0000
1000
0001
0000
1000
,
0100
0000
0010
0000
0000
0001
2000
0000
0000
3000
0000
0000
,
0000
0000
0010
1000
0000
0010
1000
0000
0010
0100
0000
0001
,
0100
0000
0010
0000
0000
1010
0000
0000
0000
0000
0000
0000
,
0001
0000
0001
1000
0000
1000
0010
0000
0100
0000
0000
0001
,
1000
0000
0110
0000
,
1001
0100
1001
1001
,
0001
0000
0001
1000
0000
0000
0010
0000
0010
1000
0000
0200
,
0000
0000
0320
0000
0000
0031
0100
0000
0010
1000
0000
1000
,
0100
0000
0100
0010
0000
0000
0001
0000
0001
0100
0000
0020
,
0000
0000
2030
0000
0000
3100
0010
0000
0010
0001
0000
0100
,
0001
0000
0001
1000
0000
0000
0100
0000
0100
1000
0000
0002
,
0000
0000
0203
0000
0000
0310
0100
0000
0100
0001
0000
1000
,
0100
0000
1000
0100
0000
0000
0010
0000
0010
0001
0000
2000
,
0000
0000
3002
0000
0000
1003
0010
0000
0100
0001
0000
0000
,
0010
0000
0010
0100
0000
0000
0110
0000
0000
1000
0000
1000
,
0001
0000
1001
1001
,
0001
0000
1000
0100
0000
0000
2000
0000
0000
3001
0000
0000
,
0201
0000
0000
0310
0000
1000
0000
0000
0000
0000
0000
0000
,
0010
0000
0010
1000
0000
1000
0100
0000
0100
0010
0000
0002
,
0000
0000
2003
0001
0000
0000
0010
0000
0000
3100
0000
0000
,
1000
0000
1000
0001
0000
0001
1000
0000
0000
0100
0000
0000
,
2100
0000
0000
3001
0000
0100
0000
0000
0000
0010
0000
0010
,
1000
0000
1000
0001
0000
0000
0100
0000
0100
0010
0000
0000
,
2010
3002
0203
0320
,
1030
0000
0100
0010
0000
0000
0001
0000
0100
0010
0000
2000
,
0000
0000
3002
0000
0000
0013
0001
0000
0001
1000
0000
1000
,
0001
0000
0100
0010
0000
0000
1000
0000
0100
0010
0000
0002
,
0000
0000
0023
0000
0000
0031
0100
0000
0100
0010
0000
0010
,
1000
0000
0100
1000
0000
0000
0001
0000
1000
0001
0000
0200
,
0000
0000
0320
0000
0000
1030
0010
0000
0010
0100
0000
0100
,
0001
0000
0001
0010
0000
0000
0001
0000
0001
1000
0000
0020
,
0000
0000
0230
0000
0000
0310
0100
0000
0100
0001
0000
0000
,
1000
0000
1000
0100
0000
0000
0000
0000
0000
0001
0000
0001
,
0100
0000
1001
1001
,
0010
1100
0010
0101
,
1000
1010
0001
0011
,
0000
1000
0000
0100
0000
0010
0000
0001
0000
0100
0000
0001
,
0000
0010
0000
0100
0000
1000
0000
0001
0000
0010
0000
0001
,
0000
1000
0000
0100
0000
1000
0000
0001
0000
0100
0000
0001
,
0000
0010
0000
0100
0000
0010
0000
0001
0000
1000
0000
0001
,
0000
1000
0000
0100
0000
0010
0000
0100
0000
0010
0000
0001
,
0000
0100
0000
0001
0000
1000
0000
0010
0000
1000
0000
0001
,
0200
0000
0000
0000
0000
0000
0301
1000
0001
1000
0001
1000
,
0001
0000
0000
0000
;

//---------------dance-single - ----------------
#NOTEDATA:;
#CHARTNAME:;
#STEPSTYPE:dance-single;
#DESCRIPTION:;
#CHARTSTYLE:;
#DIFFICULTY:Easy;
#METER:7;
#RADARVALUES:0.350932,0.409963,0.520588,0.146415,0.000000,302.000000,238.000000,64.000000,18.000000,0.000000,0.000000,0.000000,0.000000,0.000000,0.350932,0.409963,0.520588,0.146415,0.000000,302.000000,238.000000,64.000000,18.000000,0.000000,0.000000,0.000000,0.000000,0.000000;
#CREDIT:;
#DISPLAYBPM:143.000000;
#NOTES:
0000
0000
0000
0000
,
0000
0000
0000
0000
,
0000
1000
0000
1000
,
0000
0001
0000
0001
,
0000
0100
0000
0100
,
0000
0010
0000
0010
,
1001
0100
0000
0010
,
0110
1000
0110
0001
,
1001
0000
2000
3000
,
0020
0030
0200
0300
,
0001
0001
1000
1000
,
0001
1000
0010
0100
,
0010
0010
0100
0100
,
0010
1000
0001
0100
,
0001
0001
0010
0010
,
0001
0100
1000
0010
,
1000
0001
0110
0000
,
1001
0020
0230
0320
,
1030
1100
0001
0101
,
0010
0100
0110
0110
,
0001
0011
1000
1010
,
0100
0001
0011
0011
,
1000
1100
0001
0101
,
1000
0010
0110
0110
,
0001
1000
0000
1000
,
0001
0000
1001
1001
,
0010
1000
0010
0100
,
0001
1000
0200
0300
,
1000
0010
1000
0001
,
0100
0010
0200
0300
,
0001
0010
0001
0100
,
1000
0010
2000
3000
,
0001
0010
0001
1000
,
0100
0000
0110
0000
,
0002
0023
0230
2300
,
3010
0101
0010
1100
,
0001
0010
1001
1001
,
0100
0011
0100
1010
,
1000
0001
1010
1010
,
0100
1001
0010
0101
,
1000
0001
0011
0011
,
1000
1100
0010
0011
,
0100
0010
1010
1010
,
0001
1000
0110
1000
,
0001
0000
1001
1001
,
0010
0010
1000
0001
,
0100
0010
1000
0000
,
1100
1100
0001
0100
,
0001
0000
1000
0000
,
0010
0010
1000
0001
,
1000
0100
1000
0010
,
0101
0101
0000
1000
,
0002
0023
0230
2300
,
3010
0110
0100
1010
,
0001
0010
0011
0011
,
1000
0101
0010
1010
,
0010
0100
1001
1001
,
0001
0011
1000
1100
,
0010
0100
0101
0101
,
1000
0110
0001
1100
,
0010
1000
0101
0101
,
1000
0001
0000
0001
,
1000
0000
1001
1001
,
0110
1000
0000
1000
,
0000
0001
0000
0001
,
0000
0010
0000
0010
,
0000
0100
0000
0100
,
0000
1000
0000
0010
,
0000
0100
0000
0001
,
0000
1000
0000
0100
,
0000
0010
0000
0001
,
0200
0001
1000
0301
,
1001
0000
0000
0000
;

//---------------dance-single - ----------------
#NOTEDATA:;
#CHARTNAME:;
#STEPSTYPE:dance-single;
#DESCRIPTION:;
#CHARTSTYLE:;
#DIFFICULTY:Beginner;
#METER:3;
#RADARVALUES:0.160360,0.204981,0.032537,0.000000,0.000000,138.000000,134.000000,4.000000,0.000000,0.000000,0.000000,0.000000,0.000000,0.000000,0.160360,0.204981,0.032537,0.000000,0.000000,138.000000,134.000000,4.000000,0.000000,0.000000,0.000000,0.000000,0.000000,0.000000;
#CREDIT:;
#DISPLAYBPM:143.000000;
#NOTES:
0000
0000
0000
0000
,
0000
0000
0000
0000
,
0000
1000
0000
1000
,
0000
0001
0000
0001
,
0000
0100
0000
0100
,
0000
0010
0000
0010
,
0000
1000
0000
0100
,
0000
0010
0000
0001
,
0000
0000
0000
0000
,
0000
0000
0000
0000
,
0010
0000
0010
0000
,
1000
0000
0001
0000
,
0100
0000
0100
0000
,
0001
0000
1000
0000
,
0001
0000
0001
0000
,
0010
0000
0100
0000
,
1000
1000
0000
0000
,
0010
0000
0100
0100
,
0100
0000
0001
0000
,
1000
0000
0100
0000
,
1000
0000
1000
0000
,
0100
0000
0010
0000
,
0001
0000
0100
0000
,
0001
0000
0010
0000
,
1000
1000
0000
0001
,
0001
0000
0000
0000
,
0010
0000
0001
0000
,
0000
0000
0110
0000
,
0000
1000
1000
0000
,
0001
0000
0100
0000
,
0000
0010
0010
0000
,
1000
0000
0100
0000
,
1000
1000
1000
0000
,
0010
0000
0110
0000
,
0001
0000
0100
0100
,
0100
0000
0010
0000
,
1000
0000
0001
0000
,
0010
0000
0001
0000
,
1000
0000
0100
0000
,
1000
0000
0010
0000
,
0001
0000
0100
0000
,
0001
0000
0010
0000
,
0100
0000
1000
0000
,
0010
0010
0000
0100
,
0100
0000
0000
0000
,
0001
0000
1000
0000
,
0010
0000
0010
0000
,
1000
1000
1000
0000
,
0001
0000
0000
0000
,
0010
0000
0001
0000
,
0100
0000
0100
0000
,
0010
0010
0000
0000
,
1000
0000
0001
0000
,
1000
0000
1000
0000
,
0010
0000
0100
0000
,
0001
0000
0001
0000
,
1000
0000
0010
0000
,
0100
0000
0100
0000
,
0001
0000
1000
0000
,
0010
0000
0010
0000
,
0100
0000
0001
0000
,
1000
1000
0000
0001
,
0001
0000
0000
0000
,
1001
0000
0000
0000
,
0000
0000
0000
0000
,
0000
1000
0000
1000
,
0000
0001
0000
0001
,
0000
0100
0000
0100
,
0000
0010
0000
0010
,
0000
1000
0000
0010
,
0000
0100
0000
0001
,
0000
0000
0000
0000
,
1001
0000
0000
0000
;

//---------------dance-single - ----------------
#NOTEDATA:;
#CHARTNAME:;
#STEPSTYPE:dance-single;
#DESCRIPTION:;
#CHARTSTYLE:;
#DIFFICULTY:Challenge;
#METER:16;
#RADARVALUES:0.763451,0.732076,0.227757,0.000000,1.557696,657.000000,629.000000,28.000000,0.000000,0.000000,0.000000,0.000000,0.000000,0.000000,0.763451,0.732076,0.227757,0.000000,1.557696,657.000000,629.000000,28.000000,0.000000,0.000000,0.000000,0.000000,0.000000,0.000000;
#CREDIT:;
#DISPLAYBPM:143.000000;
#NOTES:
// measure 0
0000
0000
0000
0000
,  // measure 1
0000
0000
0000
0000
,  // measure 2
0000
1000
0100
0010
0001
0100
0000
0001
1000
0010
0100
0001
,  // measure 3
0000
0010
0001
1000
0010
0100
0000
0001
1000
0100
1000
0010
,  // measure 4
0000
1000
0010
1000
0001
0100
0000
0001
0010
0001
0100
0010
,  // measure 5
0000
1000
0100
1000
0100
0010
0000
0001
1000
0010
0100
0001
,  // measure 6
1000
0010
1000
0100
0010
0001
0100
0010
0100
0001
1000
0100
,  // measure 7
1000
0010
0100
0010
1000
0001
0010
0100
0010
0001
1000
0100
,  // measure 8
0010
0000
0000
0000
0000
0000
0001
0000
0100
0000
0010
1000
,  // measure 9
0001
0000
1000
0000
0100
0010
0100
0000
1000
0000
0010
0100
,  // measure 10
0001
0000
1000
0000
0010
1000
0100
0000
0010
0000
0001
0100
,  // measure 11
0001
0000
0010
0000
0100
1000
0010
0100
0010
1000
0001
1000
,  // measure 12
0100
0000
0010
0000
0100
1000
0001
0000
1000
0000
0010
0100
,  // measure 13
0001
0000
0010
0000
0001
1000
0001
0100
0010
1000
0100
0010
,  // measure 14
0001
0000
0100
0010
1000
0001
0010
0000
0100
1000
0010
1000
,  // measure 15
0001
0000
0100
0010
0100
0001
1000
0100
0010
0100
1000
0001
,  // measure 16
0100
0001
0100
0010
1000
0001
1000
0100
0010
0001
1000
0001
,  // measure 17
0100
0000
0010
1000
0000
0000
1001
0000
0000
1001
0000
0000
,  // measure 18
0001
0000
0001
0010
0100
1000
0010
0000
0010
1000
0100
1000
,  // measure 19
0001
0000
0010
0001
0100
0010
1000
0100
1000
0001
0100
0001
,  // measure 20
1000
0000
1000
0010
0100
0010
1000
0000
0001
0010
0001
0100
,  // measure 21
0010
0000
1000
0010
1000
0100
0010
0001
0100
0001
1000
0001
,  // measure 22
1000
0000
0010
1000
0001
0010
0001
0000
0100
0010
0100
0001
,  // measure 23
1000
0000
0100
1000
0010
0100
0001
0010
0100
1000
0010
1000
,  // measure 24
0001
0000
0100
0010
0000
0000
0000
0000
0000
1000
0000
0100
,  // measure 25
0010
0000
1001
1001
,  // measure 26
0110
0000
1000
0010
0000
1000
0100
0000
0100
0010
0000
0010
,  // measure 27
0001
0000
0101
0000
1100
0000
0101
0000
1000
0010
0100
0001
,  // measure 28
1000
0000
0010
0100
0000
0010
0100
0000
0001
1000
0000
0100
,  // measure 29
0010
0000
0010
0001
0000
0100
0010
1000
0001
1000
0100
0010
,  // measure 30
0001
0000
0100
0001
0000
0010
0001
0000
0100
0010
0000
1000
,  // measure 31
0100
0000
1000
0010
0000
0100
0001
0000
0010
0001
1000
0100
,  // measure 32
1000
0000
0010
0100
0000
0001
1000
0000
0100
0010
0000
0001
,  // measure 33
0100
0000
0110
0000
,  // measure 34
1010
0101
1100
0011
,  // measure 35
1001
0000
1000
0100
0010
0001
0100
0000
0100
0010
1000
0001
,  // measure 36
0010
0000
0001
1000
0001
0010
0100
1000
0001
0100
0001
1000
,  // measure 37
0100
0000
0010
0001
0100
0001
1000
0000
0010
1000
0100
0010
,  // measure 38
0001
0000
1000
0001
0010
0100
1000
0001
0010
0001
0100
1000
,  // measure 39
0010
0000
0100
0001
1000
0010
0100
0000
0010
0100
0001
1000
,  // measure 40
0100
0000
0010
0001
0100
0010
1000
0100
1000
0001
0100
0010
,  // measure 41
0100
0000
0001
0010
0100
1000
0010
0000
1000
0001
1000
0100
,  // measure 42
0010
0000
0001
1000
0010
1000
0100
0010
0001
0100
0000
0000
,  // measure 43
0101
0000
1000
0100
0000
0000
0110
0000
0000
0011
0000
1000
,  // measure 44
0010
0000
0100
0001
0000
0000
1001
0000
0000
1001
0000
0000
,  // measure 45
1100
0000
0100
1000
0000
0010
1000
0000
0001
0010
0000
0100
,  // measure 46
0010
0000
0001
0100
0000
0010
1000
0000
0100
1000
0001
0100
,  // measure 47
0010
0000
1000
0010
0000
1000
0100
0000
0100
0010
0000
0001
,  // measure 48
0100
0000
0001
0010
0000
0100
1000
0000
0010
1000
0001
0100
,  // measure 49
0010
0000
1000
0100
0000
0001
1000
0000
0001
1000
0000
0010
,  // measure 50
0100
0000
0001
0010
0000
0001
1000
0000
0010
1000
0100
0010
,  // measure 51
0001
0000
0001
1000
0000
0010
1000
0000
0100
0010
0000
0000
,  // measure 52
0011
1100
0101
1010
,  // measure 53
0001
0000
1000
0010
1000
0100
0010
0000
0010
0001
0100
0001
,  // measure 54
1000
0000
0010
1000
0100
0010
0001
0100
0001
1000
0100
0010
,  // measure 55
0001
0000
1000
0001
0010
0100
1000
0000
0010
0100
0010
1000
,  // measure 56
0100
0000
0001
0010
0001
1000
0001
0010
0100
1000
0001
1000
,  // measure 57
0001
0000
0100
0010
1000
0100
0010
0000
0010
0001
1000
0001
,  // measure 58
0100
0000
0010
0100
0001
1000
0001
0010
1000
0100
0010
0100
,  // measure 59
1000
0000
0001
0100
0010
0100
0001
0000
0010
0001
0100
1000
,  // measure 60
0010
0000
1000
0001
1000
0100
0010
0001
0100
1000
0000
0000
,  // measure 61
1010
0000
0100
0001
0000
0000
0010
0000
0000
0011
0000
1000
,  // measure 62
0100
0000
0010
0001
0000
0000
1001
0000
0000
1001
0000
0000
,  // measure 63
1000
0100
0010
0001
0000
0100
0010
1000
0001
1000
0000
0100
,  // measure 64
0010
0001
0100
0001
0000
1000
0001
0100
0010
1000
0001
1000
,  // measure 65
0000
0100
0001
0010
0001
1000
0000
0010
0100
0010
1000
0001
,  // measure 66
0000
0100
0010
1000
0001
0100
0000
0001
1000
0100
1000
0010
,  // measure 67
0000
1000
0001
0010
0100
0010
0000
0001
0100
0010
1000
0001
,  // measure 68
0000
0010
0100
0010
0100
1000
0000
0001
0100
0010
1000
0001
,  // measure 69
0000
1000
0010
1000
0001
0010
0000
0100
0010
0001
1000
0100
,  // measure 70
0000
0010
0001
0100
0001
0010
0000
1000
0001
1000
0010
0100
,  // measure 71
0001
0010
0100
1000
0100
0010
0001
0010
0100
1000
0100
0010
,  // measure 72
0001
0000
0000
0000
;
