#TITLE:Livin' Thing;
#ARTIST:Electric Light Orchestra;
#BANNER:Livin' Thing-bn.png;
#BACKGROUND:Livin' Thing-bg.png;
#JACKET:Livin' Thing-jacket.png;
#MUSIC:Livin' Thing.ogg;
#SAMPLESTART:53.666;
#SAMPLELENGTH:20;
#DISPLAYBPM:121:135;
#BPMS:0=122.96,8=125,12=127,28=124,30=122.222,32=130,34=132,36=135,38=128,40=123,43=126.7,50=123.456,56=125.432,68=124.75,77=122.5,85=124.421,94=123.333,100=125.6,112=123.123,116=121,143=126.5,145=123.4,149=122.4,160=124.1,174=122.122,180=123.345,183=121.212;
#BGCHANGES:;

//---------------dance-single - ----------------
#NOTES:
     dance-single:
     :
     Beginner:
     2:
     :
0000
0000
0000
0000
,
0000
0000
0000
0000
,
0000
0000
0000
0000
,
0000
0000
0000
0000
,
0000
0000
0000
0000
,
0000
0000
0000
0000
,
0000
0000
0000
0000
,
0000
0000
0010
0000
,
0001
0000
0000
0000
,
0000
0000
1001
0000
,
0110
0000
1000
0000
,
0100
0000
0001
0000
,
0010
0000
0010
0000
,
0100
0000
0100
0000
,
1000
0000
0001
0000
,
0000
0000
0000
0000
,
0100
0000
0100
0000
,
0010
0000
0010
0000
,
1000
0000
0001
0000
,
0000
0000
0000
0000
,
0020
0000
0000
0030
,
0000
0000
0001
0000
,
2000
0000
0000
3000
,
0000
0000
0000
0001
,
0002
0000
0000
0003
,
0000
0000
0000
0000
,
0100
0000
0010
0000
,
1000
0000
0001
0000
,
1001
0000
0000
0000
,
0010
0010
0000
0000
,
0110
0000
0000
0000
,
0001
0000
0100
0000
,
1000
0000
0000
0000
,
0100
0100
0000
0000
,
0110
0000
0000
0000
,
0001
0000
1000
0000
,
1001
0000
0010
0000
,
1000
0000
0100
0000
,
1001
0000
0010
0000
,
1000
0000
0001
0000
,
0200
0000
0000
0300
,
0000
0000
0110
0000
,
1001
0000
0000
0000
,
0001
0001
0000
0000
,
0110
0000
0000
0000
,
0010
0000
1000
0000
,
0001
0000
0000
0000
,
1000
1000
0000
0000
,
1001
0000
0000
0000
,
0001
0000
0100
0000
,
0010
0000
0000
0000
,
0100
0100
0000
0000
,
0110
0000
0000
0000
;

//---------------dance-single - ----------------
#NOTES:
     dance-single:
     :
     Easy:
     7:
     :
0000
0000
0000
0000
,
0000
0000
0000
0000
,
0000
0000
0000
0000
,
0000
0000
0000
0000
,
0000
0000
0000
0000
,
0000
0000
0000
0000
,
0000
0000
0000
0000
,
0000
0000
0020
0030
,
0002
0000
0000
0000
,
0000
0003
1001
1001
,
0110
1000
0100
0000
,
1000
0001
1001
1001
,
0010
1000
0100
1000
,
0001
0010
0001
0100
,
0020
0000
2000
3030
,
0001
0001
1000
0100
,
1000
0010
0100
0001
,
0010
0001
0100
0001
,
2000
0000
0002
3003
,
0010
0001
0100
1000
,
0202
0300
2000
3003
,
0010
1000
0100
0001
,
0022
0030
1000
0100
,
1000
1003
0000
0001
,
2020
0030
0200
3300
,
1000
0010
1000
0001
,
0200
0300
0001
0010
,
1001
0100
1001
0010
,
1000
1000
1000
1000
,
0010
1000
0001
0101
,
0201
0010
0010
0310
,
1000
0100
1000
1000
,
1001
0100
0100
0100
,
0010
1000
0001
1010
,
1020
0100
0100
0130
,
0001
0010
0110
1000
,
1010
0001
0010
0000
,
0100
1000
0001
0110
,
1001
0010
1000
0000
,
0100
1000
0002
0003
,
0200
0000
0000
0300
,
0010
1000
0110
0110
,
0001
0001
0001
0001
,
0010
0001
0100
1010
,
2010
0001
0001
3001
,
1000
0100
1000
0001
,
1100
1000
1000
1000
,
0010
0100
0010
0101
,
0102
1000
1000
1003
,
0010
0100
1001
0100
,
1001
0100
0010
0100
,
0001
0010
1000
0110
,
2002
0000
0000
0000
,
0000
0000
0000
3003
;

//---------------dance-single - ----------------
#NOTES:
     dance-single:
     :
     Medium:
     9:
     :
0000
0000
0000
0000
,
0000
0000
0000
0000
,
0000
0000
0000
0000
,
0000
0000
0000
0000
,
0000
0000
0000
0000
,
0000
0000
0000
0000
,
0000
0000
0000
0000
,
0000
0000
0000
0000
0000
0000
0000
0000
0020
0000
0000
0000
0030
0000
0000
2000
,
0002
0000
0000
0000
,
0000
3003
1001
1001
,
0110
0000
1000
0000
0100
1000
0000
0001
,
0100
0010
0101
0101
,
1000
0010
0100
0001
0000
0010
0100
1000
,
0000
0000
0001
0000
0100
0000
0010
0000
0000
0000
1000
0000
0000
0001
0000
0000
,
0200
0000
0300
0001
2000
0000
3000
0010
,
0100
0000
0110
0000
0001
0010
1000
0000
,
0100
1000
0001
1000
0000
0010
0100
0001
,
0000
0010
0100
1000
0000
0001
0000
1000
,
0200
0000
0300
0010
0002
0000
0003
1000
,
0001
0000
0101
0000
0001
1000
0100
0000
,
2020
0000
0030
0001
0002
0000
3003
0000
,
0000
0000
0001
0000
0000
0010
0000
0000
0100
0000
0000
0000
1000
0000
0001
0000
,
0200
0000
1000
0000
0010
0000
0301
1000
,
0100
0000
0100
0000
1000
0001
0100
0000
,
0202
0000
0300
1000
2000
0000
3003
0010
,
0100
0000
0110
0000
1000
0010
0001
0000
,
0100
0000
0010
0000
1000
0100
0010
0002
,
0000
1003
0000
0020
0000
0130
0001
0000
,
0011
0000
0011
0000
0011
0000
1000
0001
,
0000
0100
0010
0000
0000
1000
1000
0001
,
0200
0010
0010
0310
,
1000
0001
0100
0000
0101
0000
1100
0000
,
0101
0000
0101
0000
0101
0000
0010
1000
,
0000
0001
0100
0000
0000
0010
0010
1000
,
0002
0010
0010
0013
,
0001
1000
0100
0000
1010
0000
0101
0000
,
1001
0000
0010
0000
1000
0001
0000
1000
,
0100
0000
0010
0000
0001
1000
0001
0100
,
0010
0000
1000
0000
0100
1000
0000
0001
,
0100
0000
0000
0000
0010
0000
0000
0000
2000
0000
0000
0000
3000
0000
0000
0001
,
0200
0000
0010
0000
1300
0100
0001
0000
,
0010
0000
0010
0001
1000
0000
1000
0000
,
1100
0000
1100
0000
1100
0000
0001
1000
,
0000
0100
0010
0000
0000
0001
0001
1000
,
0020
0100
0100
0130
,
0010
1000
0001
0000
1001
0000
0110
0000
,
1001
0000
1001
0000
1001
0000
0100
0001
,
0000
1000
0010
0000
0000
0100
0100
0001
,
2000
0100
0100
3100
,
1000
0010
0001
0000
0101
0000
1100
0000
,
0011
0000
0011
0000
0011
0000
0001
0010
,
0000
0100
1000
0000
0000
0010
0010
2000
,
0002
0000
0000
0000
,
0000
0000
0000
3003
;

//---------------dance-single - ----------------
#NOTES:
     dance-single:
     :
     Hard:
     12:
     :
0000
0000
0000
0000
,
0000
0000
0000
0000
,
0000
0000
0000
0000
,
0000
0000
0000
0000
,
0000
0000
0000
0000
,
0000
0000
0000
0000
,
0000
0000
0000
0000
,
0000
0000
0000
0000
0000
0000
0000
0000
0020
0000
0000
0000
0030
0000
0000
2000
,
0002
0000
0000
0000
,
0000
3003
1001
1001
,
0110
0000
1000
0010
1000
0001
0000
0100
,
0100
0000
0001
0000
0010
0000
1000
0100
1000
0000
0000
0000
0001
0000
0000
0000
,
0100
0001
0010
0100
1000
0010
1000
0001
,
0100
0000
1000
0000
0100
0000
0001
0000
0010
0000
0100
0000
0000
1000
0000
0000
,
2100
0000
0000
0000
3001
0000
1000
0010
2000
0000
0001
0000
3001
0000
0100
0000
,
0010
0000
1000
0000
0100
0010
0001
0000
,
1000
0001
0010
0100
0001
0100
1000
0010
,
0100
1000
0100
0001
1000
0010
0100
0001
,
0102
0000
0000
0000
0013
0000
0001
1000
0002
0000
0100
0000
0103
0000
0010
0000
,
1000
0000
0101
0000
0001
0100
1000
0010
,
0200
0000
0000
0000
0301
0000
1000
0010
2000
0000
0100
0000
3100
0000
0010
0000
,
0001
0000
1000
0000
0000
0010
0000
0000
1000
0000
0001
0000
0010
0000
0100
0000
,
2000
0000
3001
0100
0010
1000
0002
0010
,
0013
0000
0100
0000
1000
0001
0001
0100
,
0020
0000
0000
0000
1030
0000
0100
0010
0200
0000
1000
0000
1300
0000
0001
0000
,
0101
0000
1010
0000
0100
0001
1000
0010
,
0100
0000
0001
0000
1000
0010
0100
0001
,
0010
1000
0010
0001
0100
0010
1000
0000
,
0101
0000
0101
0000
0101
0100
0010
1000
,
0100
0000
0010
0000
0001
0000
0000
0000
1000
0000
0001
0100
0001
0100
0001
0100
,
0002
0000
1000
0000
1003
0010
0100
0001
,
0010
0000
0100
0000
1000
0000
0000
0000
0110
0000
0000
0000
0001
1000
0001
1000
,
0001
0000
0011
0000
0011
0010
0100
1000
,
0010
0000
0100
0000
0001
0000
0000
0000
0100
0000
0010
1000
0010
1000
0010
1000
,
0020
0000
0100
0000
0130
0001
1000
0001
,
0010
0000
0100
0000
1000
0000
0000
0000
1010
0000
0000
0000
0001
1000
0001
1000
,
0001
0000
0110
0000
0001
0001
1000
0100
,
0010
0000
0000
0000
0001
0000
0000
0000
1000
0000
0010
0000
0100
0001
0100
0001
,
0100
0000
0010
0000
1000
1000
0001
0100
,
0100
0000
0000
0000
0010
0000
1000
0000
0002
0000
0000
0000
0013
0000
0001
1000
,
0002
0000
0103
0010
1000
0100
0001
0100
,
1000
0000
0000
0000
0010
0000
1000
0001
1000
0000
0000
0000
1000
0000
0000
0000
,
1010
0000
1010
0000
1010
0100
0001
0010
,
0100
0000
1000
0000
0001
0000
0000
0000
0100
0000
0001
0010
0001
0010
0001
0010
,
0002
0000
1000
0000
1003
0010
0100
0010
,
1000
0000
0100
0000
0001
0000
0000
0000
0011
0000
0000
0000
0100
1000
0100
1000
,
0100
0000
1001
0000
1001
0010
0100
0001
,
0100
0000
0010
0000
1000
0000
0000
0000
1000
0000
0010
0100
0010
0100
0010
0100
,
0020
0000
1000
0000
1030
0100
0010
0001
,
0100
0000
0001
0000
1000
0000
0000
0000
1100
0000
0000
0000
0101
0000
0010
1000
,
0010
0000
1010
0000
1010
0100
0001
1000
,
0100
0000
0010
0000
0001
0000
0000
0000
0001
0000
1000
0100
1000
0100
1000
0100
,
2000
0000
0000
0000
,
0000
0000
0000
3000
;
