#VERSION:0.83;
#TITLE:Live and Let Die;
#SUBTITLE:;
#ARTIST:Paul McCartney & Wings;
#TITLETRANSLIT:;
#SUBTITLETRANSLIT:;
#ARTISTTRANSLIT:;
#GENRE:;
#ORIGIN:;
#CREDIT:;
#BANNER:Live and Let Die-bn.png;
#BACKGROUND:Live and Let Die-bg.png;
#PREVIEWVID:;
#JACKET:Live and Let Die-jacket.png;
#CDIMAGE:;
#DISCIMAGE:;
#LYRICSPATH:;
#CDTITLE:;
#MUSIC:Live and Let Die.ogg;
#OFFSET:-0.125000;
#SAMPLESTART:29.105000;
#SAMPLELENGTH:20.000000;
#SELECTABLE:YES;
#DISPLAYBPM:113.000000:158.000000;
#BPMS:0.000=115.000,
2.000=117.000,
5.000=118.000,
16.000=116.500,
24.000=113.000,
42.000=114.000,
44.000=116.000,
48.000=119.100,
52.000=113.500,
54.000=120.000,
63.000=119.200,
64.000=124.000,
72.000=122.300,
88.000=123.000,
91.000=152.000,
93.000=155.000,
105.000=151.000,
107.000=154.370,
110.000=153.896,
113.000=152.150,
120.000=155.300,
131.000=154.276,
139.000=151.720,
147.000=157.000,
155.000=155.650,
159.000=154.173,
162.000=158.000,
165.000=156.135,
168.000=154.270,
176.000=157.380,
180.000=153.340,
189.000=152.219,
193.000=154.160,
195.000=156.000,
201.000=154.600,
219.000=153.500,
233.000=156.175,
235.000=153.012,
237.000=157.400,
251.000=115.000;
#STOPS:;
#DELAYS:;
#WARPS:;
#TIMESIGNATURES:0.000=4=4;
#TICKCOUNTS:0.000=4;
#COMBOS:0.000=1;
#SPEEDS:0.000=1.000=0.000=0;
#SCROLLS:0.000=1.000;
#FAKES:;
#LABELS:0.000=Song Start;
#BGCHANGES:;
#KEYSOUNDS:;
#ATTACKS:
;

//---------------dance-single - ----------------
#NOTEDATA:;
#CHARTNAME:;
#STEPSTYPE:dance-single;
#DESCRIPTION:;
#CHARTSTYLE:;
#DIFFICULTY:Hard;
#METER:12;
#RADARVALUES:0.503910,0.593953,0.507597,0.103240,0.137653,410.000000,351.000000,59.000000,12.000000,0.000000,0.000000,0.000000,0.000000,0.000000,0.503910,0.593953,0.507597,0.103240,0.137653,410.000000,351.000000,59.000000,12.000000,0.000000,0.000000,0.000000,0.000000,0.000000;
#CREDIT:;
#DISPLAYBPM:113.000000:158.000000;
#NOTES:
// measure 0
0000
0000
0000
0000
,  // measure 1
0000
0000
0000
0000
,  // measure 2
0000
0000
0000
0000
,  // measure 3
0000
0000
0000
0000
,  // measure 4
0001
0000
0000
0000
0001
1000
0010
0100
,  // measure 5
0010
0000
0000
0000
0100
0001
1000
0000
,  // measure 6
0100
0000
0000
0000
0100
1000
0100
0010
,  // measure 7
0001
1000
0100
0010
0001
1000
0100
0010
,  // measure 8
0001
0000
0000
0000
0001
0100
0010
1000
,  // measure 9
0010
0100
0000
0010
0000
1000
0000
0001
,  // measure 10
1000
0000
0000
0010
0100
0000
0010
0100
,  // measure 11
0001
0000
0001
1000
,  // measure 12
0200
0320
2030
3002
,  // measure 13
0103
0000
0100
0000
,  // measure 14
0001
1000
0100
0000
0000
0000
0000
0001
,  // measure 15
0010
0100
1000
0000
1001
0000
0000
0000
,  // measure 16
1001
0000
0000
0001
1000
0010
0100
0000
0000
0110
0000
0000
,  // measure 17
1000
0000
0100
0000
1000
0001
0100
0000
,  // measure 18
0101
0000
0000
1000
0010
0100
0001
0000
0000
1100
0000
0000
,  // measure 19
0010
0000
0100
0000
0010
1000
0100
0000
,  // measure 20
1100
0000
0000
0010
1000
0001
0100
0000
0000
0011
0000
0000
,  // measure 21
0010
0000
0001
0000
0010
1000
0001
0000
,  // measure 22
0110
0000
0000
0000
0000
0000
1000
0000
0001
0000
0010
0000
0100
0000
0000
0000
0000
0000
1001
0000
0000
1000
0000
0000
,  // measure 23
0100
0010
0001
0000
0011
0010
0001
1000
,  // measure 24
0100
0000
1010
0010
0100
0000
0101
1000
,  // measure 25
0001
0000
0100
0010
1000
0001
0000
1100
,  // measure 26
0000
0120
0000
1000
1030
0000
0101
0010
,  // measure 27
0100
0000
0001
1000
0001
0000
0000
0000
1010
0000
1000
0000
0001
0000
0010
0100
,  // measure 28
0010
0000
0011
0010
0001
0000
1100
0100
,  // measure 29
0001
0000
1000
0010
1000
0000
0010
0000
0100
0000
0001
0000
0000
0000
1001
0000
,  // measure 30
0000
0000
0210
0000
0000
0000
0010
0000
0310
0000
0000
0000
1001
0000
0000
0001
,  // measure 31
0100
0000
0000
0100
0010
0000
0000
0010
1000
0000
0000
1000
0100
0000
0000
0100
,  // measure 32
0010
0000
0000
0010
1000
0000
0000
1000
0001
0000
0100
0000
0110
0000
0000
0010
,  // measure 33
1000
0000
0000
1000
0001
0000
0000
0001
0100
0000
0000
0100
0001
0000
0000
0001
,  // measure 34
0010
0000
0000
0010
0100
0000
0000
0100
1000
0000
0010
0000
0100
0000
0000
0000
,  // measure 35
1001
0000
0010
1010
0100
0000
1100
0000
,  // measure 36
0001
0101
1000
0000
0011
0000
0010
0000
,  // measure 37
0110
0000
1000
1100
0010
0000
0101
0000
,  // measure 38
0100
0011
0001
0000
1010
0000
1000
0000
,  // measure 39
0110
0000
0010
1001
0100
0000
0011
0000
,  // measure 40
0100
0101
1000
0000
1001
0000
0001
1010
,  // measure 41
0100
0000
1000
0100
0001
0100
1000
0001
,  // measure 42
1100
0000
0010
0110
0100
0000
0110
0000
,  // measure 43
0001
1001
1000
0000
0010
0100
0010
0100
,  // measure 44
0001
1000
0001
1000
0001
1000
0001
1000
0001
0000
0010
0000
0001
0000
0000
0000
,  // measure 45
0101
0000
0010
1000
0100
0010
0001
0100
,  // measure 46
1000
0100
0001
0010
0100
0000
1010
0010
,  // measure 47
1000
0000
0010
0001
0100
0010
0001
0100
,  // measure 48
1000
0010
0100
0010
1000
0001
0010
0001
,  // measure 49
0100
0010
1000
0100
0001
0000
1001
0010
,  // measure 50
0100
0000
0001
0010
0100
1000
0001
0001
,  // measure 51
1000
1000
0010
0010
2002
0000
0000
0000
,  // measure 52
0000
0000
3003
0100
,  // measure 53
0100
0000
0100
0000
0100
0000
0010
0010
,  // measure 54
0100
0100
0001
0001
1000
1000
1100
0010
,  // measure 55
1000
0100
0001
0000
0101
0100
0010
1000
,  // measure 56
0001
0000
1001
0100
0001
0000
1010
0100
,  // measure 57
0001
0000
1000
0001
0100
0010
0000
0011
,  // measure 58
0000
0210
0000
0001
0301
0000
0101
0100
,  // measure 59
0010
0000
1000
0001
1000
0000
0000
0000
1001
0000
0001
0000
1000
0000
0100
0010
,  // measure 60
0100
0000
1100
0010
1000
0000
0011
0001
,  // measure 61
0100
0000
0010
0100
0010
0000
1000
0000
0001
0000
1000
0000
0000
0000
0110
0000
,  // measure 62
0000
2010
0000
0010
3010
0000
2002
0000
,  // measure 63
0000
0000
0000
0000
,  // measure 64
0000
0000
0000
0000
,  // measure 65
0000
0000
0000
3003
;

//---------------dance-single - x scale 4----------------
#NOTEDATA:;
#CHARTNAME:;
#STEPSTYPE:dance-single;
#DESCRIPTION:x scale 4;
#CHARTSTYLE:;
#DIFFICULTY:Beginner;
#METER:4;
#RADARVALUES:0.100782,0.169701,0.068827,0.051620,0.000000,82.000000,74.000000,8.000000,6.000000,0.000000,0.000000,0.000000,0.000000,0.000000,0.100782,0.169701,0.068827,0.051620,0.000000,82.000000,74.000000,8.000000,6.000000,0.000000,0.000000,0.000000,0.000000,0.000000;
#CREDIT:;
#DISPLAYBPM:114.000000:157.000000;
#NOTES:
0000
0000
0000
0000
,
0000
0000
0000
0000
,
0000
0000
0000
0000
,
0000
0000
0000
0000
,
0001
0000
0000
0000
,
1000
0000
0000
0000
,
0001
0000
0000
0000
,
0100
0000
0100
0000
,
0100
0000
0000
0000
,
0010
0000
0000
0000
,
1000
0000
0000
0000
,
0001
0000
0000
0000
,
1000
0000
0000
1000
,
0000
0000
0000
0000
,
2002
0000
0000
3003
,
0000
0000
0000
0000
,
1001
0000
0000
0100
,
0000
0000
0000
0000
,
0010
0000
0000
0010
,
0000
0000
0000
0000
,
1000
0000
0000
1000
,
0000
0000
0000
0000
,
0001
0000
0000
0001
,
0001
0000
0000
1000
,
0000
0010
0000
1000
,
1000
0000
0000
0000
,
0000
1001
0000
0010
,
0010
0000
0000
0100
,
0000
0001
0000
0100
,
0100
0000
0000
0000
,
0000
1001
0000
0010
,
0010
0000
0000
0000
,
0000
0000
0000
0100
,
0100
0000
0000
0000
,
0000
0000
0000
0000
,
0010
0000
0000
1000
,
0000
0000
0001
0000
,
0001
0000
0000
0100
,
0000
0000
0010
0000
,
0010
0000
0000
1000
,
0000
0001
0000
0000
,
1001
0000
0000
0000
,
1000
0000
0000
0001
,
0000
0200
0000
0000
,
0000
0000
0300
0000
,
0100
0000
0000
1000
,
0000
0000
0000
0001
,
0000
0000
0000
1000
,
0000
0000
0000
0010
,
0000
0000
0000
0000
,
0000
0000
0000
1000
,
1000
1000
2000
0000
,
0000
0000
0000
0000
,
0000
0000
0000
0000
,
0000
3000
0000
0100
,
0100
0000
0000
1000
,
0000
0001
0000
1000
,
1000
0000
0000
0000
,
0000
1001
0000
0001
,
0001
0000
0000
0010
,
0000
0100
0000
0010
,
0010
0000
0000
0000
,
0000
1001
0000
2002
,
0000
0000
0000
0000
,
0000
0000
0000
0000
,
0000
0000
0000
3003
;

//---------------dance-single - x scale 6----------------
#NOTEDATA:;
#CHARTNAME:;
#STEPSTYPE:dance-single;
#DESCRIPTION:x scale 6;
#CHARTSTYLE:;
#DIFFICULTY:Easy;
#METER:6;
#RADARVALUES:0.224916,0.311118,0.172067,0.137653,0.000000,183.000000,163.000000,20.000000,16.000000,0.000000,0.000000,0.000000,0.000000,0.000000,0.224916,0.311118,0.172067,0.137653,0.000000,183.000000,163.000000,20.000000,16.000000,0.000000,0.000000,0.000000,0.000000,0.000000;
#CREDIT:;
#DISPLAYBPM:114.000000:157.000000;
#NOTES:
0000
0000
0000
0000
,
0000
0000
0000
0000
,
0000
0000
0000
0000
,
0000
0000
0000
0000
,
0001
0000
0001
0000
,
1000
0000
1000
0000
,
0100
0000
0000
0000
,
1000
0010
0100
0010
,
1000
0000
1000
0000
,
0001
0000
0001
0000
,
0100
0000
0100
0000
,
0010
0000
0010
0000
,
2000
3002
0203
0320
,
0030
0000
0000
0000
,
0001
0001
0000
0000
,
0100
0010
1001
0000
,
1002
0000
0000
0023
,
0000
0000
0001
0130
,
0210
0000
0000
2300
,
0000
0000
0010
3100
,
0120
0000
0000
0230
,
0000
0000
1000
0301
,
0110
0000
0000
1001
,
0100
0010
1000
0100
,
0010
0001
0001
0100
,
0100
0010
1000
0001
,
0100
1001
0000
1001
,
0100
0010
1000
0110
,
1000
0001
0001
0100
,
0100
0001
0010
0001
,
1000
0110
0000
1001
,
0110
0000
0100
0000
,
0100
0000
0100
0110
,
1001
0000
0010
0000
,
0010
0000
0010
0000
,
1000
0000
0000
0100
0000
0000
0001
0000
,
0000
0100
0000
0000
1000
0000
0000
0000
,
0001
0000
0000
0010
0000
0000
1000
0000
,
0000
0010
0000
0000
0001
0000
0000
0000
,
0100
0000
0000
0010
0000
0000
1000
0000
,
0000
0001
0000
0000
0100
0000
0000
0002
,
0000
0010
0010
0013
,
0001
0000
0000
0010
0000
0000
0100
0000
,
0000
2000
0000
0000
0000
0000
0000
0000
,
0001
0001
0001
3100
,
1000
0000
1000
0000
,
0001
0000
0001
0100
,
0010
0000
0010
0000
,
0100
0000
0100
0001
,
0010
0000
0010
0000
,
0001
0000
1000
0001
,
1000
0001
0220
0000
,
0000
0000
0300
0100
,
0100
0100
0100
0100
,
0100
0100
0130
1001
,
0100
0010
0001
0010
,
0001
1000
1000
0010
,
0010
1000
0001
1000
,
1000
0110
0000
0110
,
1000
0001
0010
1000
,
0001
0100
0100
0010
,
0010
1000
0001
0100
,
0100
1001
0000
2002
,
0000
0000
0000
0000
,
0000
0000
0000
0000
,
0000
0000
0000
3003
;

//---------------dance-single - x scale 9----------------
#NOTEDATA:;
#CHARTNAME:;
#STEPSTYPE:dance-single;
#DESCRIPTION:x scale 9;
#CHARTSTYLE:;
#DIFFICULTY:Medium;
#METER:9;
#RADARVALUES:0.344133,0.395968,0.412960,0.266703,0.000000,280.000000,232.000000,48.000000,31.000000,0.000000,0.000000,0.000000,0.000000,0.000000,0.344133,0.395968,0.412960,0.266703,0.000000,280.000000,232.000000,48.000000,31.000000,0.000000,0.000000,0.000000,0.000000,0.000000;
#CREDIT:;
#DISPLAYBPM:114.000000:157.000000;
#NOTES:
0000
0000
0000
0000
,
0000
0000
0000
0000
,
0000
0000
0000
0000
,
0000
0000
0000
0000
,
0001
0000
0000
0000
0000
0100
0010
1000
,
0020
0000
0030
0000
1000
0001
0100
0000
,
0001
0000
0000
0000
0000
1000
0100
0000
,
1000
0010
0100
0000
0001
0100
0010
0000
,
1000
0000
0000
0000
0000
0100
0010
0001
,
0010
0001
0000
2000
0000
3002
0000
0203
,
0000
0000
0300
0100
0010
0000
1000
0001
,
1000
0000
2000
3002
,
2003
3200
0320
0032
,
0103
0000
0100
0000
,
0100
0020
0200
0000
0000
0000
0330
0000
,
0001
1000
0001
0000
1001
0000
0000
0000
,
1001
0000
0100
0010
1000
0000
0110
0000
,
0000
0000
0000
0000
1000
0001
0010
0000
,
0011
0000
0001
1000
0010
0000
1010
0000
,
0000
0000
0000
0000
0100
1000
0001
0000
,
0101
0000
0100
0001
1000
0000
1100
0000
,
0000
0000
0000
0000
1000
0100
0010
0000
,
0110
0000
0010
0100
0001
0000
1001
1000
,
0001
0000
0000
0000
0100
0010
0100
0000
,
0000
0000
1000
0010
1000
0000
0001
0100
,
0001
0000
0000
1000
0100
1000
0000
1100
,
0000
0202
0000
0000
0303
0000
0010
0100
,
0010
0000
1001
0000
1000
0001
1000
0000
,
0110
0000
0001
1000
0100
0000
1000
0010
,
1000
0000
0000
0001
0010
0001
0000
0011
,
0000
2020
0000
0000
3030
0000
1001
0000
,
1001
0100
0010
1000
,
0100
0010
0001
0110
,
0110
0010
1000
0100
,
0010
0001
0100
0000
,
1100
0000
0000
1001
0000
0000
0011
0000
,
0000
1001
0000
0000
1100
0000
0000
0000
,
0011
0000
0000
0110
0000
0000
1100
0000
,
0000
0110
0000
0000
0011
0000
0000
0000
,
0101
0000
0000
1100
0000
0000
1010
0000
,
0000
0011
0000
0000
1001
0000
0000
0220
,
0000
0000
0000
0330
,
1010
0000
0000
0101
0000
0000
0011
0000
,
0000
2200
0000
0000
0000
0000
0300
0000
,
0001
0100
3010
1000
,
1001
0000
0010
0100
0010
0100
0002
0000
,
1003
0020
0000
0130
0000
0000
0001
1000
,
0000
0000
1000
0010
0001
0010
2000
0000
,
3100
2000
0000
3001
0100
0001
0100
0010
,
0000
1000
0001
0000
0100
0000
0000
0000
,
0100
0000
0000
0001
0010
0001
1000
0100
,
1000
0100
1000
0100
0020
0000
0000
0000
,
0000
0000
0000
1000
,
0001
1000
0001
1000
,
0001
0000
1000
0000
0031
0000
0110
0001
,
1000
0000
0000
0000
0010
0100
1000
0000
,
0000
0000
0001
0100
0010
0000
1000
0001
,
0010
0000
0000
0010
0001
1000
0000
1100
,
0000
2020
0000
0000
3030
0000
0100
0001
,
0010
0000
0110
0000
0100
1000
0001
0000
,
1001
0000
0010
0100
0010
0000
1000
0001
,
0100
0000
0000
0100
0001
1000
0000
0011
,
0000
0202
0000
0000
0303
0000
2002
0000
,
0000
0000
0000
0000
,
0000
0000
0000
0000
,
0000
0000
0000
3003
;
