#TITLE:Lisa-RICCIA;
#ARTIST:DJ YOSHITAKA;
#BANNER:Lisa-RICCIA-bn.png;
#BACKGROUND:Lisa-RICCIA-bg.png;
#JACKET:Lisa-RICCIA-jacket.png;
#MUSIC:Lisa-RICCIA.ogg;
#SAMPLESTART:97.171;
#SAMPLELENGTH:20;
#DISPLAYBPM:205;
#BPMS:0=205;
#BGCHANGES:;

//---------------dance-single - ----------------
#NOTES:
     dance-single:
     :
     Beginner:
     5:
     :
0000
0000
0000
0000
,
0000
0000
0000
0000
,
0000
0000
0000
0000
,
0000
0000
0000
0000
,
0000
0000
0000
0000
,
1000
0000
0010
0000
,
0001
0001
0001
0000
,
1001
0000
0000
0000
,
0100
0000
0000
0000
,
1001
0000
0000
0000
,
0000
0000
0000
0000
,
0010
0010
0000
0000
,
0000
0000
1000
0000
,
0001
0001
0000
0100
,
0000
0010
0000
1000
,
1000
0000
0000
0001
,
0000
0000
0100
0100
,
0100
0000
0010
0000
,
0100
0000
0001
0000
,
0010
0000
0100
0000
,
1000
0000
0010
0000
,
1000
0000
0001
0000
,
1000
0000
0100
0000
,
0010
0000
0010
0000
,
0001
0000
1000
0000
,
0001
0000
0001
0000
,
0100
0100
0100
0000
,
0010
0010
0000
0000
,
1000
1000
1000
0000
,
0100
0000
1000
0000
,
0001
0001
0001
0000
,
1000
1000
1000
0000
,
0010
0000
0100
0000
,
0001
0000
0001
0000
,
1000
1000
1000
0000
,
0100
0000
0010
0000
,
0100
0100
0100
0000
,
0010
0010
0000
0000
,
0001
0001
0001
0000
,
0100
0100
0100
0000
,
0010
0010
0000
0000
,
0110
0000
0001
0000
,
1000
1000
1000
0000
,
0100
0000
0010
0000
,
0100
0000
1000
1000
,
0000
0001
0001
0000
,
0100
0000
0010
0000
,
1000
1000
1000
0000
,
0110
0000
0000
0000
,
1001
0000
0000
0000
,
0000
0000
0000
0000
,
1000
1000
0000
0000
,
0000
0000
0001
0000
,
0001
0001
0000
1000
,
0000
0010
0000
0100
,
0100
0000
0000
0010
,
0000
0000
1000
0000
,
0100
0000
0000
1000
,
0000
0000
0001
0000
,
0100
0000
0000
0010
,
0000
0000
0100
0100
,
0100
0000
0000
0001
,
0000
0000
0010
0000
,
1000
0000
1000
0000
,
0001
0000
0001
0000
,
0110
0000
0000
0000
,
0000
0000
0000
0000
,
0000
0000
0000
0000
,
0000
0000
0000
0000
,
0002
0000
0003
0000
,
2000
0000
3000
0000
,
0010
0000
1000
0000
,
0200
0000
0300
0000
,
0010
0010
0010
0000
,
0001
0000
0100
0000
,
1000
1000
1000
0000
,
0001
0000
1000
0000
,
0001
0000
0010
0000
,
0100
0100
0100
0000
,
1001
0000
0000
0000
,
0010
0000
0000
0000
,
0110
0000
0000
0000
,
0000
0000
0000
0000
,
1001
0000
0100
0000
,
0001
0000
1000
0100
,
1000
0000
0010
0000
,
0001
1000
0001
0000
,
0010
0010
0001
0000
,
0100
0000
1000
0000
,
0010
1000
0010
0000
,
1000
0001
0100
0010
,
1000
0000
0100
1000
,
0001
0000
0010
0001
,
0100
0000
0010
0000
,
1000
0100
1000
0000
,
0001
0001
1000
0000
,
0010
0100
0001
0000
,
0110
0000
0001
0000
,
1000
0001
0000
0000
,
0010
0000
0001
0000
,
0100
0100
0100
0000
,
0001
0000
0010
0000
,
1000
0000
0100
0100
,
0000
0010
0010
0000
,
0100
0000
1000
0000
,
0001
0001
0001
0000
,
0110
0000
0000
0000
,
1001
0000
0000
0000
,
0000
0000
0000
0000
,
0002
0000
0000
0000
,
0000
0000
0000
0000
,
0003
0000
0000
0000
;

//---------------dance-single - ----------------
#NOTES:
     dance-single:
     :
     Easy:
     10:
     :
0000
0000
0000
0000
,
0000
0000
0000
0000
,
0000
0000
0000
0000
,
0000
0000
0000
0000
,
0000
0000
0000
0000
,
1000
0010
1000
0001
,
0010
0000
0100
0000
1000
0001
0000
1001
,
0000
0000
0000
0000
0010
0000
0000
0200
,
0000
0000
0002
0303
,
1001
0000
0000
0000
,
0000
0011
0000
0000
1100
0000
0101
0000
,
1001
1001
0000
0000
,
0000
0000
0110
0000
0000
0000
1000
0000
0001
0000
0000
0001
0000
0000
0001
0000
,
1000
1001
0010
1000
,
0100
0000
0010
0000
0001
0000
0100
0010
,
0100
0000
0000
0110
0000
0000
0001
1000
,
0000
1010
0000
0000
0100
0001
0100
0000
,
1001
0010
0001
0100
,
0010
0000
1000
0000
0100
0010
0100
0010
,
0100
1000
0010
0001
,
1000
0100
1000
0000
0001
0000
0010
0000
,
0100
0010
0001
0100
,
0010
0000
1000
0000
0001
0000
1000
0100
,
1000
0000
0000
0110
0000
0000
0001
1000
,
0000
0001
1000
0000
0000
0000
1001
0000
,
0010
1000
0100
0001
,
0010
0000
0000
0000
0100
0000
0000
0000
0010
0000
0000
0010
0000
0000
0010
0000
,
0001
0100
0001
0010
,
1000
0000
0000
0000
0100
0000
0000
0000
1000
0000
0000
1000
0000
0000
1000
0000
,
0001
0000
0010
0000
0001
0100
0000
0101
,
0000
0000
1000
0100
1000
0001
0000
1100
,
0000
0000
0001
0100
0001
1000
0000
0010
,
0000
1000
0001
0000
0100
0000
0010
0000
,
1001
0010
1000
0100
,
0001
0000
0000
0000
1000
0000
0000
0000
0010
0000
0000
0010
0000
0000
0010
0000
,
1000
0100
0001
0010
,
0001
0000
0000
0000
1000
0000
0000
0000
0100
0000
0000
0100
0000
0000
0100
0000
,
0010
0001
1000
0001
,
0100
0000
0010
0000
1000
0001
0000
0011
,
0000
0000
0100
1000
0001
1000
0000
0010
,
0000
2000
0002
0000
3003
0000
0100
0010
,
1000
0000
0000
0001
0000
0100
0000
0010
,
1000
0000
0001
0000
1000
0000
0010
0100
,
0001
0000
0000
0010
0000
0100
0000
1000
,
0000
0010
0000
1000
0000
0001
0100
0010
,
0000
1010
0101
1010
,
0101
0000
1000
0001
0000
0100
0010
0000
,
1000
0000
0100
0000
1000
0001
0000
0202
,
0000
0003
0010
0310
,
1001
0000
0000
0000
,
0000
1010
0000
0000
0101
0000
1100
0000
,
1001
1001
0000
0000
,
0000
0000
0110
0000
0000
0000
0001
0000
1000
0000
0000
1000
0000
0000
1000
0000
,
0001
0011
0001
0100
,
1000
0010
1000
0001
,
0100
0000
0000
0010
0000
0000
0100
0000
,
0000
0001
0000
0000
1000
0000
0001
1000
,
0002
0000
0000
0023
0000
0000
0230
0000
,
0000
2300
0000
0000
3010
0100
0010
0000
,
2000
0000
0000
3002
0000
0000
0023
0000
,
0000
0230
0000
0000
1300
0010
0100
0001
,
1000
0000
0010
0100
0000
0010
0000
1000
,
0000
0001
0000
0000
0010
0001
0010
0100
,
1000
0000
0000
1001
0000
0000
0010
0100
,
0000
0010
0100
0010
0100
0010
0100
0000
,
0001
1000
0100
0000
,
0010
1000
0100
0010
,
0001
0100
0001
0000
,
0010
0001
0100
1000
,
0010
1000
0100
1000
,
0010
0100
0001
0000
,
0010
0001
0100
0010
,
1000
0100
1000
0001
,
0100
0010
1000
0100
,
0001
0010
0001
0100
,
1000
0010
0001
0100
,
0010
1000
0100
0001
,
0010
0001
0100
1000
,
0001
0000
0100
0000
0010
1000
0000
1001
,
0000
0000
0000
0000
0000
0000
0000
0200
,
0000
0000
0000
0300
,
0110
0000
0000
0000
0000
0000
0000
2000
,
0000
3100
0000
0110
,
1001
0000
0000
0010
0000
1000
0000
0001
,
0000
0000
0000
0000
0010
0000
0000
0000
0001
0000
0000
1000
0000
0000
0001
0000
,
0100
0010
0100
0001
,
0010
0000
0100
0000
1000
0000
0000
0000
0001
0000
0000
1000
0000
0000
0001
0000
,
0010
0000
0001
0100
0000
0010
0000
1000
,
0000
0100
1000
0100
0010
0001
0000
1010
,
0000
0000
0001
0000
1000
0100
1000
0010
,
0000
0100
0001
0000
0010
0100
0010
0100
,
0010
0001
0000
1001
0000
1010
0000
1100
,
0000
0000
1000
0000
0010
0000
0000
0000
0100
0000
0000
0010
0000
0000
0100
0000
,
0001
0010
0001
0100
,
1000
0000
0010
0000
1000
0000
0000
0000
0001
0000
0000
0100
0000
0000
0001
0000
,
0010
0000
0001
0100
0000
1000
0000
0101
,
0000
0010
1000
0000
0100
0001
0000
0011
,
0000
0010
0001
0000
0100
1000
0000
0010
,
0000
2000
0002
0000
3003
0000
0100
0010
,
1000
0000
0000
0010
0000
1000
0000
0001
,
0100
0000
0010
0000
0100
0000
0001
1000
,
0001
0000
0010
0100
0000
1000
0000
0010
,
0000
0100
0000
0001
0000
1000
0001
0100
,
0000
0011
1100
0011
,
1100
0000
0010
0100
0000
0001
1000
0000
,
0010
0000
1000
0000
0100
0001
0000
2020
,
0000
0030
0002
3003
,
2002
0000
0000
0000
0000
3000
0000
0100
,
0000
0100
0000
0103
0000
0001
1000
0002
,
0000
0000
0000
0000
,
0000
0000
0000
0000
,
0003
0000
0000
0000
;

//---------------dance-single - ----------------
#NOTES:
     dance-single:
     :
     Medium:
     13:
     :
0000
0000
0000
0000
,
0000
0000
0000
0000
,
0000
0000
0000
0000
,
0000
0000
0000
0000
,
0000
0000
0000
0000
,
1000
0010
0100
0001
0000
0010
0000
0001
,
0000
0100
0010
0100
0001
1000
0000
1001
,
0000
0000
0000
0000
0001
0100
0010
2000
,
0000
0000
0002
3003
,
1001
0000
0100
0000
1000
0000
0001
0100
,
0000
0101
0000
0000
1100
0000
0101
0000
,
1001
0000
1001
0000
0010
0000
1000
0100
,
0000
0000
0110
0000
0000
0000
0001
0000
1000
0000
0000
1000
0000
0000
1000
0000
,
0001
0000
0011
0000
1000
0000
0001
0100
,
0000
0010
1000
0000
0100
0000
0001
1000
,
0001
0000
0100
0010
1000
0000
0001
0100
,
0000
0010
1000
0000
0001
1000
0001
1000
,
0001
0000
0010
0001
0100
0000
0010
1000
,
0000
0100
1000
0000
0001
0010
0001
0010
,
0100
0000
0010
0001
1000
0000
0001
0100
,
0000
0010
1000
0010
0100
0001
1000
0000
,
1100
0000
0010
0100
0010
0000
1000
0001
,
0000
0100
0001
0010
0001
0100
0010
1000
,
0001
0000
1000
0010
1000
0000
0100
0100
,
0000
0000
0110
0000
0000
0000
0000
0000
0001
0000
1000
0010
1000
0000
0000
0000
,
0100
0100
1000
0001
0000
0101
0000
1010
,
0000
0000
0100
0000
1000
0000
0000
0000
0010
0000
0000
0100
0000
0000
0001
0000
,
2000
0000
3010
0100
0000
0110
0000
0101
,
0000
0000
1000
0000
0001
0000
0000
0000
0010
0000
0000
0001
0000
0000
0100
0000
,
0020
0000
1030
0001
0000
0010
0100
1000
,
0000
0001
1000
0001
0100
0010
0000
1010
,
0000
0001
1000
0001
1000
0001
0000
0100
,
0000
0010
1000
0000
0001
1000
0010
0100
,
0001
0001
1000
0010
0000
0101
0000
1100
,
0000
0000
0001
0000
0010
0000
0001
0000
1000
0000
0000
1000
0000
0000
1000
0000
,
0020
0000
0130
0001
0000
0011
0000
1100
,
0000
0000
0010
0000
1000
0000
0000
0000
0001
0000
0000
0100
0000
0000
0001
0000
,
1000
0100
1000
0001
0000
0110
0000
1001
,
0000
0010
1000
0010
1000
0001
0000
0100
,
0000
0010
0100
0001
1000
0001
0000
0010
,
0000
0001
2000
0000
0000
0000
3010
0100
,
0001
0010
0001
1000
0000
0100
0000
1000
,
0002
0000
2003
0000
3002
0000
0013
0100
,
0010
0000
0001
0100
0000
1000
0010
0100
,
0000
0001
0000
0010
0001
0010
0100
1000
,
0000
0100
2000
0000
3002
0000
0013
0001
,
0100
0000
0010
1000
0000
0100
0001
0000
,
0010
0010
0001
0100
0001
1000
0000
0202
,
0000
0300
0200
0303
,
1001
0000
0010
0000
1000
0000
0100
0001
,
0000
0011
0000
0000
0101
0000
1100
0000
,
1001
0000
1001
0000
0010
0000
1000
0100
,
0000
0000
0110
0000
0000
0000
1000
0000
0001
0000
0000
0001
0000
0000
0001
0000
,
1000
0000
1010
0000
0100
0000
0001
0010
,
0000
0001
1000
0010
1000
0000
0100
0000
,
0010
0000
0001
0100
0001
0000
1000
0010
,
0000
1000
0100
0000
1000
0010
1000
0001
,
0100
0000
0001
0010
0000
0010
2000
0000
,
0000
3002
0000
0000
1003
0010
0100
0001
,
0010
0000
1000
0100
0000
0100
0002
0000
,
0000
0023
0000
0000
0031
0100
0010
1000
,
0100
1000
0100
1000
0100
0010
0001
1000
,
0000
0010
0100
0000
0101
0000
1100
0000
,
0001
1000
0010
1000
0000
0100
0010
0001
,
0000
0100
0010
1000
0001
0000
1001
0000
,
0010
0000
0000
1000
0000
0001
0000
1000
,
0000
0100
0010
0000
0001
0000
0100
0000
,
0010
0000
1000
0001
0000
0100
0000
0010
,
0000
0100
0001
0000
1000
0000
0010
0000
,
0200
0000
0301
2000
0000
3020
0000
0230
,
0000
0310
1000
0010
1000
0010
0000
0200
,
0000
0301
0010
0001
0010
0001
0000
1000
,
0000
0010
0200
0000
0301
1000
0001
1000
,
0010
0000
0010
1000
0000
0100
0000
0001
,
0000
0000
0010
0000
0001
0000
0100
0000
0010
0000
0000
1000
0000
0000
0001
0000
,
0100
0010
0100
0001
0000
1000
0000
0100
,
0000
0000
1000
0000
0010
0000
1000
0000
0001
0000
0000
0001
0000
0000
0001
0000
,
1000
0001
0010
0100
0000
1000
0100
0001
,
0000
0010
0001
0010
0001
1000
0000
2002
,
0000
0000
0000
0003
,
0020
0000
0000
3030
,
0110
0000
0000
0000
,
0000
0200
0300
1001
,
0001
0010
0001
1000
0000
0010
0100
0010
,
0000
0000
1000
0000
0001
0000
1000
0000
0010
0000
0000
0010
0000
0000
0010
0000
,
0100
0010
1000
0001
0000
0010
0001
0100
,
0000
0000
1000
0000
0010
0000
1000
0000
0100
0000
0000
0100
0000
0000
0100
0000
,
0010
0000
0001
0100
0000
1010
0000
0101
,
0000
1000
0100
1000
0001
0100
0000
0110
,
0000
0010
1000
0010
1000
0100
0010
0001
,
0000
1000
0002
0000
0013
0001
0100
0010
,
1000
0100
1000
1000
0000
0001
0100
0010
,
0000
0000
1000
0000
0001
0000
1000
0000
0010
0000
0000
0100
0000
0000
0001
0000
,
0100
0010
0100
0001
0000
1010
0000
1100
,
0000
0000
0001
0000
0010
0000
0001
0000
1000
0000
0000
1000
0000
0000
1000
0000
,
0010
0000
1000
0001
0000
0100
0010
1000
,
0000
0001
0100
0001
0100
0001
0000
1001
,
0000
0010
0001
0100
0001
1000
0000
0110
,
0000
1000
0002
0000
0000
0000
0013
0100
,
2000
0000
3001
0100
0000
0010
0000
1000
,
0200
0000
0320
0000
0230
0000
1300
0001
,
0010
0000
0001
2000
0000
3200
0000
2300
,
0000
3020
0000
0130
0001
0010
0001
1000
,
0000
0010
0100
0000
0101
0000
1100
0000
,
0101
0000
0010
1000
0000
0100
0001
0000
,
0010
0001
0010
0100
1000
0001
0000
2020
,
0000
0000
0000
0000
0030
0000
3001
0100
,
0001
0000
0010
0001
0000
0001
0000
1000
,
0000
0010
0000
1000
0000
0100
2000
0002
,
0000
0000
0000
0000
,
0000
0000
0000
0000
,
3003
0000
0000
0000
;

//---------------dance-single - ----------------
#NOTES:
     dance-single:
     :
     Hard:
     16:
     :
0000
0000
0000
0000
,
0000
0000
0000
0000
,
0000
0000
0000
0000
,
0000
0000
0000
0000
,
0000
0000
0000
0000
,
1000
0010
1000
0010
0100
0000
0001
0000
0100
0000
0010
0000
0100
0000
1000
0000
,
0100
0001
0100
0001
0010
0100
0010
0100
1000
0000
0001
0000
0000
0000
1001
0000
,
0000
0000
0000
0010
1000
0100
0010
0002
,
0000
0000
0200
0303
,
0110
0000
0010
0000
1000
0100
1000
0001
,
0000
0011
0000
0000
1100
0000
0101
0000
,
1001
0000
1001
0000
0010
1000
0010
0100
,
0000
0000
0001
1000
0001
0000
0100
0000
1010
0000
0000
0101
0000
0000
1100
0000
,
1100
0000
0101
0010
1000
0100
1000
0001
,
0100
1000
0100
0010
1000
0100
0001
0100
,
0020
0001
0031
2000
0001
3001
0100
0020
,
0000
0000
1030
0100
1000
0000
0001
0100
0001
0000
0010
0000
1000
0000
0010
0000
,
0001
0000
0110
0001
0100
0010
1000
0100
,
0010
1000
0010
0001
0010
1000
0010
0100
,
1000
0000
0011
0100
0001
0010
0001
1000
,
0010
0000
0001
0000
0010
0000
1000
0100
0010
0000
0001
0000
0100
0000
0010
0000
,
1000
0000
0100
1000
0001
0000
0010
0001
1000
0000
0010
0000
0100
0000
0001
0000
,
0010
0000
1000
0000
0010
0000
0001
0100
0001
0000
0010
0000
1000
0000
0100
0000
,
2000
0001
3001
0020
0100
0130
0010
0002
,
0000
1003
0001
0100
1000
0100
0001
1000
,
0010
0010
0110
1001
0000
1100
0000
0011
,
0000
0000
0010
1000
0010
0000
0100
0000
0001
0000
1000
0001
0000
1000
0001
0000
,
0010
0000
0100
0010
0001
0000
1000
0000
0010
0000
0100
0000
0010
0000
0101
0000
,
0000
0000
1000
0000
1000
0000
0001
0010
0100
0000
1000
0001
0000
1000
0001
0000
,
0100
0000
0010
1000
0001
0000
1000
0100
0010
0000
0001
0000
0100
0000
1010
0000
,
0000
0000
0100
0000
0100
0000
0010
0000
0011
0000
1100
0000
0000
0000
0010
0200
,
0000
0000
0001
0000
0301
0000
0100
0000
1000
0010
1000
0000
0100
0000
0001
0000
,
0010
0000
1000
0000
1000
0000
0100
0010
0001
0000
0100
0000
0001
0000
1000
0000
,
0020
1000
1030
1100
0000
1001
0100
0110
,
0000
0000
1000
0010
1000
0000
0001
0000
0010
0000
0100
1000
0000
0001
0100
0000
,
0001
0000
0010
0000
1000
0000
0100
0010
0100
0000
1000
0001
0100
0000
0110
0000
,
0000
0000
1000
0000
1000
0000
0100
0010
0001
0000
0100
0001
0000
0100
0001
0000
,
0010
0100
0010
0001
0100
1000
0100
0001
,
0000
0000
0010
0000
0100
0000
1000
0000
1001
0000
1010
0000
0000
0000
0100
0002
,
0000
0000
1000
0000
1003
0000
0010
0100
0010
0000
1000
0000
0001
0000
1020
0000
,
0000
0000
0100
0000
0130
0000
0000
0000
0001
0010
0100
1000
0001
0000
0100
0000
,
0010
0000
1000
0100
1000
0000
0001
0000
0100
0000
1000
0000
0100
0000
0001
0000
,
0020
0000
0100
0000
0230
0000
1000
0000
1300
0010
0100
0010
1000
0000
0001
0100
,
0010
0000
1000
0100
1000
0000
0001
0000
0100
0000
0010
0000
0100
0000
0001
0000
,
0010
0000
1000
0000
0010
0000
0001
0000
0100
0010
0100
0010
1000
0001
1000
0001
,
0010
0000
0001
1000
0010
0000
0100
0000
1000
0000
0100
0000
0001
0000
1000
0000
,
0010
0000
0100
0000
0001
0000
0001
0000
1000
0100
1000
0100
0010
0001
0010
0001
,
0100
0010
1000
0100
0001
0010
0100
2000
,
0000
0000
3000
0101
,
1001
0000
0010
1000
0100
0000
1000
0001
,
0000
0011
0000
0000
0101
0000
1100
0000
,
1001
0000
1001
0000
0001
0010
0001
1000
,
0000
0000
0110
0000
0000
0000
1000
0000
1100
0000
0000
0011
0000
0000
1100
0000
,
1100
0000
0101
0010
1000
0100
1000
0002
,
0000
0013
1000
0010
0100
0010
0001
0010
,
0110
0000
0001
0011
1000
0010
0110
1001
,
0000
0000
1100
0000
0001
0000
0100
0000
0010
1000
0010
1000
0010
1000
0010
0000
,
0100
0000
0000
0000
0110
0000
0001
0010
0001
0000
0100
0000
1000
0000
0010
0000
,
0100
0000
1000
0000
0100
0000
0001
0010
0001
0000
1000
0000
0100
0000
1000
0000
,
0010
0000
0000
0000
0100
0000
0001
0010
0001
0000
1000
0000
0001
0000
0100
0000
,
1000
0000
0100
0000
0010
0000
1000
0100
1000
0000
1000
0000
0001
0000
0001
0000
,
0011
0000
0000
0000
1010
0000
0100
1000
0100
0000
0010
0000
0001
0000
1000
0001
,
1000
0000
0010
0000
0100
0000
0001
0010
0001
0000
0100
0000
1000
0000
0010
0100
,
0010
0000
1000
0010
1000
0000
0100
0000
0010
0000
0001
0000
0100
0010
1000
0000
,
0000
1001
0010
1000
0100
0010
0001
0100
,
0110
0000
0000
1000
0000
0001
0000
2000
,
0000
0000
0010
0000
3010
0000
0100
0000
0001
0000
0000
0001
0000
0000
0001
0000
,
2000
0000
3010
0100
0000
0002
0000
2003
,
0000
0000
3010
0000
0100
0000
0010
0000
1000
0000
0000
1000
0000
0000
1000
0000
,
0001
0100
0010
1000
0000
0100
1000
0001
,
0000
0010
0001
0010
0001
1000
0000
0010
,
1000
0010
0100
0010
1000
0100
0010
0001
,
0000
0100
0010
0000
1000
0001
1000
0001
,
0010
0100
0001
1000
0100
1000
0010
0001
,
1000
0010
1000
0010
0001
0100
0001
0100
,
0001
0100
0001
0100
1000
0010
1000
0010
,
0100
0010
1000
0001
0100
0001
0010
1000
,
0100
0010
0100
0010
0100
0000
1000
0000
0010
0000
0100
0000
0001
0000
1000
0000
,
0001
1000
0001
1000
0100
1000
0100
1000
0010
0000
0100
0000
0000
0000
1001
0000
,
0000
0000
0000
0001
0010
1000
0100
0002
,
0000
2000
0000
0000
0000
0000
3003
0000
,
1001
0000
0000
0000
0000
0000
0000
1000
,
0000
0001
0100
0000
0000
0000
0110
0000
,
1001
0000
1000
0100
0010
0000
0010
0000
0000
0000
0011
0000
0001
0000
1100
0000
,
0000
0000
0010
0000
1000
0000
0100
1000
0001
0000
0010
0001
0000
0001
0100
0000
,
0010
0000
1000
0000
0100
0000
0001
0000
0100
0000
1000
0010
1000
0000
0001
0000
,
0000
0000
0100
0000
0100
0000
0010
0000
1000
0000
0001
0100
0000
0001
0100
0000
,
0010
0000
1000
0100
1000
0000
0001
0000
0010
0000
1000
0100
1000
0000
0001
0000
,
0000
0000
0010
0100
0010
0000
0001
0000
1000
0000
1000
0000
0000
0000
0010
1000
,
0000
0010
1000
0000
0001
0000
0100
0000
0001
0000
1000
0000
0010
0000
0200
0000
,
0000
0001
0302
0000
0013
0001
0100
1000
,
0010
0010
1000
0100
0000
1000
0010
0001
,
0000
0000
0010
0100
1000
0000
0010
0000
1000
0000
0001
0100
0000
0001
0100
0000
,
0001
0000
0010
0000
1000
0000
0001
0000
0000
0000
0100
0010
0100
0000
0001
0000
,
0000
0000
1000
0000
0001
0000
0010
0001
0100
0000
0010
1000
0000
0010
1000
0000
,
0100
0000
0010
0001
1000
0000
0001
0000
0000
0000
0110
0000
1000
0000
1100
0000
,
0000
0000
0001
0010
0001
0000
0100
0000
1010
0000
1010
0000
0000
0000
0100
1000
,
0000
0100
1000
0000
0001
0000
1000
0001
0010
0000
0100
0000
1000
0000
0002
0000
,
0000
0000
0100
0000
0203
0000
0000
0000
0301
0010
0100
1000
0010
0000
0100
0000
,
0001
0100
0010
0010
0000
1010
0000
0101
,
2000
0000
0010
0000
3020
0000
0100
0000
0230
0000
0001
0000
0301
1000
0001
1000
,
0010
0000
1000
0100
1000
0000
0001
0000
0000
0000
0011
0000
0000
0000
0101
0000
,
0000
1010
0000
0110
1000
0010
0001
0100
,
0010
0000
1000
0001
1000
0000
0100
0000
0001
0000
0100
0000
0010
0000
0000
0000
,
0011
0100
1000
1001
0000
0010
0100
0001
,
1000
0010
0001
0100
1000
0001
0100
2020
,
0000
0000
0030
3001
,
1002
0000
0100
0100
0000
0010
0000
0100
,
0000
0010
0000
1003
0000
0100
2000
0002
,
0000
0000
0000
0000
,
0000
0000
0000
0000
,
3003
0000
0000
0000
;
