#TITLE:Let's Go Crazy;
#ARTIST:Prince and the Revolution;
#BANNER:Let's Go Crazy-bn.png;
#BACKGROUND:Let's Go Crazy-bg.png;
#JACKET:Let's Go Crazy-jacket.png;
#MUSIC:Let's Go Crazy.ogg;
#SAMPLESTART:63.609;
#SAMPLELENGTH:20;
#DISPLAYBPM:190:199;
#BPMS:0=196.04,64=195,72=197,100=195.333,124=194.2,128=198,144=196,148=193,156=194,160=197.1,172=195.74,176=199,188=196.7,200=194.375,208=198.71,224=196.5,228=193.71,248=194.444,252=196.14,264=198.17,324=192,336=190;
#BGCHANGES:;

//---------------dance-single - ----------------
#NOTES:
     dance-single:
     :
     Beginner:
     4:
     :
0000
0000
0000
0000
,
0000
0000
0000
0000
,
0000
0000
0000
0000
,
0000
0000
0000
0000
,
0000
0000
0000
0000
,
0000
0000
0000
0000
,
0000
0000
0000
0000
,
0010
0010
0010
0000
,
1000
1000
1000
1000
,
0000
0000
0000
0000
,
0001
0001
0001
0001
,
0000
0000
0000
0000
,
0010
0010
0010
0010
,
0000
0000
0000
0000
,
0100
0100
0100
0100
,
0000
0000
0000
0000
,
1000
1000
1000
0000
,
0002
0000
0003
0000
,
0100
0100
0100
0000
,
0020
0000
0030
0000
,
1000
1000
1000
0000
,
0200
0000
0300
0000
,
0010
0010
0010
0000
,
0002
0000
0003
0000
,
0110
0000
1001
0000
,
0001
0000
0100
0000
,
0110
0000
1001
0000
,
1000
0000
0100
0000
,
0010
0010
0010
0000
,
0100
0100
0100
0000
,
1001
0000
0110
0000
,
1000
0000
0001
0000
,
1001
0000
0010
0000
,
1000
0000
0100
0000
,
1000
0000
0001
0000
,
0100
0100
0100
0000
,
0001
0001
0001
0001
,
0000
0000
0000
0000
,
1000
1000
1000
0000
,
0010
0000
0100
0000
,
0001
0001
0001
0000
,
0010
0010
0010
0000
,
0001
0001
0001
0000
,
0110
0000
1001
0000
,
0110
0000
0000
0000
,
0000
0000
0000
0001
,
0001
0000
0000
0000
,
0000
0000
1000
1000
,
1000
0000
0000
0000
,
0000
0000
0100
0000
,
0110
0000
0110
0000
,
1001
0000
1001
0000
,
0010
0000
1000
0000
,
0010
0000
0100
0000
,
0001
0000
0010
0000
,
0001
0000
1000
0000
,
0020
0000
0030
0000
,
0200
0000
0300
0000
,
0001
0000
0001
0000
,
1000
0000
1000
0000
,
0010
0010
0010
0010
,
0000
0000
0000
0100
,
0000
0100
0000
0100
,
0000
0100
0000
0100
,
0100
0000
0001
0000
,
1000
0000
0001
0000
,
0010
0000
0010
0000
,
0010
0000
0010
0000
,
0110
0000
0000
0000
,
0000
0000
0000
0000
,
0000
0000
0000
0000
,
0000
0000
0000
0000
,
0000
0000
0000
0000
,
0000
0000
0000
0000
,
0000
0000
0000
0000
,
0000
0000
0000
0000
,
0000
0000
0000
0000
,
0000
0000
0000
0000
,
0010
0000
0000
0000
,
0000
0000
0000
0000
,
0000
0000
0000
0000
,
0001
0000
0000
0010
,
0000
0000
0100
0000
,
0000
1000
0000
0000
,
0010
0010
0010
0010
,
0010
0010
0000
0000
,
0000
0000
0000
0000
,
0000
0000
0000
0000
,
0000
0000
0000
0000
,
0000
0000
0000
0000
,
0000
0000
0000
0000
,
0000
0000
0000
0000
,
0000
0000
0000
0000
,
0000
0000
0000
0000
,
0000
0000
0000
0000
,
0000
0000
0000
0000
,
0000
0000
0000
0000
,
0000
0000
0000
0000
,
0000
0000
0000
0000
,
0000
0000
0000
0000
,
0000
0000
0000
0000
,
0000
0000
0001
0000
,
0000
1000
0000
0000
,
1001
0000
0000
0000
;

//---------------dance-single - ----------------
#NOTES:
     dance-single:
     :
     Easy:
     7:
     :
0000
0000
0000
0000
,
0000
0000
0000
0000
,
0000
0000
0000
0000
,
0000
0000
0000
0000
,
0000
0000
0000
0000
,
0000
0000
0000
0000
,
0000
0000
0000
0000
,
0010
0010
1000
0001
,
1100
1100
0101
0101
,
0000
0001
0000
0100
,
0101
0101
1010
1010
,
1000
0001
0000
0100
,
0110
0110
1001
1001
,
0010
0001
0100
0000
,
1010
1010
0011
0011
,
1000
0001
0000
0010
,
0001
0100
1000
0000
,
0010
1000
0010
0100
,
0001
0010
1000
0000
,
0100
1000
0001
0000
,
0010
0010
0100
0000
,
1000
0010
1000
0100
,
1000
0010
0001
0000
,
0100
0010
0000
0100
,
0001
0001
1000
1000
,
0100
1000
0001
0100
,
0010
0100
0001
0000
,
0010
0001
0010
1000
,
1100
1100
1001
0000
,
0011
0011
1001
0000
,
1100
0000
0101
0000
,
0010
1000
0100
0001
,
1001
0010
0001
0010
,
0001
0100
0010
1000
,
0100
0000
0000
0100
0000
0000
0100
0000
,
0110
0110
1001
1001
,
0011
0011
1100
1100
,
0001
0100
1000
0010
,
0101
1100
0101
0000
,
0010
1000
0010
0100
,
0001
0001
1000
1000
,
0001
0010
1000
0100
,
0110
0001
0110
1000
,
0110
0000
0000
0011
0000
1010
0000
0000
,
1001
0100
0010
0100
,
0010
0100
0010
0100
,
0110
0001
1000
0001
,
1000
0001
1000
0001
,
0101
0010
0001
0010
,
0001
0010
0001
0010
,
1100
1000
0101
0001
,
1100
1000
0101
0001
,
0010
0001
0010
1000
,
0100
0001
0010
0100
,
0010
0001
0010
0100
,
1000
0010
1000
0001
,
0022
0000
0033
0100
,
2020
0000
3030
0100
,
1001
0100
1001
0100
,
1010
1010
0101
0101
,
0001
0011
1000
2100
,
0000
0010
0000
3020
,
0000
0100
0000
0001
,
0000
0100
0000
1030
,
1100
0001
1000
0100
,
0011
1000
0011
1000
,
1100
0010
0101
0010
,
1001
0100
0011
0100
,
2020
0000
0030
0001
,
0002
0003
0001
0002
,
3003
0010
0100
1000
,
0010
0000
0100
0000
0001
0000
2000
0000
0000
0000
0000
0000
,
0020
0030
0020
0030
,
0020
3030
0010
1000
,
0100
1000
0100
0001
,
0010
0000
0001
0000
2000
0000
0000
0000
0000
3100
0000
0000
,
1000
0010
0100
0001
,
0001
2000
0000
0000
,
0020
0000
0000
0000
,
0000
0000
0000
0000
,
0000
0000
0000
3030
,
2020
3030
0001
0202
,
0303
1000
2200
3300
,
0001
0022
0033
1000
,
1001
1001
1001
1001
,
1001
2002
0000
0000
,
0000
0000
0000
0000
,
0000
0000
0000
0003
,
0020
0000
0000
0000
,
0000
3030
0202
0000
,
0000
0300
1000
0100
,
1003
0000
0000
0010
0000
0000
0100
0000
0000
0001
0000
1000
,
0000
0010
0000
0000
0100
0000
0001
0000
0010
0000
0100
0000
,
2000
0000
0000
0000
,
0000
0000
0000
0000
,
0002
0000
0000
0000
0000
0000
3003
0000
0000
0100
0000
0010
,
0000
2000
0000
0000
0000
0000
0000
0000
0000
0000
0000
0000
,
0000
0000
0000
0000
0000
0000
0000
0000
0000
0000
0000
0000
0000
0000
0000
0000
3000
0000
0000
0000
0000
0000
0000
0000
0000
0000
0000
0000
0000
0000
0100
0000
0000
0000
0000
0000
0000
0000
0000
0100
0000
0000
0000
0000
0000
0000
0000
0000
,
0100
0200
0000
0000
,
0000
0000
0000
0000
,
0000
0000
0000
0000
,
0000
0000
0000
0300
0000
0000
1001
0000
0000
0000
1001
0000
,
0000
0000
0000
0000
0110
0000
0000
0000
0000
0110
0000
0000
0000
0000
0000
0000
,
1001
0000
0000
0000
;

//---------------dance-single - ----------------
#NOTES:
     dance-single:
     :
     Medium:
     11:
     :
0000
0000
0000
0000
,
0000
0000
0000
0000
,
0000
0000
0000
0000
,
0000
0000
0000
0000
,
0000
0000
0000
0000
,
0000
0000
0000
0000
,
0000
0000
0000
0000
,
0010
0100
1000
0001
0000
0000
0110
0000
,
1100
1100
0101
0101
,
0001
0010
1000
0000
0100
0000
0100
0000
,
1010
1010
0101
0101
,
0001
0010
0000
1000
0000
0100
0010
0001
,
0100
0100
1001
1001
,
0010
1000
0001
0000
0100
0010
1000
0000
,
1010
1010
0011
0011
,
1000
0010
0000
0100
0000
0001
0010
1000
,
0100
0100
0110
0000
,
0001
0010
0001
1000
0000
0010
1000
0000
,
0100
1000
0100
1000
0001
0000
0000
0000
,
0010
0001
0010
0100
0000
1000
0001
1000
,
0001
0101
1100
0000
,
0010
0001
0010
0100
0000
1000
0000
0001
,
0100
0010
1000
0000
0101
0000
0000
0000
,
0010
1000
0010
0100
0000
0001
1000
0001
,
1000
0100
0010
0000
0010
0001
0000
0000
,
0100
0001
0100
0010
0000
1000
0001
0000
,
0010
0001
0100
1000
0000
0000
0000
0000
,
0010
1000
0100
1000
0000
0001
0010
0100
,
1000
0000
0010
1000
0100
0000
0100
0000
,
1000
0001
0100
0001
0010
0000
0010
0000
,
0101
0010
1100
0010
,
1000
0001
0000
0110
0000
0001
1000
0010
,
0200
0302
0023
0230
,
2300
0000
0000
3020
0000
0000
1030
0000
1000
0001
0000
0001
,
0100
0000
0000
0100
0000
0000
0100
0000
,
0110
0110
1001
1001
,
0011
0110
1100
0110
,
0001
1000
0001
1000
0000
0010
0100
0000
,
0101
1100
0101
1100
,
0001
0010
0000
1000
0000
0100
1000
0001
,
0100
0000
0010
1000
0001
0000
0010
0100
,
2000
3002
0023
0230
,
2300
0000
3020
0000
1030
0100
0010
0001
,
0100
0010
0000
1010
0000
0011
0000
0000
,
0110
0001
0010
1000
,
0100
0000
0010
0000
0001
0100
1000
0000
,
1010
0001
0010
0100
,
1000
0000
0010
0100
0000
0001
0000
1000
,
0001
0010
1000
0001
,
1000
0010
1000
0100
,
1100
0001
0101
1000
,
1001
0000
0110
0000
1000
0010
0100
0001
,
0010
0001
0100
0000
0010
1000
0100
0000
,
1000
0010
0001
0000
0100
0001
1000
0000
,
0010
1000
0000
0100
0001
0000
0010
0001
,
0000
1000
0100
0000
1000
0001
0100
0000
,
2010
0000
0000
0002
0000
0000
3003
0000
0000
1000
0001
1000
,
0002
0000
0000
0000
0000
0000
0000
0000
0000
0013
0100
0010
,
0100
1100
0001
0101
,
1000
0010
0100
0001
1000
0100
0010
0001
,
0100
0010
0110
1001
,
1000
0010
0100
0001
0000
0001
0010
0000
,
0011
1001
1010
1100
,
0001
0100
2000
0000
3000
0010
1000
0001
,
0100
0001
0000
0000
2000
0000
0000
0000
3020
0000
0000
0000
0230
0000
0000
0000
,
0301
0010
0000
0000
0200
0000
0000
0000
1300
0001
0000
0000
0200
0000
0000
0000
,
0310
1000
0002
0000
0013
0100
2000
0000
,
3001
1000
0001
1000
0010
0100
0001
1000
,
0100
0000
0000
0000
0000
0000
0000
0000
0000
0000
0000
0000
1000
0000
0000
1000
,
0000
0000
0000
0000
0000
0000
0000
1000
0000
0000
0000
1000
0000
0000
0000
0000
,
0000
0000
0000
0000
0000
1000
0000
0000
0001
0000
0000
0100
0000
0000
0000
0000
,
0001
0010
0100
1000
0001
0000
0000
0000
,
0100
0010
0100
0010
,
1000
0100
1000
0001
,
0010
0001
0100
1000
,
0001
0000
0000
0100
0000
0000
0010
0000
0000
1000
0000
0000
0001
0000
0000
0000
0010
0000
0000
0100
0000
0000
1000
0000
,
0000
0010
0000
0000
1000
0000
0000
0001
0000
0000
0100
0000
0000
0010
0000
0000
0100
0000
0000
0001
0000
0000
0010
0000
,
0000
0100
0000
0000
1000
0000
0000
0000
0000
0000
0000
0000
0000
0000
0000
0000
0000
0000
0010
0000
0000
0000
0000
0000
,
0000
0000
0000
0000
,
0000
0000
0000
0000
,
0000
0000
0000
0000
,
2020
0030
3001
0202
,
0300
1003
2200
0300
,
3001
0022
0030
1003
,
1001
1001
1001
0101
,
1100
0101
0000
0000
,
0000
0000
0000
0000
,
0000
0000
0000
0000
0000
0000
0000
1000
0000
0000
0000
0000
0000
0000
0000
0000
0000
0000
0000
0000
0000
0000
0000
0000
,
0001
0100
0010
1000
0100
0010
0001
0000
,
0000
0000
0000
0000
0000
0110
0000
0000
0011
0000
0000
0000
0000
0000
0000
0000
,
0000
0000
0000
0000
0000
1000
0000
0001
0000
0010
0000
0001
0000
0100
0000
0010
,
0000
1000
0000
0001
0000
0010
0000
0100
0000
0010
0000
0001
0000
1000
0000
0010
,
0000
1000
0000
0010
0000
0100
0000
0001
0000
0010
0000
0001
0000
0010
0000
0100
,
0000
1000
0000
0000
0000
0000
0000
0000
0000
0000
0000
0000
0000
0000
0000
0000
,
0000
0000
0000
0010
,
0000
0000
0000
0000
0000
0000
0000
0000
0100
0000
0000
0000
0000
0001
0000
0000
,
0010
0000
0000
0000
0000
0000
0000
0000
0000
0000
0000
0000
0000
0000
0000
0000
0001
0000
0000
0000
0000
0000
0000
0000
0000
0000
0000
0000
0000
0000
0000
0000
0000
0000
0000
0000
0000
0000
0000
0000
0000
0000
0000
0000
0000
0000
0000
0000
0010
0000
0000
0000
0000
0000
0000
0000
0000
0000
0000
0000
0000
0000
0000
0000
0001
0000
0000
0000
0000
0000
0000
0000
0000
0000
0000
0000
0000
0000
0000
0000
0000
0000
0000
0000
0000
0000
0000
0000
0000
0000
0000
0000
0000
0000
0000
0000
0000
0000
0000
0000
0000
0000
0000
0000
0000
0000
0000
0000
0000
0000
0000
0000
0000
0000
0000
0000
0000
0000
0000
0000
0000
0000
0000
0000
0000
0000
0000
0000
0000
0000
0000
0000
0000
0000
0000
0000
0000
0000
0000
0000
0000
0000
0000
0000
0000
0000
0000
0000
0000
0000
0000
0000
0000
0000
0000
0000
1000
0000
0000
0000
0000
0000
0000
0000
0000
0000
0000
0000
0000
0000
0000
0000
0000
0000
0001
0000
0000
0000
0000
0000
0000
0000
0000
0000
0000
0000
0000
0000
0000
0000
0000
0000
,
1000
0000
0000
0010
0000
0000
0100
0000
0000
0001
0000
0000
0010
0000
0000
0001
0000
0000
1000
0000
0000
0000
0100
0000
,
0000
0000
1000
0000
0000
0000
0001
0000
0000
0100
0000
0000
0001
0000
0000
1000
0000
0000
0100
0000
0000
0000
0000
0000
,
0000
0000
0000
0000
,
0000
0000
0000
0000
,
0000
0000
0000
0000
0000
0000
0011
0000
0000
0000
0011
0000
,
0000
1100
0000
0000
1100
0000
0000
0000
,
1001
0000
0000
0000
;

//---------------dance-single - ----------------
#NOTES:
     dance-single:
     :
     Hard:
     14:
     :
0000
0000
0000
0000
,
0000
0000
0000
0000
,
0000
0000
0000
0000
,
0000
0000
0000
0000
,
0000
0000
0000
0000
,
0000
0000
0000
0000
,
0000
0000
0000
0000
,
0010
1000
0010
0100
0001
0010
1000
0000
,
1100
1100
0101
0101
,
0001
0010
0001
1000
0010
0100
0001
0000
,
0011
0011
1100
1100
,
0010
0000
1000
0000
0010
0000
0100
0000
0000
0000
0001
1000
0001
0000
0100
0000
,
0110
0110
1001
1001
,
0001
0010
0001
1000
0000
0010
1000
0100
,
1100
1100
0011
0011
,
1000
0000
0001
0000
0010
0000
0100
0000
0000
0000
1000
0010
1000
0000
0001
0000
,
0100
0100
1001
0110
,
0001
0010
0100
1000
0000
0010
1000
0001
,
0010
0001
0010
0100
1000
0010
0100
0000
,
0001
0000
1000
0000
0001
0000
0010
0000
0000
0000
0100
1000
0100
0000
0010
0000
,
0001
0100
1000
0100
0001
0010
0100
0000
,
1000
0010
1000
0001
0000
0010
0001
0100
,
0010
1000
0100
0000
1010
0000
0101
0000
,
0010
0000
1000
0000
0100
0000
0001
0000
0000
0000
0010
0001
0010
0000
0100
0000
,
1000
0010
0100
0010
0001
0010
1000
0000
,
0100
1000
0001
0100
0000
0100
0010
1000
,
0100
0010
0001
0100
0000
0010
1000
0000
,
0001
0000
0010
0000
0001
0000
1000
0000
0000
0000
0100
0010
0100
0000
1000
0000
,
1001
0110
1001
0110
,
0001
0010
0001
0100
1000
0010
0001
0000
,
1100
0010
0101
0010
,
1000
0000
0001
0000
0010
0000
0100
0000
0000
0000
1000
0010
1000
0000
0001
0000
,
0101
0110
1010
0110
,
1001
0000
0000
0010
0000
0010
1000
0000
1000
0100
0000
0100
,
1000
0010
0000
1000
0001
0000
0100
0000
,
0110
0110
1001
1001
,
1100
0011
1100
0011
,
0001
0010
1000
0100
0000
1000
0010
0001
,
0101
1100
0101
1100
,
0010
0000
0100
0000
0001
0000
1000
0000
0000
0000
0001
0100
0001
0000
1000
0000
,
0010
0000
0010
1000
0000
1000
0001
0000
0001
0100
0000
0100
,
0001
0000
0001
0010
0000
0010
0100
0000
0100
1000
0000
1000
,
0010
0100
0010
1000
0100
0001
0100
1000
,
0001
0100
0010
1010
0000
1100
0001
0100
,
0110
1000
0100
0001
,
0010
0000
0001
0000
0100
0010
1010
0000
,
0011
0100
1000
0001
,
0010
0001
0100
0101
0000
1010
0000
1100
,
0001
0100
0010
0000
1000
0000
0100
0000
,
1000
0110
0001
0110
,
1001
0010
1001
0010
,
1001
0000
0000
0000
0100
0000
0001
0000
0010
0000
0001
1000
0001
0000
0100
0000
,
0001
0000
0010
0100
0000
0100
1000
0000
1000
0010
0000
0010
,
0100
0000
0001
0100
0000
0001
0100
0000
0010
1000
0000
0010
,
1000
0000
0100
1000
0000
0001
1000
0000
0100
1000
0000
0001
,
0010
0000
0001
0100
0000
0100
0010
0000
0010
1000
0000
0001
,
0100
0000
0000
0010
0000
0000
1000
0000
0000
0000
0000
0000
1100
0000
0000
0000
0000
0000
0001
0000
1000
0000
0001
0000
,
1000
0000
0000
0100
0000
0000
0010
0000
0000
0000
0000
0000
0011
0000
0000
0000
0000
0000
0001
0000
0100
0000
0001
0000
,
0100
0000
0100
0010
0000
0010
0100
0000
0100
0010
0000
0010
,
1000
0000
0000
0000
0000
0000
0000
0000
0100
0000
0000
0000
1000
0000
0000
0000
0000
0000
0000
0000
0100
0000
0000
0000
1000
0000
0000
0000
0000
0000
0001
0000
0000
0100
0000
0000
0001
0000
0000
0000
0000
0000
1000
0000
0000
0000
0000
0000
,
1010
0101
0011
1100
,
0001
0010
0001
0100
1000
0010
0100
0000
,
0110
0101
0011
1100
,
0001
0000
0010
0000
0001
0000
1000
0000
0000
0000
0010
0100
0010
0000
1000
0000
,
0001
0100
0000
0000
1010
0000
0000
0100
1000
0000
0000
0000
0001
0000
0000
0000
,
0010
0001
0000
0000
0011
0000
0000
0000
1000
0100
0000
0000
1100
0000
0000
0000
,
0001
1000
0001
1000
0000
0000
0010
0100
0010
0100
0000
0000
,
0001
0000
0000
0000
0010
0000
0000
0000
0100
0000
0000
0000
1000
0000
0000
0000
0100
0000
0000
0000
0010
0000
0000
0000
0001
0000
0000
0000
0000
0000
1000
0000
0000
0100
0000
0000
1000
0000
0000
0000
0000
0000
0001
0000
0000
0000
0000
0000
,
0202
0000
0000
0000
0000
0000
0000
0000
0300
0000
0000
0000
1000
0000
0000
2000
,
0000
0000
0000
0000
3000
0000
0000
1000
0000
0000
0000
2000
0000
0000
0000
0000
,
3000
0000
0000
0000
1003
0000
0000
0100
0000
0000
0000
0020
0000
0000
0000
0000
,
0031
0000
0000
1000
0000
0001
0000
0100
0000
0010
0000
1000
0000
0002
0000
0000
0000
0000
0000
0000
0000
0000
0000
0000
,
0013
0000
0010
0001
0000
0001
1000
0000
1000
0100
0000
0100
,
0000
1000
0000
0000
1000
0000
0010
0000
0000
0000
0100
0000
0001
0000
0100
0000
0001
0000
0100
0000
0010
0000
0100
0000
,
0000
0000
0010
0000
0000
0000
1000
0000
0000
0000
0000
0000
0000
0000
0000
0000
1000
0000
0000
0000
0100
0000
0000
0000
0000
0000
0000
0100
0000
0000
0000
0000
1000
0000
0000
0000
0010
0000
0000
0000
0100
0000
0000
0000
0001
0000
0000
0010
,
0000
0000
0000
0000
0000
0000
0000
0000
0000
0000
0000
0000
0000
0000
0000
0000
0001
0000
0000
0000
0000
0000
0000
0000
0000
0000
0000
0000
0000
0000
0000
0000
0000
0000
0000
0000
0000
0000
0000
0000
1000
0000
0000
0000
0000
0000
0000
0000
0000
0000
0000
0000
0000
0000
0000
0000
0010
0000
0000
0000
0000
0000
0000
0000
1000
0000
0000
0000
0000
0000
0000
0000
0000
0000
0000
0000
0000
0000
0000
0000
0100
0000
0000
0000
0000
0000
0000
0000
0000
0000
0000
0000
0000
0000
0000
0000
0000
0000
0000
0000
0000
0000
0000
0000
1000
0000
0000
0000
0000
0000
0000
0000
0000
0000
0000
0000
0000
0000
0000
0000
0001
0000
0000
0000
0000
0000
0000
0000
0000
0000
0000
0000
1000
0000
0000
0000
0000
0000
0000
0000
0000
0000
0000
0000
0000
0000
0000
0000
0000
0000
0010
0000
0000
0000
0000
0000
0000
0000
0000
0000
0100
0000
0000
0000
0000
0000
0000
0000
0000
0000
0000
0000
0000
0000
0000
0000
0001
0000
0000
0000
0000
0000
0000
0000
0000
0000
0000
0000
0000
0000
0000
0000
,
0000
0010
0000
0000
0100
0000
1000
0000
0001
0000
0000
0000
0100
0000
0000
0000
0010
0000
0000
0000
0100
0000
0000
0000
1000
0000
0000
0000
0100
0000
0000
0000
,
0001
0000
0010
0000
0200
0000
0000
0000
0000
0000
0000
1300
0001
0000
0200
0000
,
0000
0020
0000
0000
,
0000
0000
0000
0000
,
0000
0000
0000
0330
,
1010
0010
0100
0101
,
0001
1000
1100
0100
,
0010
0011
1000
0001
,
0011
0101
1001
0110
,
1010
2200
0000
0000
,
0000
0000
0000
0000
,
0000
0000
0000
0000
,
0000
0000
0000
0000
,
0000
0000
0000
0000
0300
0000
0000
0000
0000
0002
0000
0000
0000
0000
3000
0000
,
0000
0000
0000
0000
0000
0000
0013
0000
0000
0100
0000
0000
0010
0000
0000
0001
0000
0000
1000
0000
0100
0000
1000
0000
,
0001
0100
0001
0010
0100
1000
0010
1000
,
0100
0001
0010
0100
1000
0010
1000
0001
,
0100
0020
0000
0000
0000
0000
0000
0000
,
0000
0000
0000
0000
,
1030
0000
0000
0000
2020
0000
0000
0000
0030
0000
0000
0000
0000
3001
0000
0000
,
0100
0000
0000
0000
0000
0000
0000
0000
0000
0010
0000
0000
0000
0000
0000
2000
0000
0000
0000
0000
0000
0000
0000
0000
0000
0000
0000
0000
0000
0000
0000
0000
0000
0000
0000
0000
3100
0000
0000
0000
1000
0000
0000
0000
0100
0000
0000
0000
,
0010
0000
0001
0000
0000
0100
0000
0000
0010
1000
0000
0000
0000
0010
1000
0000
,
0000
0010
0000
1000
0000
0000
0010
0000
2000
0000
0000
0000
0000
0000
0000
0000
,
0000
0000
0000
0000
0000
0000
0000
0002
0000
0000
0000
0000
0000
0000
0000
0000
0000
0000
0000
0000
0000
0000
0000
0000
,
0000
0000
0000
0000
,
0000
0000
0000
0000
0000
0000
3003
0000
0000
0000
0000
0000
0011
0000
0000
0000
0000
0000
0000
0011
0000
0000
0000
0000
,
0000
1100
0000
0000
1100
0000
0010
0000
,
1001
0000
0000
0000
;
