#TITLE:Let the beat hit em! (BM IIDX version);
#SUBTITLE:;
#ARTIST:Stone Bros.;
#TITLETRANSLIT:;
#SUBTITLETRANSLIT:;
#ARTISTTRANSLIT:;
#GENRE:;
#CREDIT:;
#BANNER:Let the beat hit em! (BM IIDX version)-bn.png;
#BACKGROUND:Let the beat hit em! (BM IIDX version)-bg.png;
#LYRICSPATH:;
#CDTITLE:;
#MUSIC:Let the beat hit em! (BM IIDX version).ogg;
#OFFSET:0.000000;
#SAMPLESTART:54.526001;
#SAMPLELENGTH:20.000000;
#SELECTABLE:YES;
#DISPLAYBPM:110.000000;
#BPMS:0.000000=110.039001
;
#STOPS:
;
#BGCHANGES:;
#KEYSOUNDS:;
#ATTACKS:;

//---------------dance-single - ----------------
#NOTES:
     dance-single:
     :
     Hard:
     13:
     0.550554,0.546482,0.371756,0.247838,0.384148,311.000000,281.000000,30.000000,20.000000,0.000000,0.000000,0.550554,0.546482,0.371756,0.247838,0.384148,311.000000,281.000000,30.000000,20.000000,0.000000,0.000000:
0000
0000
0000
0000
,
0000
0000
0000
0000
,
0000
0000
0000
0000
,
0000
0000
0000
0000
,
1000
0000
0001
0100
0001
0100
0001
0000
0010
0000
0100
2000
0000
0000
0000
0000
,
3001
0000
0100
0000
0010
0000
1000
0000
0100
0010
0001
0000
0011
0000
1000
0000
,
0002
0000
0000
0000
0103
0000
0010
0000
1000
0001
0100
0000
1010
0000
1000
0000
,
0100
0010
0000
0001
0000
0000
1000
0000
0010
0000
0100
0000
0010
0000
1000
0000
,
0101
0000
1000
0000
1100
0000
0010
0000
0001
0000
1000
0010
0000
0100
0000
0000
,
0110
0000
1001
0000
0000
0000
0010
0000
1000
0100
0010
0001
0000
0000
0100
0000
,
0001
0010
0001
0010
0001
0000
1000
0000
0010
0000
0100
0001
0000
1000
0100
0000
,
1001
0000
0010
0000
0100
0000
0001
0000
1000
0010
1000
0001
0000
0010
0100
0000
,
1100
0000
0000
0000
0101
0000
0000
0000
0010
0000
0100
1000
0000
1000
0001
0000
,
0110
0000
0000
0010
1000
0000
0010
0100
0000
0100
0001
0000
1000
0001
0000
0000
,
0010
0001
0010
0100
1000
0000
0000
0000
0001
0000
0100
0010
0000
0010
1000
0000
,
1010
0000
0000
0000
0001
0010
0001
0100
0000
0000
0010
1000
0100
0000
0010
0001
,
0100
0000
0010
0000
1000
0000
0001
0000
0010
0000
0100
0010
0000
0001
1000
0000
,
0011
0000
2000
0010
3002
0010
2003
0100
,
3001
0000
0010
0100
0000
0100
1000
0000
1001
0000
0110
0000
1001
0000
0000
0000
,
0011
0000
0200
1000
0320
1000
0230
1000
,
0301
0000
0100
1000
0000
1000
0010
0000
0010
0100
0000
0100
0001
0000
0001
0000
,
0101
0000
0002
0010
2003
0010
3002
0100
,
1003
0010
0100
0001
1000
0100
0010
0001
,
0101
0000
0020
1000
0230
1000
0320
1000
,
0230
0001
0320
1000
0230
1000
0302
0100
,
1003
0000
0001
0000
0010
0000
0001
0000
0100
0010
1000
0000
1010
0000
0100
0000
,
0001
0000
0010
0000
0001
0100
0001
0000
1000
0100
1000
0000
0110
0000
0001
0000
,
1000
0010
0000
0100
0000
0000
0001
0000
0010
0000
0100
0000
1000
0000
0001
0000
,
0100
0000
0010
0000
0000
0000
1000
0000
1100
0000
0010
0001
0000
0001
0100
0000
,
1001
0000
0010
0000
1000
0000
0100
0000
1000
0001
0010
0000
0001
0100
0010
0000
,
2000
0000
0000
0000
3100
0000
0010
0000
0001
1000
0001
0000
0011
0000
0100
0000
,
1000
0010
0000
0100
0000
0000
0001
0000
0010
0000
0100
0000
1000
0000
0001
0000
,
0101
0000
0010
0000
1100
0000
0010
0000
0001
0000
1000
0010
0000
0100
0000
0000
,
0110
0000
1000
0000
0001
0000
0010
0100
1000
0100
0010
0000
0001
0000
1000
0000
,
0002
0000
0100
0000
0103
0000
0010
1000
0001
1000
0010
0000
0100
0000
0001
0000
,
0010
0000
0100
1000
0000
0000
0001
0000
0100
0010
0000
0010
1000
0001
0000
0000
,
0011
0000
1100
0000
0101
1100
0001
0000
;

//---------------dance-single - ----------------
#NOTES:
     dance-single:
     :
     Medium:
     10:
     0.387689,0.409861,0.272621,0.346973,0.024784,219.000000,197.000000,22.000000,28.000000,0.000000,0.000000,0.387689,0.409861,0.272621,0.346973,0.024784,219.000000,197.000000,22.000000,28.000000,0.000000,0.000000:
0000
0000
0000
0000
,
0000
0000
0000
0000
,
0000
0000
0000
0000
,
0000
0000
0000
0000
,
1000
0000
0001
1000
0010
0100
0001
0000
,
0110
0001
1000
0010
1000
0100
0001
0000
,
0010
0000
0001
0100
0010
1000
0100
0010
,
0002
0000
0003
1000
0001
1000
0010
0100
,
0101
0000
0000
0000
1100
0000
0000
0000
0001
0000
1000
0000
0000
0010
0000
0000
,
1001
0000
0000
0010
0010
1000
0001
0000
,
0010
1000
0010
0100
0001
0010
1000
0000
,
1100
0001
1000
0010
1000
0100
0001
0000
,
0011
0000
1010
0000
0100
0001
1000
0010
,
1001
0000
0100
0001
0000
1000
0100
0000
,
0010
0001
0001
0000
0100
1000
1000
0001
,
0110
0000
0001
0100
0000
0010
1000
0100
,
1000
0010
1000
0001
0010
0100
1000
0001
,
1002
0000
0023
0000
0230
0000
1300
0002
,
0000
0203
0000
0000
0310
0110
1001
0000
,
0200
0000
0302
0000
0023
0000
0130
1000
,
0001
0000
0000
1000
0000
0000
0001
0000
0000
0100
0000
0000
0010
0000
0010
0000
,
2010
0000
3002
0000
0023
0000
0130
2000
,
0000
3002
0000
0000
0103
0010
1000
0001
,
0012
0000
2003
0000
3002
0000
0013
0100
,
2000
3020
0230
0302
,
0013
0100
1000
0001
1000
0010
0100
0001
,
0020
0000
0031
0100
0001
0010
0100
1000
,
0002
0000
0003
1000
0001
0100
0010
1000
,
0200
0000
0300
1000
0010
0100
0001
0000
,
1001
0001
0010
0001
0100
0010
1000
0100
,
2000
0000
3001
1000
0100
0010
0100
1000
,
0002
0000
0003
0010
0001
0100
0010
1000
,
1100
0000
0000
0000
0101
0000
0000
0000
1000
0000
0010
0000
0000
0100
0000
0000
,
0110
0001
1000
0001
0010
0100
1000
0001
,
0002
0000
0203
0000
0310
1000
0010
0100
,
0001
0010
0000
0001
1000
0000
0010
0000
,
1010
0000
0101
0000
1001
0110
0001
0000
;

//---------------dance-single - ----------------
#NOTES:
     dance-single:
     :
     Easy:
     7:
     0.233675,0.272312,0.247838,0.223054,0.000000,132.000000,112.000000,20.000000,18.000000,0.000000,0.000000,0.233675,0.272312,0.247838,0.223054,0.000000,132.000000,112.000000,20.000000,18.000000,0.000000,0.000000:
0000
0000
0000
0000
,
0000
0000
0000
0000
,
0000
0000
0000
0000
,
0000
0000
0000
0000
,
1000
0000
0001
0000
,
1001
0010
0001
0100
,
0010
1000
0100
0010
,
0001
0000
0100
0100
,
0101
1100
0000
0010
,
1001
0000
0100
0100
,
0001
0010
0001
0100
,
0010
1000
0100
0001
,
0011
1010
0100
0001
,
0110
1000
0100
0001
,
0010
0001
0100
1000
,
1001
0010
0001
0100
,
1000
0001
1000
0010
,
0120
0000
2030
0000
3002
0000
1003
0200
,
0000
0020
0000
0000
0000
0000
0330
0000
,
0012
0000
2003
0000
3200
0000
2300
0020
,
0000
0000
0000
3030
,
1200
0000
0320
0000
0032
0000
1003
0002
,
0000
0200
0000
0000
0000
0000
0303
0000
,
2001
0000
3020
0000
2030
0000
3001
0100
,
0001
0001
1000
1000
,
0110
1000
0100
0001
,
0010
0100
0010
0001
,
1000
0000
0010
0010
,
0100
0000
0001
1000
,
0110
1000
0100
0010
,
0001
0100
0001
1000
,
0010
0000
0100
0100
,
0101
1100
0000
0010
,
1001
0000
0110
0000
,
0001
0010
1000
0000
,
0100
0000
0010
0000
,
0011
0000
0101
0000
1000
0001
0000
0000
;

//---------------dance-single - ----------------
#NOTES:
     dance-single:
     :
     Beginner:
     3:
     0.122149,0.180921,0.074351,0.024784,0.000000,69.000000,63.000000,6.000000,2.000000,0.000000,0.000000,0.122149,0.180921,0.074351,0.024784,0.000000,69.000000,63.000000,6.000000,2.000000,0.000000,0.000000:
0000
0000
0000
0000
,
0000
0000
0000
0000
,
0000
0000
0000
0000
,
0000
0000
0000
0000
,
1000
0000
0001
0000
,
0100
0000
0010
0000
,
1000
0000
0001
0000
,
0010
0000
0001
0000
,
0100
0000
0010
0000
,
1001
0000
0100
0000
,
0001
0000
0010
0000
,
0001
0000
1000
0000
,
0110
0000
1001
0000
,
0110
0000
1000
0000
,
0100
0000
0001
0000
,
0010
0000
0100
0000
,
1000
0000
1000
0000
,
0001
0000
1000
0000
,
0020
0000
0030
0000
,
0100
0000
0010
0000
,
1000
0000
1000
0000
,
1000
0000
0001
0000
,
0200
0000
0300
0000
,
0001
0000
1000
0000
,
0010
0000
0010
0000
,
0100
0000
0001
0000
,
0010
0000
0100
0000
,
1000
0000
0010
0000
,
1000
0000
0001
0000
,
0010
0000
0001
0000
,
1000
0000
0001
0000
,
0100
0000
0010
0000
,
1000
0000
0001
0000
,
1001
0000
0000
0000
,
0110
0000
0000
0000
,
1000
0000
0100
0000
,
0001
0001
0001
0000
;

//---------------dance-single - ----------------
#NOTES:
     dance-single:
     :
     Challenge:
     15:
     0.785999,0.728643,0.371756,0.000000,1.177229,444.000000,414.000000,30.000000,0.000000,0.000000,0.000000,0.785999,0.728643,0.371756,0.000000,1.177229,444.000000,414.000000,30.000000,0.000000,0.000000,0.000000:
// measure 0
0000
0000
0000
0000
,  // measure 1
0000
0000
0000
0000
,  // measure 2
0000
0000
0000
0000
,  // measure 3
0000
0000
0000
0000
,  // measure 4
1000
0000
0010
0100
0010
0000
1000
0000
0100
0000
0010
0000
0001
0000
1000
0010
1000
0000
0001
0000
0100
0000
0000
0000
0010
0000
0000
0000
0000
0000
0000
0000
,  // measure 5
0110
0000
0100
0000
0001
1000
0001
0100
0010
1000
0100
0010
0001
1000
0010
0000
,  // measure 6
0100
0000
0001
1000
0001
0010
0100
1000
0010
0100
0010
1000
0100
0010
0001
0000
,  // measure 7
1000
0000
0010
0000
0100
0000
0001
1000
0001
0000
0010
0000
0100
0000
1000
0000
0010
0000
0100
0000
0010
0000
1000
0000
0100
0000
0010
0000
0001
0000
0000
0000
,  // measure 8
0101
0000
0010
0000
1100
0000
0010
0000
1001
0000
0100
0100
0000
0010
0010
1000
,  // measure 9
0110
0000
1001
0000
0000
0100
0001
0100
0010
1000
0100
0010
0000
0000
0001
1000
,  // measure 10
0001
0100
0010
1000
0100
0000
0010
0001
0100
0001
1000
0010
0000
1000
0100
0010
,  // measure 11
0011
0000
1000
0001
1000
0010
0100
0001
0010
0100
1000
0001
0000
0100
0010
1000
,  // measure 12
0001
0001
0000
0000
1000
1000
0000
0010
0100
0000
0001
1000
0000
1000
0100
0010
,  // measure 13
0110
0000
0000
0001
1000
0010
1000
0100
0000
0010
0001
0100
0001
1000
0000
0010
,  // measure 14
1000
0100
0010
0001
1001
0000
0000
0010
1000
0100
1000
0001
0000
0100
0010
1000
,  // measure 15
0110
0001
0000
0010
0100
0010
0001
1000
0000
0000
0010
0100
0001
0000
0010
0100
,  // measure 16
1000
0000
0001
0100
0001
0000
0010
0100
1000
0010
1000
0001
0000
0100
0010
1000
,  // measure 17
0101
0001
0000
1000
0100
0010
0001
0100
0000
0010
1000
0001
1000
0100
0000
0010
,  // measure 18
0001
0000
0001
0100
0000
0010
1000
0001
0100
0000
0010
1000
1001
0000
0100
0000
,  // measure 19
1010
0001
1000
0100
0000
0010
0001
1000
0010
0000
1000
0100
0001
0000
0000
0010
,  // measure 20
0011
0000
0100
1100
0000
0001
0101
0000
0010
1010
0000
0100
0110
0000
1001
0000
,  // measure 21
0110
0000
0000
1000
0000
0100
0000
0010
0000
0001
1000
0000
0010
0100
0010
1000
,  // measure 22
0001
0100
0000
0001
1000
0000
0010
0100
0010
1000
0100
0001
0000
0010
0100
1000
,  // measure 23
1100
0000
0000
0001
0000
0100
0010
0000
1000
0100
1000
0001
0000
0010
0100
0000
,  // measure 24
1000
0010
1000
0010
0100
0001
0100
0001
1000
0100
1000
0100
0010
0001
0010
0001
,  // measure 25
1001
0000
0100
0000
0001
0010
0001
0100
0010
1000
0100
0010
0100
1000
0001
0000
,  // measure 26
0100
0000
0010
0000
1000
0001
1000
0010
0100
0001
0010
0100
1000
0010
1000
0000
,  // measure 27
0001
0100
0001
0010
0100
0000
1000
0010
1000
0001
0010
0100
1000
0010
0100
0000
,  // measure 28
0001
1000
0001
0000
0010
0100
1000
0001
1000
0010
0100
0010
1000
0100
0001
0000
,  // measure 29
0110
0000
1000
0000
0100
1000
0010
0100
0001
0010
0001
1000
0010
0100
0001
0000
,  // measure 30
1000
0000
0010
0100
0010
1000
0100
1000
0001
0010
0001
0100
0010
1000
0001
0000
,  // measure 31
1000
0000
0100
0000
0000
0000
0010
0001
0010
0000
0100
0000
1000
0000
0010
0000
1000
0000
0001
0000
0100
0000
0010
0000
1000
0000
0001
0000
0100
0000
0000
0000
,  // measure 32
0101
0000
0010
0000
1100
0000
0010
0000
1001
0000
0100
0100
0000
0010
0010
0000
,  // measure 33
1001
0000
0000
0000
0100
0000
0000
0000
0001
0000
0000
0000
1000
0000
0010
0000
1000
0000
0001
0000
0010
0000
0100
0000
1000
0000
0001
0000
0100
0000
0010
1000
,  // measure 34
0001
0000
0100
0100
0010
0000
1000
1000
0001
0000
0010
0010
0100
0000
1000
1000
,  // measure 35
0001
0000
1000
0101
0000
0000
0010
0000
0001
1100
0000
0010
1000
1000
0100
0000
,  // measure 36
1010
0000
0000
0000
0000
0000
0001
0000
1000
0000
1000
0000
0100
0000
0010
0001
1000
0000
0010
0000
0100
0000
0000
0000
0001
0000
0000
0000
0000
0000
0000
0000
;
