#TITLE:Lesson by DJ;
#ARTIST:U.T.D. & Friends;
#BANNER:Lesson by DJ.png;
#BACKGROUND:Lesson by DJ-bg.png;
#JACKET:Lesson by DJ-jacket.png;
#MUSIC:Lesson by DJ.ogg;
#SAMPLESTART:19.969;
#SAMPLELENGTH:20;
#DISPLAYBPM:120;
#BPMS:0=120;
#BGCHANGES:;

//---------------dance-single - ----------------
#NOTES:
     dance-single:
     :
     Beginner:
     1:
     :
0000
0000
0000
0000
,
0000
0000
0000
0000
,
0000
0000
0000
0000
,
0000
0000
0000
0000
,
0000
0000
0000
0000
,
0000
0000
0000
0000
,
0000
0000
0000
0000
,
0000
0000
0000
0000
,
0000
0000
0000
0000
,
0000
0000
0000
0000
,
0000
0000
0000
0000
,
0000
0000
0001
0000
,
0000
0000
1000
0000
,
0000
0000
0010
0010
,
0000
0000
0100
0100
,
0000
0000
0000
0000
,
0010
0010
0010
0000
,
0000
0000
0000
0000
,
0000
0000
0000
0000
,
0200
0000
0000
0000
,
0300
0000
0000
0000
,
0000
0000
0000
0000
,
0000
0000
0000
0000
,
0000
0000
0000
0000
,
0000
0000
0000
0000
,
0000
0000
0000
0000
,
0000
0000
0001
0000
,
0000
0000
1000
0000
,
0000
0000
0001
1000
,
0000
0000
1000
0001
,
0000
0000
0000
0000
,
0001
1000
1000
0000
,
0000
0000
0000
0000
,
1000
0001
0001
0000
,
0000
0000
0000
0000
,
0000
0000
0000
0000
,
0000
0000
0000
0000
,
0001
0001
1000
1000
,
0001
1000
0001
0000
,
0000
0000
1001
0000
,
0000
0000
1001
0000
,
0000
0000
1001
0000
,
0000
0000
0000
0000
,
0000
0000
0000
0000
0100
0100
0001
0000
,
0000
0000
0000
0000
0100
0100
0001
0000
,
0000
0000
0000
0000
,
0000
0000
0000
0000
,
0000
0000
0000
0000
0100
0100
0001
0000
,
0000
0000
0000
0000
0100
0100
0001
0000
,
0000
0000
0000
0000
;

//---------------dance-single - ----------------
#NOTES:
     dance-single:
     :
     Easy:
     4:
     :
0000
0000
0000
0000
,
0000
0000
0000
0000
,
0000
0000
0000
0000
,
0000
0000
0000
0000
,
0000
0000
0000
0000
,
0000
0000
0000
0000
,
0000
0000
0000
0000
,
0000
0000
0000
0000
,
0000
0000
0000
0000
,
0000
0000
0000
0000
,
0001
0001
1000
1000
,
0001
0000
0001
0000
,
1000
0000
1000
0000
,
0010
0010
0010
0010
,
0100
0100
0100
0100
,
0010
0010
0010
0000
,
0010
0010
0010
0000
,
0000
1000
0001
1000
,
0200
0000
0000
0300
,
0200
0000
0000
0300
,
0000
1000
0000
0001
,
0000
0000
1000
0001
,
0000
0100
0000
0010
,
0000
0100
0000
0001
,
0000
0000
0000
0000
,
0001
0001
1000
1000
,
0001
0000
0001
0000
,
1000
0000
1000
0000
,
0001
1000
0001
1000
,
1000
0001
1000
0001
,
0001
1000
1000
0000
,
0001
1000
1000
0000
,
1000
0001
0001
0000
,
1000
0001
0001
0000
,
0001
0010
0100
1000
,
0001
0001
1000
1000
,
0001
1000
0001
0000
,
0001
0001
1000
1000
,
0001
1000
0001
0000
,
1001
0000
0110
0000
,
1001
0000
0110
0000
,
1001
0000
0110
0000
,
0000
1000
0100
0001
,
0100
0100
0001
0000
0100
0100
0001
0000
,
0100
0100
0001
0000
0100
0100
0001
0000
,
0000
0000
0000
0000
,
0000
0001
0100
1000
,
0100
0100
0001
0000
0100
0100
0001
0000
,
0100
0100
0001
0000
0100
0100
0001
0000
,
2000
0000
0000
0002
0000
0000
0000
0000
,
3003
0000
0000
0000
;

//---------------dance-single - ----------------
#NOTES:
     dance-single:
     :
     Medium:
     7:
     :
0000
0000
0000
0000
,
0000
0000
0000
0000
,
0000
0000
0000
0000
,
0000
0000
0000
0000
,
0000
0000
0000
0000
,
0000
0000
0000
0000
,
0000
0000
0000
0000
,
0000
0000
0000
0000
,
0000
0000
0000
0000
,
0000
0000
0000
0000
,
0001
0000
0001
0100
1000
0000
1000
0100
,
0002
0003
0002
0003
,
2000
3000
2000
3000
,
0010
0010
0010
0010
,
0100
0100
0100
0100
,
0010
0000
0010
0000
0010
1000
0001
0000
,
0010
0000
0010
0000
0010
0001
1000
0000
,
0000
0001
0100
0001
1000
0010
1000
0000
,
0200
0000
0000
0300
,
0200
0000
0000
0300
,
1000
0010
1000
0001
,
0010
0100
1000
0001
,
0010
0001
0100
0010
,
1000
0100
1000
0001
,
0010
0100
1000
0100
,
0001
0000
0001
0010
1000
0000
1000
0010
,
0002
0003
0002
0003
,
2000
3000
2000
3000
,
0001
1000
0001
1000
,
1000
0001
1000
0001
,
0001
1000
1000
0010
,
0001
0000
1000
0000
1000
0000
0010
0100
,
1000
0001
0001
0100
,
1000
0001
0001
0100
,
0010
0000
1000
0100
0001
0000
1000
0100
,
0001
0001
1000
1000
,
0001
0000
1000
0000
0001
0100
0100
0000
,
0001
0001
1000
1000
,
0001
0000
1000
0000
0001
0010
0010
0000
,
0011
0000
1100
0000
,
0101
0000
1010
0000
,
1001
0000
0110
0000
,
0000
0000
1000
0100
1000
0100
1000
0000
,
0100
0100
0001
0000
0100
0100
0001
0000
,
0100
0100
0001
0000
0100
0100
0001
0000
,
2000
3020
0230
0302
,
0013
0000
1000
0100
1000
0100
1000
0000
,
0100
0100
0001
0000
0100
0100
0001
0000
,
0100
0100
0001
0000
0100
0100
0001
0000
,
2000
0000
0000
0002
0000
0000
0000
0000
,
3003
0000
0000
0000
;

//---------------dance-single - ----------------
#NOTES:
     dance-single:
     :
     Hard:
     10:
     :
0000
0000
0000
0000
,
0000
0000
0000
0000
,
0000
0000
0000
0000
,
1000
1000
0010
0100
0001
0010
1000
0000
,
0100
0010
0100
1000
0001
0100
0010
0000
,
0100
0001
0010
0001
1000
0100
0001
0000
,
0010
0100
1000
0010
1000
0100
0001
0000
,
1000
0010
1000
0001
0010
0010
0100
0000
,
1000
0010
1000
0001
0010
0100
1000
0000
,
0010
1000
0001
0010
0001
0100
1000
0000
,
0001
1000
0000
0000
0001
0000
0100
0000
1000
0000
0000
0000
1000
0000
0100
0000
,
0002
0013
0002
0103
,
2000
3010
2000
3100
,
0010
0010
0010
0010
,
0100
0100
0100
0100
,
0010
0000
0010
0000
0010
0001
1000
0001
,
0010
0000
0010
0000
0010
0001
1000
0000
,
0001
0010
1000
0100
1000
0001
0010
0000
,
0200
0001
0010
1300
,
0200
1000
0010
0301
,
0100
1000
0001
0010
0001
0100
1000
0000
,
0010
1000
0001
0010
1000
0100
0001
0000
,
0010
0100
0010
0001
0100
0001
1000
0000
,
0100
1000
0001
0010
0100
1000
0010
0000
,
0100
0001
1000
0001
0010
0100
1000
0000
,
0010
1000
0000
0000
0010
0000
1000
0000
0100
0000
0000
0000
0100
0000
0010
0000
,
0002
0103
0002
0013
,
2000
3100
2000
3010
,
0002
2003
3001
1000
,
2000
3002
1003
0001
,
0002
0000
1000
0000
1003
0100
0010
0100
,
0002
0000
1000
0000
1003
0010
0100
0010
,
2000
0000
0001
0000
3001
0010
0100
0010
,
2000
0000
0001
0000
3001
0100
0010
0000
,
0100
0000
0001
0010
1000
0001
0100
1000
,
0001
0100
0001
0100
1000
0100
1000
0100
,
0001
0100
1000
0100
0001
0010
0010
0000
,
0001
0100
0001
0100
1000
0100
1000
0100
,
0001
0100
1000
0100
0001
0010
0010
0000
,
0011
1000
1010
0001
,
0101
0010
1100
0100
,
1001
0010
0110
1000
,
0001
0010
1000
0100
1000
0001
0100
0000
,
0100
0100
0001
0000
0100
0100
0001
0000
,
0100
0100
0001
0000
0100
0100
0001
0000
,
0010
0001
0010
0100
1000
0010
1000
0001
,
1000
0000
0100
1000
0010
0100
0001
0000
,
0100
0100
0001
1000
0100
0100
0001
0010
,
0100
0100
0001
1000
0100
0100
0001
0010
,
2000
0000
0000
0002
0000
0000
0000
0000
,
3003
0000
0000
0000
;
