#TITLE:LUV TO ME;
#SUBTITLE:(AMD 8-bit SPEEDY MIX);
#ARTIST:DJ KAZU feat. tiger YAMATO;
#BANNER:LUV TO ME (AMD 8-bit SPEEDY MIX)-bn.png;
#BACKGROUND:LUV TO ME (AMD 8-bit SPEEDY MIX)-bg.png;
#JACKET:LUV TO ME (AMD 8-bit SPEEDY MIX)-jacket.png;
#MUSIC:LUV TO ME (AMD 8-bit SPEEDY MIX).ogg;
#SAMPLESTART:30.592;
#SAMPLELENGTH:20;
#DISPLAYBPM:211;
#BPMS:0=210.84;
#BGCHANGES:;

//---------------dance-single - ----------------
#NOTES:
     dance-single:
     :
     Beginner:
     6:
     :
0000
0000
0000
0000
,
0000
0000
0000
0000
,
0000
0000
0000
0000
,
0000
0000
0000
0000
,
0000
0000
0000
0000
,
0000
0010
0010
0010
,
0000
0000
0001
0000
,
2000
0000
0000
0000
,
0010
0010
0010
3010
,
1000
0000
0001
0000
,
0000
0100
0000
0100
,
0000
0010
0000
0010
,
0000
1000
0000
0001
,
0000
0010
0000
0100
,
0000
1000
0000
0100
,
0000
1000
0000
0100
,
0000
1000
0000
0001
,
0100
0100
0100
0100
,
0010
1000
0010
0000
,
1000
0001
0100
0000
,
0001
0010
1000
0000
,
0100
0010
0100
0000
,
1000
1000
1000
0000
,
0010
0100
0001
0000
,
1000
1000
0001
0001
,
0100
0010
0200
0300
,
0001
0001
0001
0001
,
0010
0000
1000
0000
,
0010
0000
0100
0000
,
0001
0000
0010
0000
,
0100
1000
0001
0000
,
0100
0000
0010
0000
,
0100
0000
0001
0000
,
0010
0000
0100
0000
,
1000
0010
0100
0000
,
0001
0001
0001
0000
,
1000
1000
1000
0000
,
1001
0000
0110
0000
,
0001
0100
0001
0100
,
0010
0010
0010
0000
,
1000
0100
1000
1000
,
0001
0010
0001
0001
,
0100
0010
0100
0100
,
0001
0010
0001
0000
,
0100
0001
0010
0000
,
0100
1000
0001
0000
,
1000
0010
0100
0000
,
0010
1000
0001
0000
,
1000
0100
0001
0000
,
0010
0010
0100
0100
,
1000
0001
2000
3000
,
0010
0010
0010
0010
,
1000
0000
0100
0000
,
1000
0000
0010
0000
,
0100
0000
0001
0000
,
0010
0001
0100
0000
,
0001
0000
0010
0000
,
1000
0000
0100
0000
,
1000
1000
0001
0001
,
1000
0100
0010
0000
,
0110
0000
0000
0001
,
2002
0000
0000
0000
,
0000
0000
3003
0000
;

//---------------dance-single - ----------------
#NOTES:
     dance-single:
     :
     Easy:
     10:
     :
0000
0000
0000
0000
,
0000
0000
0000
0000
,
0000
0000
0000
0000
,
0000
0000
0000
0000
,
0000
0000
0000
0000
,
0000
0010
0000
1000
0000
0001
0000
0100
,
0000
0001
0000
0010
0000
0001
1000
0100
,
2000
0010
0100
3001
,
1001
0000
0110
0000
1000
0100
0010
0001
,
0200
0000
0000
0310
1000
0002
0000
0003
,
0000
0010
0000
0001
0000
0100
0000
1000
,
0000
0010
0000
0100
0000
0001
1000
0001
,
0000
1000
0200
0000
0310
0002
0000
0103
,
0020
0000
1030
0002
0000
1003
0200
0000
,
0300
1000
0010
0000
0100
0000
0001
0000
,
0010
0100
0000
1000
0000
0010
0100
0020
,
0000
1030
0002
0000
0013
0200
0000
1300
,
0001
0000
0001
0000
0001
1000
0100
0000
,
0000
1010
0000
1010
0000
1010
0000
1010
,
0000
0001
0000
0100
0000
0010
0000
1000
,
0000
0101
0000
0101
0000
0101
0000
0101
,
0000
0010
0000
1000
0000
0001
0100
0000
,
0010
1000
0000
1100
0000
1100
0000
1100
,
0000
1100
0000
0001
0000
1000
0000
0100
,
0020
0000
0032
0000
0103
0010
1000
0000
,
0001
0000
0000
1000
0000
0000
0010
0000
0200
0000
0000
0000
0300
0000
0000
0000
,
0101
1100
0101
1100
,
0000
0000
0000
0000
0010
0000
0000
1000
0000
0000
0001
0000
0100
0000
0000
0000
,
0000
0000
0000
0000
0001
0000
0000
0010
0000
0000
0100
0000
1000
0000
0000
0000
,
0000
0000
0000
0000
0100
0000
0000
1000
0000
0000
0001
0000
0010
0000
0000
0000
,
0000
0000
0000
0000
1000
0000
0000
0100
0000
0000
0010
0000
0001
0000
0000
0000
,
0000
0000
0000
0000
0010
0000
0000
0100
0000
0000
1000
0000
0001
0000
0000
0000
,
0000
0000
0000
0000
1000
0000
0000
0010
0000
0000
0001
0000
0100
0000
0000
0000
,
0000
0000
0000
0000
0001
0000
0000
1000
0000
0000
0100
0000
0010
0000
0000
0000
,
0011
1100
0011
1100
,
0001
0100
0010
2000
0000
3002
0000
2003
,
0000
3200
0000
0320
0000
0032
0000
0203
,
0000
0310
1000
0002
0000
1003
0100
0000
,
0010
0001
0000
1000
0000
0001
1000
0010
,
0100
0001
0100
0020
0000
2030
0000
3002
,
0000
2003
0000
3200
0000
0320
0000
0031
,
0100
0010
1000
0000
1001
0000
0110
0000
,
0100
0000
0100
0000
0100
0010
1000
0000
,
0000
1010
0000
1010
0000
1010
0000
1010
,
0000
0001
0000
0010
0000
0100
0000
1000
,
0000
0011
0000
0011
0000
0011
0000
0011
,
0000
0100
0000
0010
0000
1000
0001
0000
,
0000
1100
0000
1100
0000
1100
0000
1100
,
0000
0010
0000
1000
0000
0100
0000
0001
,
1000
0100
1000
0000
0001
0100
0001
0000
,
0100
0000
0000
0010
0000
0000
2000
0000
0002
0000
0000
0000
3003
0000
0000
0000
,
1100
0110
0011
1001
,
0010
0100
0010
0100
0000
0000
0000
0001
,
1000
0100
1000
0001
0000
0000
0000
0010
,
0001
1000
0001
0020
0000
0130
1000
0020
,
0000
1030
0001
0100
0000
0000
0000
0000
,
0001
0010
0100
1000
0000
0000
0000
0010
,
1000
0100
1000
0010
0000
0000
0000
0100
,
0001
0010
0100
2000
0000
3010
0100
0000
,
0101
1100
0011
1010
,
0001
1000
0010
0000
0010
2000
0000
3001
,
0200
0000
0000
0020
0000
0000
0000
0000
0000
0000
0000
0000
0000
0000
0000
0000
,
0000
0000
0330
0000
;

//---------------dance-single - ----------------
#NOTES:
     dance-single:
     :
     Medium:
     13:
     :
0000
0000
0000
0000
,
0000
0000
0000
0000
,
0000
0000
0000
0000
,
0000
0000
0000
0000
,
0000
0000
0000
0000
,
0000
0010
1000
0001
1000
0100
0010
0001
,
0000
0100
0000
0010
1000
0001
0010
0100
,
1000
0010
1000
0001
1000
0100
1000
0010
,
0100
0001
0100
1000
0100
0010
1000
0001
,
0010
0100
1000
0010
1000
0001
0100
0010
,
0000
1010
0000
0001
1000
0010
1000
0100
,
1000
0001
0000
0011
0000
0100
0010
1000
,
0001
0010
1000
0001
0100
1000
0000
0010
,
1000
0001
1000
0100
0000
0010
0002
0000
,
0103
0010
1000
0000
1000
0001
1000
0100
,
0010
0001
0100
0001
0000
1000
0010
0200
,
0000
0301
0010
0001
0100
1000
0000
0010
,
1000
0001
1000
0100
0010
0001
0100
0000
,
0101
0000
0000
0000
1010
0000
0000
0001
1000
0000
0100
0000
0010
0000
0000
0000
,
0001
0100
0010
2000
0000
3002
0000
0013
,
0001
0100
0010
1000
0001
0000
0000
0010
,
0001
0000
0000
0011
0000
0000
2100
0000
0000
0000
3001
1000
0001
0000
0000
0000
,
0010
0001
1000
0001
0100
0000
0000
0000
,
0001
0010
0001
2000
0000
3100
0000
0000
,
1000
0010
1000
0001
0010
0100
0001
0100
,
2000
0000
0000
3020
0000
0000
0130
0000
0002
0000
1000
0000
0000
0000
1003
0000
,
0020
0000
0000
0000
0100
0000
0000
0000
0130
0000
0000
0001
1000
0000
0100
0000
,
1000
0010
0100
0001
0000
0011
0000
1001
,
0000
0010
1000
0100
0000
0110
0000
0001
,
1000
0001
0010
0100
0000
1100
0000
1010
,
0000
0001
1000
0200
0000
0320
0000
0031
,
0100
0010
1000
0001
0000
0011
0000
0100
,
1000
0010
1000
0001
0000
0110
0000
0100
,
1000
0010
1000
0100
0000
1010
0000
0001
,
1000
0010
1000
0100
0010
0001
0100
0010
,
1000
0000
0101
0000
1000
0100
0010
0001
,
0100
0010
1000
0010
0001
0010
1000
0100
,
0010
0000
0000
0001
0000
0000
0100
0000
0010
0000
0000
1000
0000
0000
0100
0000
,
1000
0001
0000
0011
0000
0010
0001
0100
,
1000
0000
0000
0001
0000
0000
0010
0000
0001
0000
1000
0000
0100
0000
0010
0000
,
0000
0000
0001
0000
0100
0000
0010
2000
0000
0000
0000
0000
3200
0000
0000
0000
,
1300
0001
1000
0010
0100
1000
0100
0001
,
0010
1000
0010
0100
0010
0001
0100
0000
,
1001
0000
0000
0000
0110
0000
0000
0001
0010
0000
0100
0000
1000
0000
0000
0000
,
0001
0010
0001
0200
0000
0320
0000
1030
,
0100
0010
0001
0100
1000
0000
0000
0001
,
0100
0000
0000
0101
0000
0000
2100
0000
0000
0000
3001
1000
0001
0000
0000
0000
,
0010
0001
0100
0001
1000
0000
0000
0000
,
0001
0010
0001
0200
0000
0310
0000
0000
,
1000
0001
0010
0001
0100
1000
0100
0010
,
2000
0000
0000
3002
0000
0000
0103
0000
0020
0000
1000
0000
0000
0000
1030
0000
,
0002
0000
0000
0000
1000
0000
0000
0000
1003
0000
0000
0010
0100
0000
0001
0000
,
1000
0100
0010
0001
0000
0011
0000
0000
,
0001
0100
0010
1000
0000
1100
0000
0000
,
0010
1000
0001
0100
0000
0110
0000
0000
,
0001
0010
1000
0001
0100
2000
0000
3010
,
1000
0001
1000
0100
0010
0001
0100
0000
,
0001
0010
0100
2000
0000
3020
0000
0130
,
0001
0010
0100
1000
0001
1000
0010
0100
,
0001
0010
0001
0100
0010
1000
0001
0100
,
0001
0001
0010
0100
1000
0010
1000
0001
,
0100
0000
0000
0220
0000
0000
0000
0000
0000
0000
0000
0000
0000
0000
0000
0000
,
0000
0000
0330
0000
;

//---------------dance-single - ----------------
#NOTES:
     dance-single:
     :
     Hard:
     16:
     :
0000
0000
0000
0000
,
0000
0000
0000
0000
,
0000
0000
0000
0000
,
0000
0000
0000
0000
,
0000
0000
0000
0000
,
0010
1000
0100
0001
0100
0010
0001
1000
,
0010
1000
0100
0010
1000
0010
0001
0100
,
0010
0001
0010
0100
0001
1000
0100
0010
,
0001
0100
0001
0000
1000
0100
1000
0000
0001
0010
0001
0000
1000
0010
1000
0000
,
0001
1000
0001
1000
0001
1000
0001
1000
0001
0000
0100
0000
0100
0000
0100
0000
,
0010
1000
0001
0010
1000
0010
0100
1000
,
0010
0001
0010
0100
0001
0010
0001
1000
,
0010
2000
3002
0013
0002
0203
0310
1000
,
0200
0320
0032
0203
0310
2000
3002
0103
,
0010
1000
0001
1000
0100
0001
0100
0010
,
0001
0100
0010
1000
0000
0020
2030
3002
,
1003
0000
0200
0000
0302
0000
0103
0010
0001
0000
0100
0000
0010
0000
1000
0000
,
0001
0010
0001
0000
1000
0100
1000
0000
0010
0100
0010
0100
0001
0010
0100
1000
,
0010
0000
1000
0000
0100
0000
0010
0001
1000
0000
0010
0000
0100
0000
0001
0000
,
0010
0100
1000
0020
1030
0002
1003
0100
,
0001
1000
0010
0100
0001
0010
0100
1000
,
1001
0000
0000
1010
0000
0000
1100
0000
0010
0000
0001
0100
0001
0000
0000
0000
,
0010
0001
0100
1000
0100
0010
1000
0001
,
0010
0000
0100
0000
1000
0000
0010
1000
0001
0000
1000
0000
0100
0000
0010
0001
,
0100
0010
1000
0100
0001
0010
0001
1000
,
1100
0000
0000
0110
0000
0000
0011
0000
0101
0000
1000
0010
0000
0100
0001
0000
,
0012
0000
0000
0000
1000
0000
0000
0000
1003
0000
0000
0010
0100
0000
0001
0000
,
0010
0000
0100
0000
1000
0000
0010
0100
0000
0100
0001
0000
1000
0000
0100
0000
,
0001
0000
0100
0000
0010
0000
0001
1000
0000
1000
0010
0000
0100
0000
0001
0000
,
0100
0000
0010
0000
0001
0000
0010
1000
0000
1000
0001
0000
1000
0000
0100
0000
,
0001
0000
0100
0000
1000
0000
0001
0010
0000
0010
0100
0000
1000
0000
0001
0000
,
0100
0000
0010
0000
1000
0000
0100
0010
0000
0010
0001
0000
0100
0000
1000
0000
,
0100
0000
0010
0000
0100
0000
0001
1000
0000
1000
0100
0000
0010
0000
0001
0000
,
0010
0000
1000
0000
0010
0000
0100
1000
0000
1000
0001
0000
0100
0000
0010
0000
,
1000
0001
1000
0001
0100
0010
0100
0010
1000
0000
0100
0000
0010
0000
0001
0000
,
0100
0000
0010
0000
1000
0000
0001
0000
0010
0100
1000
0010
0100
0000
0001
0000
,
0010
0000
0001
0000
1000
0000
0010
0000
1000
0100
1000
0001
0010
0000
0100
0000
,
1000
0010
1000
0010
1000
0000
0001
0000
0010
0100
0010
0100
0010
0000
0001
0000
,
1001
1001
0000
1010
0000
0101
0101
0101
,
0010
0000
0001
0100
0000
0001
1000
0000
0020
0000
0100
0000
0130
0000
0002
0000
,
1003
0000
0010
0000
0100
0000
0001
0010
2000
0000
0001
0000
3001
0000
0100
0000
,
0010
0000
0001
0000
0010
0000
1000
0000
0100
0010
0001
0100
0001
0000
1000
0000
,
0010
1000
0010
0000
1000
0100
1000
0000
0001
0010
0001
0000
0100
0001
0100
0000
,
0010
0000
1000
0000
0001
0000
1000
0100
0010
0000
0001
0000
0100
0000
0010
0000
,
1000
0001
1000
0200
0310
0002
0103
0010
,
1000
0001
0010
1000
0010
0100
1000
0001
,
0011
0000
0000
0101
0000
0000
1001
0000
0010
0000
1000
0001
0100
0000
0010
0000
,
1000
0001
1000
0010
0001
0010
1000
0100
,
0010
0001
0100
0020
1030
0002
1003
0100
,
0010
0000
0010
0000
0010
0000
0001
0000
0100
0000
0010
1000
0000
1000
0001
0000
,
0101
0000
0000
0110
0000
0000
1010
0000
1100
0000
0001
0000
1000
0000
0100
0000
,
0012
0000
0000
0000
1000
0000
0000
0000
1003
0000
0001
0010
0100
0000
0010
0000
,
0001
0100
0010
1000
0100
0001
0010
0000
,
0001
0100
1000
0010
1000
0100
0010
0000
,
0001
1000
0010
0001
0010
1000
0100
0000
,
1000
0010
0100
0010
1000
0000
0001
0000
0011
0000
0021
0000
0000
0000
0130
0000
,
1000
0000
0010
0000
1000
0000
0001
0000
0010
0100
1000
0000
0001
0000
0100
0000
,
0010
0000
0100
0000
0001
0000
0010
0000
1000
0100
0010
0000
0001
0000
1000
0000
,
0010
0001
1000
0100
1000
0010
0100
0001
,
0010
0001
0100
0000
0010
1000
0100
0000
0001
0010
0100
1000
0100
0010
0001
0000
,
1001
0000
1001
0000
0010
1000
0001
0000
0010
0100
1000
0010
0100
0001
1000
0000
,
0110
0000
0000
0022
0000
0000
0000
0000
0000
0000
0000
0000
0000
0000
0000
0000
,
0000
0000
0033
0000
;
