#VERSION:0.83;
#TITLE:LOVIN' YOU (ROB SEARLE CLUB MIX);
#SUBTITLE:;
#ARTIST:VINYL BABY;
#TITLETRANSLIT:;
#SUBTITLETRANSLIT:;
#ARTISTTRANSLIT:;
#GENRE:;
#ORIGIN:;
#CREDIT:;
#BANNER:LOVIN' YOU (ROB SEARLE CLUB MIX)-bn.png;
#BACKGROUND:LOVIN' YOU (ROB SEARLE CLUB MIX)-bg.png;
#PREVIEWVID:;
#JACKET:LOVIN' YOU (ROB SEARLE CLUB MIX)-jacket.png;
#CDIMAGE:;
#DISCIMAGE:;
#LYRICSPATH:;
#CDTITLE:;
#MUSIC:LOVIN' YOU (ROB SEARLE CLUB MIX).ogg;
#OFFSET:0.000000;
#SAMPLESTART:3.430000;
#SAMPLELENGTH:20.000000;
#SELECTABLE:YES;
#DISPLAYBPM:137.000000:141.000000;
#BPMS:0.000=137.377,
4.000=137.666,
24.000=141.296,
32.000=139.715,
40.000=138.625,
44.000=139.764,
48.000=138.697,
72.000=138.759;
#STOPS:;
#DELAYS:;
#WARPS:;
#TIMESIGNATURES:0.000=4=4;
#TICKCOUNTS:0.000=4;
#COMBOS:0.000=1;
#SPEEDS:0.000=1.000=0.000=0;
#SCROLLS:0.000=1.000;
#FAKES:;
#LABELS:0.000=Song Start;
#BGCHANGES:19.000=LOVIN' YOU (ROB SEARLE CLUB MIX).mp4=1.000=1=0=0=StretchNoLoop==CrossFade==,
99999=-nosongbg-=1.000=0=0=0 // don't automatically add -songbackground-
;
#KEYSOUNDS:;
#ATTACKS:
;

//---------------dance-single - ----------------
#NOTEDATA:;
#CHARTNAME:;
#STEPSTYPE:dance-single;
#DESCRIPTION:;
#CHARTSTYLE:;
#DIFFICULTY:Beginner;
#METER:3;
#RADARVALUES:0.117810,0.133875,0.000000,0.000000,0.000000,77.000000,77.000000,0.000000,0.000000,0.000000,0.000000,0.000000,0.000000,0.000000,0.117810,0.133875,0.000000,0.000000,0.000000,77.000000,77.000000,0.000000,0.000000,0.000000,0.000000,0.000000,0.000000,0.000000;
#CREDIT:;
#DISPLAYBPM:139.000000;
#NOTES:
0000
0000
0000
0000
,
0000
0000
0000
0000
,
0000
0000
0000
0000
,
0000
0000
0000
0000
,
0000
0000
0000
0000
,
0000
0000
0000
0000
,
0001
0000
0000
0000
,
0001
0000
0000
0000
,
1000
0000
0000
0000
,
1000
0000
0000
0000
,
0001
0000
0000
0000
,
0001
0000
0000
0000
,
1000
0000
0000
0000
,
1000
0000
0000
0000
,
0001
0000
0000
0000
,
0001
0000
0000
0000
,
1000
0000
0000
0000
,
1000
0000
0000
0000
,
0001
0000
0001
0000
,
1000
0000
1000
0000
,
0001
0000
0001
0000
,
1000
0000
1000
0000
,
0010
0000
0010
0000
,
0010
0000
0010
0000
,
0010
0000
0010
0000
,
0010
0000
0010
0000
,
1000
0000
1000
0000
,
1000
0000
1000
0000
,
0100
0000
0100
0000
,
0100
0000
0100
0000
,
0010
0000
0010
0000
,
0010
0000
0010
0000
,
0001
0000
0001
0000
,
0001
0000
0001
0000
,
0001
0000
0001
0000
,
0001
0000
0001
0000
,
0010
0000
0010
0000
,
0010
0000
0010
0000
,
1000
0000
1000
0000
,
1000
0000
1000
0000
,
0100
0000
0100
0000
,
0100
0000
0100
0000
,
0010
0000
0010
0000
,
0010
0000
0010
0000
,
0001
0000
0001
0000
,
0001
0000
0001
0000
,
0010
0000
0010
0000
,
0010
0000
0010
0000
,
1000
0000
1000
0000
,
1000
0000
1000
0000
,
0100
0000
0000
0000
,
0000
0000
0000
0000
;

//---------------dance-single - ----------------
#NOTEDATA:;
#CHARTNAME:;
#STEPSTYPE:dance-single;
#DESCRIPTION:;
#CHARTSTYLE:;
#DIFFICULTY:Medium;
#METER:8;
#RADARVALUES:0.316709,0.455173,0.000000,0.042840,0.000000,207.000000,207.000000,0.000000,4.000000,0.000000,0.000000,0.000000,0.000000,0.000000,0.316709,0.455173,0.000000,0.042840,0.000000,207.000000,207.000000,0.000000,4.000000,0.000000,0.000000,0.000000,0.000000,0.000000;
#CREDIT:;
#DISPLAYBPM:139.000000;
#NOTES:
0000
0000
0000
0000
,
0000
0000
0000
0000
,
0000
0000
0000
0000
,
0000
0000
0000
0000
,
0000
0000
0000
0000
,
0000
0000
0000
0000
,
0002
0000
0000
0003
,
2000
0000
0000
3000
,
0200
0000
0000
0300
,
0200
0000
0000
0300
,
0010
0010
0010
0010
,
0010
0010
0010
0010
,
0001
0001
0001
0001
,
0001
0001
0001
0001
,
1000
1000
1000
1000
,
0100
0100
0100
0100
,
0001
0001
0001
0001
,
0100
0100
0100
0100
,
0010
0000
0010
0000
1000
0100
1000
0000
,
0001
0000
0001
0000
0100
0010
0100
0000
,
0001
0000
0001
0000
1000
0010
1000
0000
,
0100
0000
0100
0000
0010
0001
0010
0000
,
1000
0000
1000
0000
0010
0100
0010
0000
,
1000
0000
1000
0000
0001
0010
0001
0000
,
0100
0100
0100
0100
,
0010
0010
0010
0010
,
1000
0100
1000
0000
0001
0000
0001
0000
,
0100
0010
0100
0000
0001
0000
0001
0000
,
0010
0100
0010
0000
0001
0000
0001
0000
,
1000
0010
1000
0000
0001
0000
0001
0000
,
0010
0100
0010
0000
0001
0100
0001
0000
,
1000
0010
1000
0000
0100
0010
0100
0000
,
1000
1000
1000
1000
,
0001
0001
0001
0001
,
0100
0000
0010
1000
0010
0000
0100
0000
,
0001
0000
0010
0100
0010
0000
0001
0000
,
1000
0000
0010
0100
0001
0000
1000
0000
,
0100
0000
0010
0001
1000
0000
0010
0000
,
0100
0000
0100
0000
0001
0010
0001
0000
,
0100
0000
0100
0000
0010
1000
0010
0000
,
0100
0000
0001
0010
0100
0000
1000
0000
,
0001
0100
0010
0000
1000
0000
0001
0000
,
0100
0000
0100
0000
0010
1000
0001
0000
,
0010
0000
0010
0000
0100
1000
0010
0000
,
0100
0000
0001
1000
0100
0000
0010
0000
,
0001
1000
0010
0000
0100
0000
0001
0000
,
1000
0100
1000
0100
1000
0100
1000
0100
,
0010
0001
0010
0001
0010
0001
0010
0001
,
0100
0010
0100
0010
0100
0010
0100
0010
,
1000
0001
0010
0100
1000
0010
0100
0001
,
1000
0000
0000
0000
,
0000
0000
0000
0000
;

//---------------dance-single - ----------------
#NOTEDATA:;
#CHARTNAME:;
#STEPSTYPE:dance-single;
#DESCRIPTION:;
#CHARTSTYLE:;
#DIFFICULTY:Hard;
#METER:12;
#RADARVALUES:0.434519,0.640991,0.000000,0.021420,0.337364,284.000000,284.000000,0.000000,2.000000,0.000000,0.000000,0.000000,0.000000,0.000000,0.434519,0.640991,0.000000,0.021420,0.337364,284.000000,284.000000,0.000000,2.000000,0.000000,0.000000,0.000000,0.000000,0.000000;
#CREDIT:;
#DISPLAYBPM:139.000000;
#NOTES:
0000
0000
0000
0000
,
0000
0000
0000
0000
,
0000
0000
0000
0000
,
0000
0000
0000
0000
,
0000
0000
0000
0000
,
0000
0000
0000
0000
,
0001
0000
0001
1000
0100
0010
0001
0100
,
0020
0000
0000
0030
,
1000
0100
1000
0000
0001
0100
0001
0000
,
0020
0000
0000
0030
,
1000
0000
0000
0100
0000
0000
1000
0000
0000
0000
0001
0000
0100
0000
0010
0000
,
1000
0000
0000
0100
0000
0000
1000
0000
0000
0000
0001
0000
0100
0000
0010
0000
,
1000
0000
0000
0001
0000
0000
0010
0000
0000
0000
0100
0000
1000
0000
0010
0000
,
0100
0000
0000
0001
0000
0000
0010
0000
0000
0000
0100
0000
1000
0000
0001
0000
,
1000
0000
0100
0000
0010
0000
0000
0000
0001
0000
0000
0001
0000
0000
1000
0000
,
0100
0000
0010
0000
0001
0000
0000
0000
1000
0000
0000
1000
0000
0000
0100
0000
,
0010
0000
0001
0000
0100
0000
0000
0000
0010
0000
0000
0010
0000
0000
1000
0000
,
0001
0010
0100
0000
1000
0001
0100
0010
,
0000
0000
1000
0000
0000
0000
0001
0000
0010
0000
0000
0010
0000
0000
0100
0000
,
0000
0000
1000
0000
0000
0000
0010
0000
0100
0000
0000
0100
0000
0000
0001
0000
,
0000
0000
1000
0000
0000
0000
0100
0000
0010
0000
0000
0010
0000
0000
0001
0000
,
0000
0000
0100
0000
0000
0000
0010
0000
1000
0000
0000
1000
0000
0000
0100
0000
,
0000
0000
0010
0000
0000
0000
0001
0000
1000
0000
0000
1000
0000
0000
0010
0000
,
0000
0000
0100
0000
0000
0000
0001
0000
0010
0000
0000
0010
0000
0000
0100
0000
,
1000
0100
1000
0100
1000
0000
0000
0000
0001
0100
0001
0100
0001
0000
0000
0000
,
1000
0010
1000
0010
1000
0000
0000
0000
0001
0010
0001
0010
0001
0000
0000
0000
,
0000
0000
1000
0000
0000
0000
0100
0000
0010
0000
0000
0001
0000
0000
0100
0000
,
0000
0000
0010
0000
0000
0000
1000
0000
0001
0000
0000
0010
0000
0000
0100
0000
,
0000
0000
1000
0000
0000
0000
0001
0000
0100
0000
0000
0010
0000
0000
1000
0000
,
0000
0000
0001
0000
0000
0000
0010
0000
0100
0000
0000
1000
0000
0000
0001
0000
,
0000
0000
0100
0000
0000
0000
0010
0000
1000
0000
0000
0100
0000
0000
0010
0000
,
0000
0000
0001
0000
0000
0000
0100
0000
0010
0000
0000
1000
0000
0000
0100
0000
,
0010
0001
0010
0001
0010
0000
0000
0000
0100
0010
0100
0010
0100
0000
0000
0000
,
1000
0100
1000
0100
1000
0000
0000
0000
0010
0001
0010
0001
0010
0000
0000
0000
,
1000
0000
0010
0000
0100
0000
0000
0000
0001
0000
0000
1000
0000
0000
0100
0000
,
0010
0001
0100
0000
0010
1000
0100
1000
,
0010
0000
0100
0000
0001
0000
0000
0000
1000
0000
0000
0100
0000
0000
0010
0000
,
0001
1000
0010
0000
0100
0001
0010
0001
,
1000
0000
0100
0000
0010
0000
0000
0000
0001
0000
0000
1000
0000
0000
0010
0000
,
0100
0001
0010
0000
0100
1000
0010
1000
,
0100
0000
0001
0000
1000
0000
0000
0000
0100
0000
0000
0010
0000
0000
0001
0000
,
1000
0010
0100
0000
0001
1000
0100
1000
,
0001
0000
0000
0100
0000
0000
0010
0000
1000
0000
0000
0100
0000
0000
0010
0000
,
0001
0000
0000
1000
0000
0000
0010
0000
0100
0000
0000
0001
0000
0000
1000
0000
,
0100
0000
0000
0010
0000
0000
0001
0000
0100
0000
0000
0010
0000
0000
1000
0000
,
0001
0000
0000
0010
0000
0000
0100
0000
1000
0000
0000
0001
0000
0000
0100
0000
,
0010
1000
0010
1000
0010
0000
0000
0000
0001
0010
0001
0010
0001
0000
0000
0000
,
0100
1000
0100
1000
0100
0000
0000
0000
0010
0100
0010
0100
0010
0000
0000
0000
,
0001
0010
0001
0000
1000
0100
1000
0000
0010
0100
0010
0000
1000
0100
1000
0000
,
0001
0010
0001
0000
0100
0010
0100
0000
0001
1000
0001
0000
0100
0010
0100
0000
;

//---------------dance-double - ----------------
#NOTEDATA:;
#CHARTNAME:;
#STEPSTYPE:dance-double;
#DESCRIPTION:;
#CHARTSTYLE:;
#DIFFICULTY:Easy;
#METER:4;
#RADARVALUES:0.175949,0.240974,0.000000,0.010710,0.000000,115.000000,115.000000,0.000000,1.000000,0.000000,0.000000,0.000000,0.000000,0.000000,0.175949,0.240974,0.000000,0.010710,0.000000,115.000000,115.000000,0.000000,1.000000,0.000000,0.000000,0.000000,0.000000,0.000000;
#CREDIT:;
#DISPLAYBPM:139.000000;
#NOTES:
00000000
00000000
00000000
00000000
,
00000000
00000000
00000000
00000000
,
00000000
00000000
00000000
00000000
,
00000000
00000000
00000000
00000000
,
00000000
00000000
00000000
00000000
,
00000000
00000000
00000000
00000000
,
10000000
00000000
01000000
00000000
,
00010000
00000000
00000000
00000000
,
00002000
00000000
00000000
00003000
,
00010000
00000000
00000000
00000000
,
00000010
00000000
00000000
00000000
,
00000010
00000000
00000000
00000000
,
00000100
00000000
00000000
00000000
,
00000100
00000000
00000000
00000000
,
00001000
00000000
00010000
00000000
,
00100000
00000000
10000000
00000000
,
01000000
01000000
00100000
00100000
,
00001000
00010000
00001000
00010000
,
00000010
00000000
00000100
00000000
,
00000001
00001000
00000100
00000000
,
00010000
00000000
00001000
00000000
,
00100000
10000000
00100000
00010000
,
01000000
00000000
00100000
00000000
,
00010000
00001000
00010000
00000000
,
00000010
00000000
00000010
00000000
,
00000100
00000000
00000100
00000000
,
00000001
00000000
00001000
00000000
,
00000100
00010000
00001000
00000000
,
00100000
00000000
10000000
00000000
,
00100000
00010000
01000000
00100000
,
00010000
00000000
00001000
00000000
,
00000010
00000001
00000100
00000000
,
00001000
00000000
00010000
00000000
,
00001000
00000000
00010000
00000000
,
00100000
00100000
00100000
00000000
,
10000000
10000000
10000000
00000000
,
01000000
01000000
01000000
00000000
,
00010000
00010000
00010000
00000000
,
00001000
00001000
00001000
00000000
,
00000100
00000100
00000001
00000001
,
00000010
00000010
00000010
00000000
,
00000100
00000100
00000100
00000000
,
00010000
00010000
00010000
00000000
,
00001000
00001000
00001000
00000000
,
00100000
00100000
00100000
00000000
,
00010000
00010000
00010000
00000000
,
10000000
10000000
01000000
01000000
,
00100000
00100000
00001000
00001000
,
00010000
00010000
00000100
00000100
,
00000010
00000001
00000100
00001000
,
00010000
00000000
00000000
00000000
,
00000000
00000000
00000000
00000000
;

//---------------dance-double - ----------------
#NOTEDATA:;
#CHARTNAME:;
#STEPSTYPE:dance-double;
#DESCRIPTION:;
#CHARTSTYLE:;
#DIFFICULTY:Medium;
#METER:7;
#RADARVALUES:0.310589,0.401624,0.000000,0.042840,0.000000,203.000000,203.000000,0.000000,4.000000,0.000000,0.000000,0.000000,0.000000,0.000000,0.310589,0.401624,0.000000,0.042840,0.000000,203.000000,203.000000,0.000000,4.000000,0.000000,0.000000,0.000000,0.000000,0.000000;
#CREDIT:;
#DISPLAYBPM:139.000000;
#NOTES:
00000000
00000000
00000000
00000000
,
00000000
00000000
00000000
00000000
,
00000000
00000000
00000000
00000000
,
00000000
00000000
00000000
00000000
,
00000000
00000000
00000000
00000000
,
00000000
00000000
00000000
00000000
,
20000000
00000000
00000000
30000000
,
00020000
00000000
00000000
00030000
,
00002000
00000000
00000000
00003000
,
00000002
00000000
00000000
00000003
,
00000100
00000000
00000010
00001000
00000010
00001000
00000010
00000000
,
00010000
00000000
00001000
00100000
00001000
00100000
00001000
00000000
,
01000000
00000000
00010000
10000000
00010000
10000000
00010000
00000000
,
00100000
00000000
01000000
10000000
01000000
10000000
01000000
00000000
,
00100000
00000000
00001000
00010000
00000100
00000000
00001000
00000001
,
00000100
00000000
00000010
00001000
00000100
00000000
00010000
00001000
,
00100000
01000000
10000000
00100000
,
01000000
00001000
00000100
00000001
,
00001000
00000000
00001000
00000000
00000100
00000000
00010000
00001000
,
00100000
00000000
00100000
00000000
00010000
00000000
01000000
00100000
,
00010000
00010000
00001000
00000010
,
00000001
00001000
00000100
00010000
,
00001000
00001000
00001000
00001000
,
00010000
00010000
00010000
00010000
,
00100000
00000000
10000000
00000000
01000000
00100000
00010000
00000000
,
01000000
00001000
00010000
00000010
,
00001000
00000000
00001000
00000000
00000001
00000000
00000010
00000100
,
00010000
00000000
00010000
00000000
00001000
00000000
00100000
00010000
,
01000000
00100000
10000000
01000000
,
00010000
00010000
00010000
00010000
,
00001000
00001000
00001000
00001000
,
00010000
00010000
00010000
00010000
,
00001000
00000000
00000100
00000000
00000001
00000000
00000010
00000100
,
00001000
00000000
00000001
00000000
00000100
00000000
00001000
00010000
,
01000000
10000000
00010000
01000000
,
00001000
00010000
00000010
00000010
,
00000100
00000000
00000100
00000000
00000001
00000000
00000001
00000010
,
00000100
00000100
00010000
00001000
,
00100000
00000000
00100000
00010000
01000000
00000000
01000000
00100000
,
10000000
00000000
10000000
01000000
00100000
00000000
00100000
00010000
,
01000000
00001000
00010000
00000010
,
00000100
00001000
00010000
00100000
,
10000000
00000000
10000000
00000000
01000000
00000000
00100000
00010000
,
01000000
00000000
00001000
00000000
00010000
00000000
00000010
00000001
,
00000010
00001000
00000100
00000010
,
00000001
00000001
00001000
00001000
,
00000100
00010000
00000100
00001000
00000100
00010000
00001000
00000000
,
00100000
00010000
00100000
10000000
00100000
00010000
01000000
00000000
,
00001000
00010000
00001000
00100000
00001000
00010000
00000100
00000000
,
00000010
00000001
00000100
00000001
00000010
00000100
00010000
00000000
,
00001000
00000000
00000000
00000000
,
00000000
00000000
00000000
00000000
;

//---------------dance-double - ----------------
#NOTEDATA:;
#CHARTNAME:;
#STEPSTYPE:dance-double;
#DESCRIPTION:;
#CHARTSTYLE:;
#DIFFICULTY:Hard;
#METER:11;
#RADARVALUES:0.477358,0.481948,0.010710,0.171359,0.000000,312.000000,311.000000,1.000000,16.000000,0.000000,0.000000,0.000000,0.000000,0.000000,0.477358,0.481948,0.010710,0.171359,0.000000,312.000000,311.000000,1.000000,16.000000,0.000000,0.000000,0.000000,0.000000,0.000000;
#CREDIT:;
#DISPLAYBPM:139.000000;
#NOTES:
00000000
00000000
00000000
00000000
,
00000000
00000000
00000000
00000000
,
00000000
00000000
00000000
00000000
,
00000000
00000000
00000000
00000000
,
00000000
00000000
00000000
00000000
,
00000000
00000000
00000000
00000000
,
00020000
00001000
00001000
00001000
00031000
00000000
00000000
00000000
,
00200000
00010000
00010000
00010000
00310000
00000000
00000000
00000000
,
20000000
00100000
00100000
00100000
30100000
00000000
00000000
00000000
,
02000000
00000000
03000000
00000000
,
00010000
10000000
00010000
01000000
00001000
00010000
00001000
00000100
,
00000001
00000010
00000001
00001000
00000100
00010000
00000100
00001000
,
00000010
00000100
00001000
00010000
01000000
10000000
00010000
01000000
,
00100000
10000000
00100000
01000000
00010000
00100000
00010000
01000000
,
00001000
00010000
00001000
00100000
01000000
00010000
00001000
00000100
,
00000001
00000010
00000001
00000100
00000010
00001000
00000010
00000100
,
00001000
00010000
00001000
00100000
01000000
10000000
00010000
01000000
,
00100000
00010000
00001000
00000010
00000001
00000100
00000010
00001000
,
00000100
00000010
00000001
00000100
00000010
00001000
00000001
00000100
,
00001000
00010000
00001000
01000000
00010000
00100000
01000000
10000000
,
00010000
01000000
00001000
00100000
01000000
00010000
00001000
00000100
,
00000001
00000010
00000100
00001000
00000001
00000100
00001000
00010000
,
00001000
00100000
00010000
01000000
00001000
00010000
00000010
00001000
,
00000100
00000010
00000001
00000100
00001000
00010000
01000000
10000000
,
00010000
01000000
00100000
10000000
01000000
00010000
00001000
00000010
,
00000001
00000100
00000001
00000100
00000001
00000100
00000001
00000000
,
00000010
00000100
00001000
00000001
00000100
00001000
00010000
00100000
,
10000000
01000000
00100000
00010000
01000000
10000000
01000000
00010000
,
00100000
10000000
00100000
00001000
00010000
00000100
00000010
00000001
,
00000100
00000010
00001000
00000100
00010000
00001000
00100000
00010000
,
10000000
00100000
01000000
00010000
00100000
01000000
00010000
00001000
,
00000100
00000001
00000010
00001000
00000010
00000001
00000100
00001000
,
00010000
01000000
00010000
00001000
00000100
00000001
00000010
00000100
,
00010000
00001000
00010000
00001000
00010000
00001000
00010000
00000000
,
00000020
00000000
00000130
00001000
00010000
01000000
10000000
00010000
,
02000000
00000000
03100000
10000000
01000000
00010000
00001000
00000100
,
00000002
00000000
00001003
00000100
00000010
00000001
00000100
00000010
,
00020000
00000000
00031000
00100000
01000000
10000000
00010000
01000000
,
00200000
00000000
10300000
01000000
00010000
00001000
01000000
00100000
,
20000000
00000000
31000000
00010000
00001000
00000100
00000001
00000010
,
00000200
00000000
00001300
00000001
00000100
00000010
00001000
00000100
,
00020000
00000000
00031000
00100000
00010000
10000000
00100000
01000000
,
00020000
00100000
01000000
00130000
,
00002000
00010000
01000000
00013000
,
00000020
00000100
00001000
00000130
,
00000002
00000010
00001000
00000013
,
00000100
00001000
00000010
00000100
00001000
00010000
01000000
10000000
,
00100000
01000000
00010000
00100000
01000000
00010000
00001000
00000100
,
00000001
00001000
00000100
00000010
00000001
00000100
00001000
00010000
,
01000000
10000000
00100000
01000000
00010000
00100000
01000000
00010000
,
00011000
00000000
00000000
00000000
,
00000000
00000000
00000000
00000000
;

//---------------dance-single - ----------------
#NOTEDATA:;
#CHARTNAME:;
#STEPSTYPE:dance-single;
#DESCRIPTION:;
#CHARTSTYLE:;
#DIFFICULTY:Challenge;
#METER:16;
#RADARVALUES:0.706858,0.776472,0.010710,0.042840,1.135256,462.000000,461.000000,1.000000,4.000000,0.000000,0.000000,0.000000,0.000000,0.000000,0.706858,0.776472,0.010710,0.042840,1.135256,462.000000,461.000000,1.000000,4.000000,0.000000,0.000000,0.000000,0.000000,0.000000;
#CREDIT:;
#DISPLAYBPM:138.000000:141.000000;
#NOTES:
0000
0000
0000
0000
,
0000
0000
0000
0000
,
0000
0000
0000
0000
,
0000
0000
0000
0000
,
0000
0000
0000
0000
,
0000
0000
0000
0000
,
0010
0000
1000
0100
1000
0010
0100
0001
,
0020
0000
0000
0030
,
0100
0000
0000
0000
1000
0000
0001
0000
0000
0000
1000
0010
1000
0000
0002
0000
,
0200
0300
2000
0003
,
3010
0000
0100
0001
0000
0100
0001
0000
1000
0010
0000
1000
0010
0000
0000
0100
,
0001
0000
1000
0000
0000
0100
0000
0010
0100
0000
1000
0001
0000
1000
0001
0000
,
0010
0001
0000
0010
0001
0000
0010
0100
0000
1000
0100
0000
1000
0100
0000
0010
,
0001
0000
0100
0010
0000
0100
0010
0000
0100
0001
0000
1000
0001
0000
1000
0100
,
0010
0000
0001
0000
0100
0010
0000
0100
0001
0000
1000
0001
0000
1000
0100
0000
,
0010
0001
0000
0010
0001
0000
1000
0001
0000
1000
0010
0000
1000
0100
0000
1000
,
0001
0000
0010
0100
0000
0010
0001
0000
1000
0010
0000
1000
0100
0000
1000
0001
,
0000
0010
0100
0000
1000
0010
0000
0100
0001
0000
1000
0100
0000
0010
0001
0000
,
1000
0001
0100
0000
0010
1000
0001
0000
0010
0100
0000
0100
1000
0000
0001
0000
,
0100
0010
0000
0010
1000
0000
0001
1000
0000
1000
0100
0000
0010
0001
0000
0001
,
0100
0000
0010
1000
0000
0010
0100
0000
0010
1000
0000
0001
0010
0000
0001
0100
,
0000
0010
1000
0000
0100
0010
0000
0010
0001
0000
1000
0001
0000
1000
0100
0000
,
0010
0001
0000
0001
0010
0000
0100
1000
0000
1000
0010
0000
0100
0001
0000
0100
,
0010
0000
1000
0001
0000
1000
0100
0000
0010
0001
0000
0001
0100
0000
0010
1000
,
0001
0010
0001
0100
0001
0010
0001
0100
0010
1000
0000
0010
1000
0000
0010
1000
,
0000
0100
0000
0010
0001
0000
1000
0001
0000
1000
0010
0000
0100
0001
0010
0000
,
0100
1000
0010
0000
0100
0001
0000
0001
1000
0000
0001
0010
0000
0010
0100
0000
,
1000
0010
0000
0010
0001
0000
1000
0100
0000
0100
0001
0000
0010
0100
0000
1000
,
0001
0000
0010
0001
0000
1000
0001
0000
1000
0100
0000
0100
0010
0000
0001
1000
,
0000
1000
0010
0000
0100
0010
0000
0100
0001
0000
0010
0001
0000
0001
1000
0000
,
0100
0010
0000
0010
0001
0000
1000
0001
0000
1000
0010
0000
0100
0001
1000
0001
,
0010
0000
0100
1000
0000
1000
0001
0000
0100
0010
0000
0100
0001
0000
1000
0010
,
0100
0001
1000
0001
0100
0001
1000
0001
0100
0010
0000
1000
0010
0000
0100
0001
,
0000
0010
0000
0100
1000
0010
1000
0010
0100
0001
0100
0001
1000
0100
0010
0001
,
0100
0000
0010
0000
1000
0001
1000
0100
0010
0000
0001
0100
0000
0001
1000
0000
,
0010
1000
0000
1000
0001
0000
0010
0100
0000
0100
1000
0000
0010
1000
0000
0001
,
0100
0000
0010
0100
0000
0100
0001
0000
1000
0010
0000
0100
0001
0000
1000
0001
,
0000
1000
0100
0000
0010
0001
0000
0000
0100
0000
0001
1000
0000
0001
1000
0000
,
0010
1000
0000
1000
0001
0000
0010
0100
0000
0100
0010
0000
0001
1000
0000
0001
,
0100
0000
0010
1000
0001
0000
0100
0000
0001
0010
0100
0000
1000
0000
0001
0100
,
0000
0001
0010
0000
0010
0100
1000
0000
0001
0100
0000
0001
1000
0000
0010
0100
,
0000
0010
0000
1000
0001
0000
0010
0100
0000
1000
0001
0000
1000
0010
0100
0000
,
0001
0000
1000
0100
0000
0100
0010
0000
0001
1000
0100
1000
0001
0000
0010
0100
,
0000
0100
1000
0000
0010
0100
0001
1000
0010
0000
1000
0100
0000
0100
0001
0000
,
0010
0100
0000
0100
0010
0000
0100
1000
0000
1000
0001
0000
0100
0001
0010
0000
,
0100
0000
1000
0001
0000
1000
0010
0000
0100
0001
0010
0001
1000
0000
0100
1000
,
0000
0001
0100
0000
0100
0010
0000
0010
1000
0000
1000
0100
0000
0100
0010
0000
,
0001
0100
0000
0100
1000
0000
0001
0010
0000
0010
1000
0000
0100
0010
0000
0100
,
1000
0001
0000
0010
0001
0000
0100
0010
0000
1000
0010
0100
0010
1000
0000
0001
,
1000
0100
1000
0000
0010
0100
0001
0000
1000
0001
0010
0100
0010
0001
1000
0000
,
1100
0000
0000
0000
;

//---------------dance-single - ----------------
#NOTEDATA:;
#CHARTNAME:;
#STEPSTYPE:dance-single;
#DESCRIPTION:;
#CHARTSTYLE:;
#DIFFICULTY:Easy;
#METER:5;
#RADARVALUES:0.197369,0.240974,0.107100,0.000000,0.000000,129.000000,119.000000,10.000000,0.000000,0.000000,0.000000,0.000000,0.000000,0.000000,0.197369,0.240974,0.107100,0.000000,0.000000,129.000000,119.000000,10.000000,0.000000,0.000000,0.000000,0.000000,0.000000,0.000000;
#CREDIT:;
#DISPLAYBPM:137.000000:141.000000;
#NOTES:
// measure 0
0000
0000
0000
0000
,  // measure 1
0000
0000
0000
0000
,  // measure 2
0000
0000
0000
0000
,  // measure 3
0000
0000
0000
0000
,  // measure 4
0000
0000
0000
0000
,  // measure 5
0000
0000
0000
0000
,  // measure 6
0010
0000
1000
0000
,  // measure 7
0100
0000
0000
0000
,  // measure 8
1000
0000
0010
0000
,  // measure 9
0001
0000
0000
0000
,  // measure 10
1001
0000
0000
0000
,  // measure 11
0110
0000
0000
0000
,  // measure 12
1001
0000
0100
0000
,  // measure 13
0110
0000
0001
0000
,  // measure 14
1001
0000
0110
0000
,  // measure 15
1001
0000
0110
0000
,  // measure 16
1000
1000
0001
0001
,  // measure 17
0010
0100
1000
0001
,  // measure 18
0100
0000
0010
0000
,  // measure 19
1000
0000
0001
0000
,  // measure 20
0010
0010
0010
0001
,  // measure 21
0100
0000
0010
0000
,  // measure 22
1000
0000
0100
0000
,  // measure 23
1000
1000
0001
0000
,  // measure 24
0100
0010
0100
0010
,  // measure 25
1000
0100
0001
0000
,  // measure 26
0010
0000
0001
0001
,  // measure 27
0100
0000
0010
0000
,  // measure 28
1000
0100
1000
0000
,  // measure 29
0001
1000
0010
0000
,  // measure 30
0100
0000
0100
0000
,  // measure 31
0010
0000
0010
0000
,  // measure 32
1000
0001
0010
0001
,  // measure 33
0100
0100
0010
0000
,  // measure 34
0100
0000
0001
1000
,  // measure 35
0001
1000
0100
0010
,  // measure 36
0001
0000
0100
0000
,  // measure 37
0010
0000
1000
1000
,  // measure 38
0100
0000
0010
0000
,  // measure 39
0001
0100
0010
1000
,  // measure 40
0100
0010
0010
0010
,  // measure 41
0001
0000
1000
0000
,  // measure 42
1001
0000
0010
1000
,  // measure 43
0010
0100
0001
1000
,  // measure 44
0100
0010
0100
1000
,  // measure 45
0001
0001
0010
0100
,  // measure 46
0000
1000
0010
1000
,  // measure 47
0000
0001
0010
0001
,  // measure 48
0000
0100
0000
0100
,  // measure 49
0000
0010
1000
0001
,  // measure 50
0110
0000
0000
0000
;
