#VERSION:0.83;
#TITLE:LOVE YOU LIKE A FOOL;
#SUBTITLE:;
#ARTIST:JESSICA FOLKER;
#TITLETRANSLIT:;
#SUBTITLETRANSLIT:;
#ARTISTTRANSLIT:;
#GENRE:;
#ORIGIN:;
#CREDIT:;
#BANNER:LOVE YOU LIKE A FOOL-bn.png;
#BACKGROUND:LOVE YOU LIKE A FOOL-bg.png;
#PREVIEWVID:;
#JACKET:LOVE YOU LIKE A FOOL-jacket.png;
#CDIMAGE:;
#DISCIMAGE:;
#LYRICSPATH:;
#CDTITLE:;
#MUSIC:LOVE YOU LIKE A FOOL.ogg;
#OFFSET:-0.055000;
#SAMPLESTART:42.549999;
#SAMPLELENGTH:20.000000;
#SELECTABLE:YES;
#DISPLAYBPM:183.000000;
#BPMS:0.000=183.340;
#STOPS:;
#DELAYS:;
#WARPS:;
#TIMESIGNATURES:0.000=4=4;
#TICKCOUNTS:0.000=4;
#COMBOS:0.000=1;
#SPEEDS:0.000=1.000=0.000=0;
#SCROLLS:0.000=1.000;
#FAKES:;
#LABELS:0.000=Song Start;
#BGCHANGES:;
#KEYSOUNDS:;
#ATTACKS:
;

//---------------dance-single - ----------------
#NOTEDATA:;
#CHARTNAME:;
#STEPSTYPE:dance-single;
#DESCRIPTION:;
#CHARTSTYLE:;
#DIFFICULTY:Beginner;
#METER:3;
#RADARVALUES:0.138628,0.219157,0.021807,0.000000,0.000000,89.000000,87.000000,2.000000,0.000000,0.000000,0.000000,0.000000,0.000000,0.000000,0.138628,0.219157,0.021807,0.000000,0.000000,89.000000,87.000000,2.000000,0.000000,0.000000,0.000000,0.000000,0.000000,0.000000;
#CREDIT:;
#DISPLAYBPM:183.000000;
#NOTES:
0000
0000
0000
0000
,
0000
0000
0000
0000
,
0000
0000
0000
0000
,
0000
0000
0000
0000
,
0000
0000
0000
0000
,
0001
0000
0000
0000
,
1000
0000
0000
0000
,
0010
0000
0000
0000
,
0100
0000
0000
0000
,
1001
0000
0000
0000
,
1000
0000
0000
0000
,
0001
0000
0000
0000
,
0010
0000
0000
0000
,
0100
0000
0000
0000
,
1000
0000
0000
0000
,
0001
0001
0000
0000
,
1000
1000
0000
0000
,
1000
0000
0000
0000
,
1000
0000
0000
0000
,
1000
0000
0000
0000
,
0001
0000
0000
0000
,
0001
0000
0000
0000
,
0100
0000
0000
0000
,
1000
1000
0000
0000
,
0001
0001
0000
0000
,
1000
0000
0001
0000
,
1000
0000
0001
0000
,
0100
0000
0010
0000
,
0100
0000
0010
0010
,
0010
0000
0001
0000
,
0100
0000
0001
0000
,
0100
0000
0000
0000
,
0100
0000
0000
0000
,
1001
0000
0100
0000
,
0001
0000
1000
0000
,
0001
0000
1000
0000
,
0001
0000
1000
0000
,
0010
0000
0100
0000
,
1000
0000
0001
0000
,
1000
1000
1000
0000
,
0000
0000
0000
0000
,
1000
0000
1000
0000
,
0001
0000
0001
0000
,
0010
0000
0100
0000
,
1000
0000
1000
0000
,
0010
0000
0100
0000
,
0001
0000
0100
0000
,
0001
0001
0001
0000
,
0000
0000
0000
0000
,
1000
0000
0000
0000
,
0000
0000
0000
0000
,
1000
0000
0000
0000
,
1000
0000
0000
0000
,
0001
0000
0000
0000
,
0001
0000
0000
0000
,
1000
0000
0000
0000
,
1000
0000
0000
0000
,
0001
0000
0000
0000
,
0001
0000
0000
0000
,
0010
0000
0000
0000
,
0010
0000
0000
0000
,
0100
0000
0000
0000
,
0100
0000
0000
0000
,
1000
0000
0000
0000
,
0001
0000
0000
0000
,
0100
0000
0000
0000
,
0010
0000
0000
0000
,
1000
0000
0000
0000
;

//---------------dance-single - ----------------
#NOTEDATA:;
#CHARTNAME:;
#STEPSTYPE:dance-single;
#DESCRIPTION:;
#CHARTSTYLE:;
#DIFFICULTY:Easy;
#METER:6;
#RADARVALUES:0.277256,0.370714,0.043613,0.000000,0.000000,178.000000,174.000000,4.000000,0.000000,0.000000,0.000000,0.000000,0.000000,0.000000,0.277256,0.370714,0.043613,0.000000,0.000000,178.000000,174.000000,4.000000,0.000000,0.000000,0.000000,0.000000,0.000000,0.000000;
#CREDIT:;
#DISPLAYBPM:183.000000;
#NOTES:
0000
0000
0000
0000
,
0000
0000
0000
0000
,
0000
0000
0000
0000
,
0000
0000
0000
0000
,
0000
0000
0000
0000
,
0001
0000
0001
0000
,
0001
0000
0000
0000
,
0010
0000
0000
0000
,
0100
0000
0000
0000
,
1001
0000
0100
0000
,
1000
0000
0100
0000
,
0001
0000
0100
0000
,
0010
1000
1000
0000
,
0001
0000
0100
0000
,
1000
0000
0100
0000
,
0001
0001
1000
0000
,
1000
1000
0001
0000
,
1000
0100
1000
1000
,
0001
0100
0001
0001
,
0010
1000
0001
0100
,
0010
1000
0001
0100
,
0001
1000
0001
1000
,
0100
0001
0100
0100
,
1000
1000
0100
0000
,
0001
0001
0100
0000
,
1000
1000
0001
0001
,
1000
1000
0001
0001
,
0100
0100
0010
0010
,
0100
0010
0100
0010
,
0001
1000
0100
0000
,
1000
0001
0100
0000
,
0100
0000
0100
0000
,
0100
0100
0100
0000
,
1001
0000
0100
0000
,
0001
0100
0100
0000
,
1001
0000
0100
0000
,
1000
0100
0100
0000
,
0010
0100
0001
0001
,
1000
0100
0001
0100
,
1000
0100
0100
0001
,
0100
0100
0100
0100
,
0110
0010
1000
0010
,
0100
0001
0100
0001
,
0001
0010
0100
1000
,
1000
0010
0100
0001
,
0001
0010
0100
1000
,
1000
0010
0100
0001
,
0001
0001
0001
0000
,
0001
0001
0001
0000
,
1000
0000
0100
0000
,
0001
0000
0000
0000
,
1000
0000
0100
0000
,
0001
0000
0100
0000
,
1000
0000
0100
0000
,
0001
0000
0100
0000
,
1000
0000
0100
0000
,
1000
0000
0100
0000
,
0001
0000
0100
0000
,
0001
0000
0100
0000
,
0010
0000
0010
0000
,
0010
0000
1000
0000
,
0100
0000
0001
0000
,
0010
0000
1000
0000
,
0100
0000
0001
0000
,
1000
0000
0100
0000
,
0001
0000
0100
0000
,
0010
0000
0000
0000
,
1000
0000
1000
0000
,
1000
0000
0000
0000
;

//---------------dance-single - ----------------
#NOTEDATA:;
#CHARTNAME:;
#STEPSTYPE:dance-single;
#DESCRIPTION:;
#CHARTSTYLE:;
#DIFFICULTY:Hard;
#METER:10;
#RADARVALUES:0.478189,0.480156,0.021807,0.000000,0.000000,307.000000,305.000000,2.000000,0.000000,0.000000,0.000000,0.000000,0.000000,0.000000,0.478189,0.480156,0.021807,0.000000,0.000000,307.000000,305.000000,2.000000,0.000000,0.000000,0.000000,0.000000,0.000000,0.000000;
#CREDIT:;
#DISPLAYBPM:183.000000;
#NOTES:
0000
0000
0000
0000
,
0000
0000
0000
0000
,
0000
0000
0000
0000
,
0000
0000
0000
0000
,
0000
0000
0000
0000
,
1000
0000
0000
0001
1000
0000
0001
0000
,
0000
0100
0001
0000
1000
0000
0100
0000
,
0001
0000
0000
1000
0001
0000
0100
0000
,
0000
0001
0100
0000
1000
0000
1000
0000
,
1001
0000
0010
0100
0000
0001
0100
0000
,
1000
0000
1000
0100
0000
0010
0100
0001
,
0010
0000
0100
1000
0000
1000
0001
0000
,
0010
0000
0100
0001
0000
1000
0001
0010
,
0100
0000
0001
0100
0000
1000
0010
0000
,
0100
0000
0100
0010
0000
0100
1000
0010
,
0000
1000
0000
1000
0001
0000
0010
0100
,
0000
1000
0000
0001
0010
0000
1000
0100
,
0010
0000
0100
1000
0000
1000
0010
0000
,
0100
0000
0001
0001
0000
1000
0010
0100
,
0001
0000
1000
0001
0000
0001
1000
0000
,
0100
0000
1000
0100
0000
1000
0001
0100
,
1000
0000
1000
0100
0000
0100
0010
0000
,
0001
0000
0100
0001
0000
1000
0001
1000
,
0000
0010
0000
1000
1000
0000
0010
0100
,
0000
0001
0000
1000
0100
0000
0010
0000
,
0001
1000
0000
0001
1000
0000
0100
0000
,
0100
0010
0000
0001
0100
0000
1000
0000
,
0001
0100
0000
0001
0010
0000
1000
0100
,
1000
0000
0001
0000
0100
0010
0100
0000
,
1000
0100
0000
0100
0010
0000
0010
0000
,
0001
0100
0000
1000
0100
0000
1000
0000
,
0001
0000
0100
0010
0000
1000
0000
1000
,
0000
1000
0100
0000
0100
0001
0010
0000
,
0001
0000
1000
0100
0000
0001
0000
0001
,
0000
0001
0010
0000
1000
0100
1000
0000
,
0010
0000
0001
1000
0000
1000
0000
1000
,
0000
0010
0100
0000
0001
0010
0100
0000
,
0001
0000
0010
0100
0000
1000
0000
0100
,
0000
0000
0001
0010
0000
1000
0000
0100
,
0000
0010
0001
0000
0001
0100
0000
1000
,
0000
1000
0100
0000
0001
1000
0001
0000
,
0010
0000
0100
0010
0000
0001
0000
0010
,
0000
0100
1000
0000
0010
0001
0100
0000
,
0010
0000
0001
1000
0000
0010
0000
1000
,
0000
0100
0010
0000
0001
0010
0100
0000
,
0001
0000
0001
0010
0000
0100
0000
1000
,
0000
0000
0100
1000
0000
0010
0000
0100
,
0000
1000
0100
0000
0001
0100
0000
1000
,
0000
0010
0010
0000
0100
0001
0000
1000
,
0100
0000
1000
0100
0000
0001
0100
0000
,
1000
0100
0000
0000
0000
0000
0000
0000
,
1001
0000
0000
0010
0100
0000
0001
0000
,
0010
0100
1000
0010
,
0100
0000
0000
0001
1000
0000
0010
0000
,
0100
1000
0010
0001
,
0100
0000
1000
0010
0100
0000
0001
0000
,
0010
0100
1000
0001
,
0100
0000
0010
1000
0100
0000
0001
0000
,
0100
0000
0001
0010
1000
0000
1000
0010
,
0100
0000
1000
0001
0100
0000
0100
0000
,
0010
0001
0100
1000
,
0100
0000
0000
0010
0100
0000
1000
0000
,
0010
0001
0100
0001
,
0100
0000
0010
1000
0100
0000
0001
0000
,
1000
0100
0001
0100
,
1000
0000
0010
1000
0001
0000
0010
0000
,
0100
0000
0001
0010
0100
0000
1000
0000
,
0001
0010
0001
0010
0100
0000
1000
0000
;

//---------------dance-double - ----------------
#NOTEDATA:;
#CHARTNAME:;
#STEPSTYPE:dance-double;
#DESCRIPTION:;
#CHARTSTYLE:;
#DIFFICULTY:Easy;
#METER:5;
#RADARVALUES:0.199375,0.258546,0.000000,0.000000,0.000000,128.000000,128.000000,0.000000,0.000000,0.000000,0.000000,0.000000,0.000000,0.000000,0.199375,0.258546,0.000000,0.000000,0.000000,128.000000,128.000000,0.000000,0.000000,0.000000,0.000000,0.000000,0.000000,0.000000;
#CREDIT:;
#DISPLAYBPM:183.000000;
#NOTES:
00000000
00000000
00000000
00000000
,
00000000
00000000
00000000
00000000
,
00000000
00000000
00000000
00000000
,
00000000
00000000
00000000
00000000
,
00000000
00000000
00000000
00000000
,
00001000
00000000
00010000
00000000
,
00001000
00000000
00010000
00000000
,
00100000
00000000
10000000
00000000
,
01000000
00000000
01000000
00000000
,
00010000
00000000
00001000
00000000
,
00010000
00000000
00000100
00000000
,
00000010
00000000
00000100
00000000
,
00001000
00001000
00001000
00000000
,
00001000
00000000
00010000
00000000
,
00100000
00100000
00100000
00000000
,
10000000
00000000
01000000
00000000
,
00010000
00000000
00001000
00000000
,
00001000
00000000
00010000
00000000
,
00000010
00000000
00000100
00000000
,
00001000
00000000
01000000
00000000
,
00100000
00000000
00001000
00000000
,
00010000
00000000
00000100
00000000
,
00000010
00000000
00000001
00000000
,
00000100
00000000
00001000
00000000
,
00010000
00000000
01000000
00000000
,
00100000
00000000
00010000
00000000
,
00001000
00000000
00000100
00000000
,
00000010
00000000
00000100
00000000
,
00010000
00000000
00001000
00001000
,
00001000
00000000
01000000
00000000
,
00100000
00000000
00010000
00000000
,
00000100
00000000
00000010
00000000
,
00000001
00000000
00000100
00000100
,
00000100
00000000
00001000
00000000
,
01000000
00000000
00100000
00000000
,
10000000
00000000
01000000
00000000
,
00010000
00000000
00000100
00000100
,
00000100
00000000
00000010
00000000
,
00001000
00000000
01000000
00000000
,
00010000
00000000
00100000
01000000
,
00000000
00010000
00001000
00000000
,
00001000
00000000
00100000
00000000
,
01000000
00000000
00010000
00000000
,
00001000
00000000
00000100
00000000
,
00010000
00000000
00001000
00010000
,
00001000
00000000
00100000
00000000
,
01000000
00000000
10000000
00000000
,
01000000
00000000
00010000
00001000
,
00000000
00001000
00000100
00000100
,
00000100
00000000
00000000
00000000
,
00000000
00000000
00000000
00000000
,
00100000
00000000
01000000
00000000
,
00010000
00000000
00000010
00000000
,
00000100
00000000
00010000
00000000
,
00100000
00000000
01000000
00000000
,
00001000
00000000
00001000
00000000
,
00000100
00000000
00000001
00000000
,
00000010
00000000
00000000
00000000
,
00010000
00000000
00000000
00000000
,
10000000
00000000
01000000
00000000
,
00010000
00001000
00010000
00000000
,
00000100
00000000
00000000
00010000
,
00000000
00000000
00000000
00000000
,
00100000
00000000
01000000
00000000
,
00010000
00001000
00010000
00000000
,
00000010
00000000
00000000
00000000
,
00010000
00000000
00000000
00000000
,
10000000
00000000
00000000
10000000
;

//---------------dance-double - ----------------
#NOTEDATA:;
#CHARTNAME:;
#STEPSTYPE:dance-double;
#DESCRIPTION:;
#CHARTSTYLE:;
#DIFFICULTY:Medium;
#METER:7;
#RADARVALUES:0.328658,0.443221,0.098130,0.000000,0.000000,211.000000,202.000000,9.000000,0.000000,0.000000,0.000000,0.000000,0.000000,0.000000,0.328658,0.443221,0.098130,0.000000,0.000000,211.000000,202.000000,9.000000,0.000000,0.000000,0.000000,0.000000,0.000000,0.000000;
#CREDIT:;
#DISPLAYBPM:183.000000;
#NOTES:
00000000
00000000
00000000
00000000
,
00000000
00000000
00000000
00000000
,
00000000
00000000
00000000
00000000
,
00000000
00000000
00000000
00000000
,
00000000
00000000
00000000
00000000
,
00001000
00000000
00010000
00000000
,
00001000
00000000
00010000
00000000
,
00100000
00000000
10000000
00000000
,
01000000
01000000
00000000
01001000
,
00010000
00000000
00000010
00000000
,
00000100
00000000
00000001
00000000
,
00000100
00000000
00001000
00000000
,
00010000
00010000
00010000
00000000
,
00100000
00000000
01000000
00000000
,
10000000
00000000
01000000
00000000
00010000
00000000
00000000
00001000
,
00000000
00000100
00000000
00000001
00000100
00000000
00000000
00001000
,
00000000
00010000
00000000
00100000
00010000
00000000
00000000
00000000
,
00001000
00001000
00010000
00010000
,
00000010
00000010
00000100
00000100
,
00001000
00000000
00010000
00000000
01000000
10000000
01000000
00000000
,
00100000
00010000
00001000
00001000
,
00010000
00000000
00000100
00000000
,
00000010
00000000
00000000
00000000
00000001
00000000
00000000
00000100
,
00000000
00001000
00000000
00010000
00001000
00000000
00000000
00010000
,
00000000
01000000
00000000
10000000
01000000
00000000
00000000
00000000
,
10000000
00100000
00010000
00001000
,
00000010
00000001
00000100
00001000
,
00010000
00001000
00000100
00000001
,
00000010
00001000
00010000
00010000
,
00100000
10000000
01000000
00010000
,
00001000
00000100
00000001
00000000
,
00000010
00001000
00010000
00001000
,
00000100
00000100
00000100
00000101
,
00000101
00001000
00010000
01000000
,
10000000
00100000
10000000
01000000
,
00010000
00001000
00000100
00000001
,
00000010
00000100
00000100
00010100
,
00001000
00010000
00100000
01000000
,
00001000
00010000
01000000
01010000
,
00001000
00000000
00000000
00010000
00000100
00000000
00001000
00000000
,
00000000
00000001
00000100
00000000
00000110
00000000
00000110
00000000
,
00001000
00010000
00100000
10000000
,
01000000
00010000
00001000
00000100
,
00000001
00000010
00000100
00010000
,
00001000
00000100
00001000
00010000
,
01000000
10000000
00100000
00010000
,
00001000
00010000
00100000
00010000
,
00011000
00000000
00000000
00001000
00000100
00000000
00001001
00000000
,
00000000
00000010
00001000
00000000
00010000
00000000
00010000
00000000
,
01000000
00000000
00000000
10000000
00000000
00000000
00100000
00000000
,
00000000
00010000
00000000
00000000
00000000
00000000
00000000
00000000
,
00001000
00000000
00000000
00010000
00001000
00000000
00000000
00000000
,
00000010
00000000
00000001
00000000
,
00000100
00000000
00010000
00000000
,
00100000
00000000
01000000
00000000
,
00001000
00000000
00000000
00010000
00001000
00000000
00000000
00000000
,
00000100
00000000
00000001
00000000
,
00000010
00000000
00000000
00000010
00000000
00000000
00000000
00000000
,
00010000
00000000
00000000
00010000
00000000
00000000
00000000
00000000
,
10000000
00000000
00000000
00010000
01000000
00000000
00000000
00000000
,
00001000
00000000
00010000
00000000
00001000
00000000
00000100
00000010
,
00000100
00000000
00000000
00001000
00000000
00000000
00010000
00000000
,
00000000
00010000
00000000
00000000
00000000
00000000
00000000
00000000
,
00100000
00000000
00000000
10000000
01000000
00000000
00000000
00000000
,
00010000
00000000
00001000
00000000
00000100
00000000
00000001
00000100
,
00000001
00000000
00000000
00000000
,
00010000
00000000
00000000
00000000
,
10000000
00000000
00000000
10000000
00000000
00000000
10000000
00000000
;

//---------------dance-double - ----------------
#NOTEDATA:;
#CHARTNAME:;
#STEPSTYPE:dance-double;
#DESCRIPTION:;
#CHARTSTYLE:;
#DIFFICULTY:Hard;
#METER:9;
#RADARVALUES:0.417442,0.443221,0.043613,0.000000,0.000000,268.000000,264.000000,4.000000,0.000000,0.000000,0.000000,0.000000,0.000000,0.000000,0.417442,0.443221,0.043613,0.000000,0.000000,268.000000,264.000000,4.000000,0.000000,0.000000,0.000000,0.000000,0.000000,0.000000;
#CREDIT:;
#DISPLAYBPM:183.000000;
#NOTES:
00000000
00000000
00000000
00000000
,
00000000
00000000
00000000
00000000
,
00000000
00000000
00000000
00000000
,
00000000
00000000
00000000
00000000
,
00000000
00000000
00000000
00000000
,
00100000
00000000
00000000
10000000
01000000
00000000
00010000
00000000
,
00000000
00001000
00010000
00000000
00000010
00000000
00000000
00000000
,
00000001
00000000
00000000
00000010
00000100
00000000
00000100
00000000
,
00000000
00010000
00001000
00000000
01000000
00000000
00000000
00000000
,
00100000
00000000
10000000
00000000
01000000
00000000
01000000
00100000
,
00010000
00000000
00001000
00000000
00010000
00000000
00010000
00001000
,
00000100
00000000
00000001
00000000
00000010
00000000
00000010
00001000
,
00000010
00000000
00000100
00000000
00001000
00010000
00001000
00000000
,
00010000
00000000
01000000
00000000
00100000
00000000
10000000
01000000
,
10000000
00000000
10000000
00000000
01000000
00000000
00100000
00010000
,
00000000
00001000
00000000
00010000
00001000
00000000
00001000
00000100
,
00000000
00000001
00000000
00000010
00000100
00000000
00000001
00000000
,
00000100
00000000
00001000
00000000
00010000
00000000
01000000
00100000
,
00010000
00000000
10000000
00000000
10000000
00000000
10000000
01000000
,
00010000
00000000
00001000
00000000
00010000
00000000
00001000
00010000
,
00000100
00000000
00000010
00000000
00000001
00000100
00000001
00000000
,
00000010
00000000
00000100
00000000
00001000
00000000
00000100
00010000
,
00001000
00000000
00100000
00000000
01000000
00000000
10000000
10000000
,
00000000
00100000
00000000
01000000
00010000
00000000
00001000
00001000
,
00000000
00010000
00000000
00000100
00000010
00000000
00000001
00000000
,
00000001
00000010
00000100
00000000
00000001
00000000
00000100
00000000
,
00001000
00010000
00001000
00000000
00100000
00000000
01000000
00000000
,
10000000
00010000
00100000
00000000
01000000
00000000
10000000
00000000
,
10000000
00000000
01000000
00000000
00100000
00001000
00010000
00000000
,
00001000
00010000
00001000
00000000
00000100
00000000
00000010
00000000
,
00000001
00001000
00000100
00000000
00000001
00000000
00000100
00000000
,
00001000
00000000
00010000
00001000
00000000
00100000
00000000
10000000
,
00000000
10000000
01000000
00000000
10000000
00000000
01100000
00000000
,
00010000
00000000
00001000
00010000
00000000
00001000
00000000
00000100
,
00000000
00000001
00000010
00000000
00000100
00000000
00001100
00000000
,
00010000
00000000
00001000
00010000
00000000
01000000
00000000
00100000
,
00000000
10000000
01000000
00000000
00100000
00000000
00110000
00000000
,
00001000
00000000
00001000
00010000
00000000
00000010
00000000
00000100
,
00000000
00000000
00000001
00000100
00000000
00001000
00000000
00010000
,
00000000
01000000
00000000
00000000
10000000
00000000
00000000
00100000
,
00000000
00010000
00001000
00000000
00001000
00000000
00000100
00000000
,
00000010
00000000
00000001
00000100
00000000
00000010
00000000
00010000
,
00000000
00001000
00010000
00000000
01000000
00000000
00100000
00000000
,
00001000
00000000
00010000
00001000
00000000
00000010
00000000
00001000
,
00000000
00010000
00001000
00000000
00100000
00000000
01100000
00000000
,
10000000
00000000
10000000
01000000
00000000
00100000
00000000
00001000
,
00000000
00000000
00001000
00010000
00000000
00000100
00000000
00000010
,
00000000
00000001
00000000
00000000
00000100
00000000
00000000
00001000
,
00000000
00010000
00001000
00000000
01000000
00000000
00100000
10000000
,
01000000
00000000
00000000
10000000
00000000
00000000
10000000
00000000
,
00000000
10000000
00000000
00000000
00000000
00000000
00000000
00000000
,
00100000
00000000
00000000
00001000
00010000
00000000
00000000
00000000
,
00000010
00000000
00000000
00000100
00000001
00000000
00000010
00000000
,
00001000
00000000
00000000
00010000
01000000
00000000
00000000
00000000
,
10000000
00000000
00000000
00100000
01000000
00000000
00001000
00000000
,
00010000
00000000
00000000
00001000
00000100
00000000
00000000
00000000
,
00000010
00000000
00000000
00001000
00000001
00000000
00000001
00000000
,
00000100
00000000
00000000
00001000
00010000
00000000
00000000
00000000
,
00001000
00000000
00000000
00100000
01000000
00000000
00010000
00000000
,
01000000
00000000
00000000
10000000
01000000
00000000
00000000
00000000
,
00010000
00000000
00000000
00001000
00000010
00000000
00000001
00000000
,
00001000
00000000
00000000
00000100
00010000
00000000
00000000
00000000
,
00001000
00000000
00000000
01000000
00010000
00000000
10000000
00000000
,
01000000
00000000
00000000
01000000
00010000
00000000
00000000
00000000
,
00001000
00000000
00000000
00010000
00000010
00000000
00000100
00000000
,
00000001
00000000
00000000
00001000
00010000
00000000
00000000
00000000
,
00100000
00000000
00000000
10000000
01000000
00000000
00000000
00000000
,
00100000
00001000
00010000
00000000
00000010
00000000
00000100
00000000
;

//---------------dance-single - ----------------
#NOTEDATA:;
#CHARTNAME:;
#STEPSTYPE:dance-single;
#DESCRIPTION:;
#CHARTSTYLE:;
#DIFFICULTY:Medium;
#METER:8;
#RADARVALUES:0.376944,0.518999,0.305294,0.174453,0.000000,242.000000,214.000000,28.000000,16.000000,0.000000,0.000000,0.000000,0.000000,0.000000,0.376944,0.518999,0.305294,0.174453,0.000000,242.000000,214.000000,28.000000,16.000000,0.000000,0.000000,0.000000,0.000000,0.000000;
#CREDIT:;
#DISPLAYBPM:183.000000;
#NOTES:
0000
0000
0000
0000
,
0000
0000
0000
0000
,
0000
0000
0000
0000
,
0000
0000
0000
0000
,
0000
0000
0000
0000
,
1000
0000
0000
0001
0000
0000
1000
0000
,
0000
0100
0000
0000
0010
0000
0000
0000
,
0000
0001
0100
0001
0100
0000
0000
0010
,
0000
1000
0000
0000
0000
0000
0100
0010
,
0100
1000
0010
1000
,
0001
0000
0100
0010
0000
0000
0000
0000
,
0000
0000
1000
0001
1000
0000
0100
0000
,
0010
0000
0001
0100
0000
0000
0000
0000
,
0000
0000
1010
0000
1001
0000
1000
0001
,
0000
1000
0000
0100
0000
0000
0000
0010
,
0000
0010
0000
0010
0001
0000
0000
1000
,
0000
1000
0000
1000
0001
0000
0100
0010
,
0100
0001
0010
0001
,
1000
0010
0000
0100
0000
0000
0000
0000
,
0000
0001
1000
0001
,
0010
0100
0000
1000
0000
0000
0000
0000
,
0000
0000
0101
0000
0110
0000
1000
0001
,
0000
1000
0000
0010
0000
0000
0000
0100
,
0000
0100
0000
0100
0001
0000
0000
1000
,
0000
1000
0000
1000
0001
0000
0000
0000
,
1000
0010
1000
0000
0101
0000
0010
0000
,
1000
0100
1000
0000
0011
0000
0000
0000
,
1000
0001
1000
0001
0100
0000
0010
0000
,
1010
0101
1010
0000
,
1001
0100
0010
0100
,
0001
1000
0000
0100
0000
0000
0000
0010
,
0001
0000
1000
0001
0000
1000
0000
0100
,
0000
1000
0001
0000
0010
0000
0010
0000
,
1001
0000
1000
0010
0000
0100
0000
0002
,
0000
0000
1000
1003
,
1100
0000
1000
0001
0000
0100
0000
0020
,
0000
0000
0100
0130
,
0101
0000
0010
1000
0000
0001
0000
1000
,
0000
0000
0100
0010
0000
0001
0000
1000
,
0000
0010
0000
0000
0000
0000
0101
0000
,
0000
1100
0000
0000
0001
0000
0001
0000
,
0110
0000
1000
0100
0000
0010
0000
0002
,
0000
0000
0100
0103
,
1010
0000
0100
0001
0000
1000
0000
0020
,
0000
0000
1000
1030
,
0101
0000
0001
1000
0000
0100
0000
0010
,
0000
0000
0010
0001
0000
0100
0000
0001
,
0000
1000
0000
0000
0000
0000
2020
0000
,
0000
0000
0030
0000
3001
0100
0001
0000
,
1001
0000
0000
1001
0000
0000
1001
0000
,
0000
1001
0000
0000
0000
0000
0000
0000
,
0101
0000
0010
0000
,
1000
0100
1000
0002
,
0000
0003
0011
0100
,
1000
0001
0100
0010
,
1000
0000
1001
0000
,
0010
0100
0001
1000
,
0200
0000
1300
0002
,
0000
0203
0000
0320
,
1000
0000
0130
0000
,
0010
1000
0001
0020
,
0000
0030
0110
0000
,
0001
0100
0010
1000
,
0100
0000
1001
0000
,
0010
0100
0001
1000
,
0002
0000
0013
0200
,
0000
2300
0000
3000
,
0001
1000
0001
1000
0200
0000
0000
0000
,
0300
0000
0000
0000
;

//---------------dance-single - ----------------
#NOTEDATA:;
#CHARTNAME:;
#STEPSTYPE:dance-single;
#DESCRIPTION:;
#CHARTSTYLE:;
#DIFFICULTY:Challenge;
#METER:13;
#RADARVALUES:0.683795,0.664831,0.218067,0.196260,0.032710,439.000000,419.000000,20.000000,18.000000,0.000000,0.000000,0.000000,0.000000,0.000000,0.683795,0.664831,0.218067,0.196260,0.032710,439.000000,419.000000,20.000000,18.000000,0.000000,0.000000,0.000000,0.000000,0.000000;
#CREDIT:;
#DISPLAYBPM:183.000000;
#NOTES:
// measure 0
0000
0000
0000
0000
,  // measure 1
0000
0000
0000
0000
,  // measure 2
0000
0000
0000
0000
,  // measure 3
0000
0000
0000
0000
,  // measure 4
0000
0000
0000
0000
,  // measure 5
1000
0010
0000
1000
0001
0000
0010
0100
,  // measure 6
0000
0000
1000
0000
0001
0000
0000
0000
0100
0000
0010
1000
0010
0000
0100
0000
,  // measure 7
0000
0001
0010
0001
1000
0010
0100
0001
,  // measure 8
1000
0001
0100
0000
0000
0000
0010
0010
,  // measure 9
0010
0000
1000
0100
0001
0100
1000
0000
,  // measure 10
0001
0100
0010
1000
0100
0010
0001
0000
,  // measure 11
0100
0000
0001
0010
1000
0010
0001
0000
,  // measure 12
1000
0010
0100
0010
1000
0100
0001
0000
,  // measure 13
0010
0001
0100
0010
1000
0000
0100
1000
,  // measure 14
0010
0100
0001
1000
0100
0010
0001
0011
,  // measure 15
0000
1100
0000
0001
0001
1000
0010
1010
,  // measure 16
0000
0000
0101
0000
0000
0000
0010
0000
0010
0000
1000
0001
1000
0000
0100
0000
,  // measure 17
0010
0001
0100
0000
0001
0010
1000
0000
,  // measure 18
0100
0010
0001
0100
0010
1000
0001
0000
,  // measure 19
1000
0100
0001
0000
0010
0001
1000
0000
,  // measure 20
0010
1000
0100
0001
1000
0001
0100
0000
,  // measure 21
0010
1000
0100
0000
1000
0001
0100
0010
,  // measure 22
0100
0001
1000
0100
0010
0001
1000
1010
,  // measure 23
0000
0101
0000
1000
1000
0100
0010
0011
,  // measure 24
0000
0000
1100
0000
0000
0000
1000
0000
1000
0000
0001
0100
0001
0000
0010
0000
,  // measure 25
0100
0001
0100
1000
0010
0100
0001
1000
,  // measure 26
0100
0001
0100
1000
0010
0100
0010
1000
,  // measure 27
0001
0010
0001
1000
0100
0001
0100
1000
,  // measure 28
0010
1000
0001
1000
0100
0010
0001
0100
,  // measure 29
0110
0000
1001
0000
0010
1000
0001
0100
,  // measure 30
0001
0010
0100
0001
0100
1000
0010
0100
,  // measure 31
0001
0010
0001
0100
0001
0010
0100
1000
,  // measure 32
0010
0000
1000
0000
0001
0000
0100
0000
0010
0000
1000
0001
1000
0000
0100
0000
,  // measure 33
0010
0001
0100
0010
1000
0100
1000
0001
,  // measure 34
0100
0010
1000
0001
0010
0100
0010
0000
,  // measure 35
0001
0100
0010
0100
1000
0100
0001
0010
,  // measure 36
0100
1000
0001
0000
1001
0000
0110
0000
,  // measure 37
1001
0010
1000
0100
1000
0010
0100
0001
,  // measure 38
0010
0100
1000
0001
0000
1000
0100
0001
,  // measure 39
0010
0100
1000
0010
0100
0001
0101
0000
,  // measure 40
1000
0000
0001
0000
1000
0000
0010
0000
0100
0000
0001
0010
0001
0000
1000
0000
,  // measure 41
0010
0001
0010
1000
0001
1000
0001
0100
,  // measure 42
1000
0100
0001
0010
0001
0100
1000
0000
,  // measure 43
0010
1000
0001
0010
0100
1000
0100
0001
,  // measure 44
0100
1000
0010
0000
0100
0001
1000
0000
,  // measure 45
1010
0000
0100
0001
0010
0100
1000
0001
,  // measure 46
0100
1000
0100
0010
1000
0001
0010
0100
,  // measure 47
1000
0010
0100
1000
0100
0001
0011
0000
,  // measure 48
1000
0000
0001
0000
0100
0000
0000
0000
0010
0000
1000
0100
1000
0000
0001
0000
,  // measure 49
0010
0001
0000
0001
0100
0000
0100
1000
,  // measure 50
0000
1000
0010
0000
0200
0000
0000
0000
,  // measure 51
0301
0000
0010
0001
1000
0000
0010
1000
,  // measure 52
0200
0320
0032
2003
,  // measure 53
3010
0000
1000
0001
1000
0000
0010
0100
,  // measure 54
0001
0010
0001
0100
0001
1000
0100
0000
,  // measure 55
0110
0001
1000
0001
0100
0000
0010
0000
,  // measure 56
2000
0000
3002
0000
2003
0000
3010
0100
,  // measure 57
0001
0010
0000
0001
1000
0000
0010
0100
,  // measure 58
0010
1000
0010
0100
0001
0010
1000
0000
,  // measure 59
0100
1000
0001
0000
0010
0000
0100
0000
,  // measure 60
2000
3020
0230
0302
,  // measure 61
0013
0000
0001
0100
0001
0000
1000
0100
,  // measure 62
0020
0000
0032
0000
1003
0001
0100
0000
,  // measure 63
1010
0001
1000
0001
0100
0000
0010
1000
,  // measure 64
0200
0320
0032
2003
,  // measure 65
3010
0000
1000
0100
0001
0000
0010
0100
,  // measure 66
1000
0010
1000
0001
0100
0000
0010
0000
,  // measure 67
1000
0001
0100
0010
1001
0000
0110
0000
;
