#VERSION:0.83;
#TITLE:LOVE MACHINE;
#SUBTITLE:;
#ARTIST:PONY TOWN BOYZ;
#TITLETRANSLIT:;
#SUBTITLETRANSLIT:;
#ARTISTTRANSLIT:;
#GENRE:;
#ORIGIN:;
#CREDIT:;
#BANNER:LOVE MACHINE-bn.png;
#BACKGROUND:LOVE MACHINE-bg.png;
#PREVIEWVID:;
#JACKET:LOVE MACHINE-jacket.png;
#CDIMAGE:;
#DISCIMAGE:;
#LYRICSPATH:;
#CDTITLE:;
#MUSIC:LOVE MACHINE.ogg;
#OFFSET:0.000000;
#SAMPLESTART:13.493000;
#SAMPLELENGTH:20.000000;
#SELECTABLE:YES;
#DISPLAYBPM:158.000000:177.000000;
#BPMS:0.000=160.085,
100.000=160.058,
199.000=177.332,
200.000=158.445,
204.000=162.508,
208.000=159.642,
224.000=160.170;
#STOPS:;
#DELAYS:;
#WARPS:;
#TIMESIGNATURES:0.000=4=4;
#TICKCOUNTS:0.000=4;
#COMBOS:0.000=1;
#SPEEDS:0.000=1.000=0.000=0;
#SCROLLS:0.000=1.000;
#FAKES:;
#LABELS:0.000=Song Start;
#BGCHANGES:;
#KEYSOUNDS:;
#ATTACKS:
;

//---------------dance-single - ----------------
#NOTEDATA:;
#CHARTNAME:;
#STEPSTYPE:dance-single;
#DESCRIPTION:;
#CHARTSTYLE:;
#DIFFICULTY:Easy;
#METER:7;
#RADARVALUES:0.318672,0.392013,0.229631,0.000000,0.000000,204.000000,183.000000,21.000000,0.000000,0.000000,0.000000,0.000000,0.000000,0.000000,0.318672,0.392013,0.229631,0.000000,0.000000,204.000000,183.000000,21.000000,0.000000,0.000000,0.000000,0.000000,0.000000,0.000000;
#CREDIT:;
#DISPLAYBPM:160.000000;
#NOTES:
0000
0000
0000
0000
,
0000
0000
0000
0000
,
0000
0000
0000
0000
,
0000
0000
0000
0000
,
0000
0000
0000
0000
,
0010
0001
0000
0000
,
0010
1000
0000
0000
,
0010
1000
0000
0000
,
0010
0001
0010
1000
,
0001
1000
0000
0000
,
1000
0110
1000
0100
,
1000
0001
0000
0000
,
0001
0110
1001
0010
,
1000
0001
0000
0000
,
0010
0110
0001
0100
,
0100
0001
0000
0000
,
0010
1000
1001
0110
,
0000
0001
1000
0100
,
0000
1000
0001
0100
,
0000
0010
0100
0100
,
0010
0100
0010
0001
,
0100
0000
0010
0100
,
0100
0010
0100
1000
,
0010
0000
0100
0010
,
0001
0100
0010
0100
,
0000
1000
0001
0100
,
0000
0001
1000
0100
,
0000
0001
1000
0100
,
0000
1000
0001
0100
,
0000
0100
1001
0100
,
0000
0100
1001
0100
,
0001
0000
1000
0001
1000
0001
1000
0000
,
0001
0100
1000
0000
,
0001
1000
0000
0000
,
1000
0110
1000
0100
,
1000
0001
0000
0000
,
0001
0110
1001
0010
,
1000
0001
0000
0000
,
0010
0110
0001
0100
,
0100
0001
0000
0000
,
0010
1000
0110
1001
,
0100
0001
0100
0001
,
0010
0001
0100
0001
,
0010
0001
0100
0001
,
0010
0000
0001
0000
0010
0001
0000
1000
,
0010
1000
0100
1000
,
0010
1000
0100
1000
,
0010
1000
0100
1000
,
0010
1000
0100
0100
,
1000
0001
1000
0001
1000
0000
0001
0000
,
0010
1000
0000
0000
,
1000
0110
1000
0100
,
1000
0001
0000
0000
,
0001
0110
1001
0010
,
1000
0001
0000
0000
,
0010
0110
0001
0100
,
0100
0001
0000
0000
,
0010
1000
1001
0110
,
0001
1000
0100
0100
,
0010
1000
0001
0110
;

//---------------dance-single - ----------------
#NOTEDATA:;
#CHARTNAME:;
#STEPSTYPE:dance-single;
#DESCRIPTION:;
#CHARTSTYLE:;
#DIFFICULTY:Medium;
#METER:8;
#RADARVALUES:0.432706,0.457349,0.273370,0.000000,0.000000,277.000000,252.000000,25.000000,0.000000,0.000000,0.000000,0.000000,0.000000,0.000000,0.432706,0.457349,0.273370,0.000000,0.000000,277.000000,252.000000,25.000000,0.000000,0.000000,0.000000,0.000000,0.000000,0.000000;
#CREDIT:;
#DISPLAYBPM:160.000000;
#NOTES:
0000
0000
0000
0000
,
0000
0000
0000
0000
,
0000
0000
0000
0000
,
0000
0000
0000
0000
,
0000
0000
0000
0000
,
0110
0001
1000
0100
,
0010
0001
0100
1000
,
0110
1000
0001
0100
,
0010
1000
0100
0001
,
0001
1000
0100
0100
,
1000
0000
0001
0000
0100
0010
0100
0000
,
0001
0001
1000
0100
,
0001
0000
0001
0000
1000
0010
0100
0000
,
0001
1001
0100
0100
,
1000
0000
1001
0000
0100
0010
0100
0000
,
0001
1000
0100
0001
,
1000
0101
1100
0101
,
0000
0000
0010
0000
0100
0100
0100
0000
,
0000
0000
1000
0000
0100
0100
0100
0000
,
0000
1100
0010
0101
,
1000
1010
0100
0101
,
0100
0000
0010
0000
0100
0100
0100
0000
,
0100
0000
0100
0000
0010
0100
0001
0000
,
0010
0100
0100
1000
,
0100
0011
0101
0010
,
0010
1000
0100
0000
0100
0000
0100
0000
,
0010
0001
0000
0000
0100
0000
0100
0000
,
0001
0100
1010
0101
,
0001
0000
0010
0000
0100
0010
0100
0000
,
1000
0000
0010
0000
0100
0010
0100
0000
,
0010
1000
0000
0000
0100
0000
0100
0000
,
0100
1000
0001
0100
0001
1000
0001
1000
,
0001
0000
0100
0000
0001
0100
0010
0000
,
1000
1000
0100
0100
,
1000
0000
0001
0000
0100
0010
0100
0000
,
0001
0001
1000
0100
,
0001
0000
0001
0000
1000
0010
0100
0000
,
0001
0011
0100
0100
,
1000
0000
0101
0000
0010
0100
0010
0000
,
1000
0001
0100
0001
,
1000
0101
1100
0101
,
0010
1000
0100
0000
1000
0000
0100
0000
,
0010
0001
0100
0000
0001
0000
0100
0000
,
0010
1000
0100
0000
1000
0000
0100
0000
,
0010
0001
0100
0000
0001
1000
0000
1000
,
0010
0100
0001
0000
0100
0000
0001
0000
,
0010
0100
1000
0000
0100
0000
1000
0000
,
0010
0100
0001
0000
0100
0000
0001
0000
,
0010
0100
1000
0000
0100
0100
0000
0000
,
1000
0001
1000
0001
0100
0000
0100
0000
,
0001
1000
0100
0100
,
1000
0000
0001
0000
0100
0010
0100
0000
,
0001
0001
1000
0100
,
0001
0000
0001
0000
1000
0010
0100
0000
,
0001
1001
0100
0100
,
1000
0000
0101
0000
0010
0100
0010
0000
,
0001
1000
0100
1000
,
0001
0101
1100
0101
,
0001
0010
0100
0000
1000
0000
1000
0000
,
0001
0100
0001
0000
1000
0100
1000
0000
;

//---------------dance-single - ----------------
#NOTEDATA:;
#CHARTNAME:;
#STEPSTYPE:dance-single;
#DESCRIPTION:;
#CHARTSTYLE:;
#DIFFICULTY:Hard;
#METER:10;
#RADARVALUES:0.534244,0.555352,0.776372,0.000000,0.000000,342.000000,271.000000,71.000000,0.000000,0.000000,0.000000,0.000000,0.000000,0.000000,0.534244,0.555352,0.776372,0.000000,0.000000,342.000000,271.000000,71.000000,0.000000,0.000000,0.000000,0.000000,0.000000,0.000000;
#CREDIT:;
#DISPLAYBPM:160.000000;
#NOTES:
0000
0000
0000
0000
,
0000
0000
0000
0000
,
0000
0000
0000
0000
,
0000
0000
0000
0000
,
0000
0000
0000
0000
,
0011
1000
1010
0001
,
1000
1100
0001
0101
,
1010
0100
0011
1000
,
0010
0000
1000
0001
1000
0001
0010
0100
,
1000
0001
1100
0001
,
0101
0000
1100
0000
0100
0010
0100
0000
,
1000
0001
1000
0000
0101
0000
1000
0000
,
0001
1000
0001
0000
1100
0000
0101
0000
,
1000
0001
1100
0100
,
0101
0000
1100
0000
0100
0010
0100
0000
,
1000
0001
1000
0000
0101
0000
1000
0000
,
1000
0001
1000
0001
0100
0010
0100
0010
,
0000
1000
0100
1010
,
0000
0001
0100
0011
,
0000
0000
0101
1010
,
0100
0001
1010
1010
,
0101
1100
0001
1000
,
0100
0011
0011
0100
,
0010
0001
1000
0010
,
1000
0001
1000
0001
1000
0001
1000
0001
,
0100
0110
0100
1010
,
0001
1010
0001
0011
,
0010
0101
0010
1100
,
0011
0000
1100
0000
0001
1000
0100
0000
,
0011
1100
0101
1010
,
0001
0010
1000
0001
,
0010
0001
0010
0001
1000
0010
1000
0010
,
0100
0010
1000
0001
1000
0001
0100
0010
,
1000
0001
0101
0100
,
1100
0000
0101
0000
0100
0010
0100
0000
,
0001
1000
0001
0000
1100
0000
0001
0000
,
0001
1000
0001
0000
1100
0000
0110
0000
,
1000
0001
1100
0100
,
0101
0000
1100
0000
0100
0010
0100
0000
,
1000
0001
1000
0000
0101
0000
1000
0000
,
1000
0001
1000
0001
0100
0010
0100
0010
,
1000
1100
0010
1001
,
0010
1001
0010
1001
,
0100
0101
1000
1010
,
0001
0000
1000
0000
0010
0100
0010
0100
,
0010
1010
0101
0010
,
1001
0010
1001
0100
,
1001
0010
1001
0100
,
0100
0010
0100
0010
0100
0010
1000
0001
,
0100
0010
1000
0001
0100
0010
1000
0001
,
0010
0001
1100
0010
,
0101
0000
1100
0000
0100
0010
0100
0000
,
1000
0001
1000
0000
1100
0000
0001
0000
,
0001
1000
0001
0000
1100
0000
0110
0000
,
1000
0001
0101
0010
,
1100
0000
0101
0000
0100
0010
0100
0000
,
1000
0001
1000
0000
1100
0000
0001
0000
,
0010
0100
1000
0001
1000
0001
0010
0100
,
0010
0000
0001
0000
0010
0001
1000
0000
,
0001
1000
0001
0000
1000
0000
0101
0000
;

//---------------dance-double - ----------------
#NOTEDATA:;
#CHARTNAME:;
#STEPSTYPE:dance-double;
#DESCRIPTION:;
#CHARTSTYLE:;
#DIFFICULTY:Easy;
#METER:7;
#RADARVALUES:0.270246,0.357090,0.262436,0.000000,0.000000,173.000000,149.000000,24.000000,0.000000,0.000000,0.000000,0.000000,0.000000,0.000000,0.270246,0.357090,0.262436,0.000000,0.000000,173.000000,149.000000,24.000000,0.000000,0.000000,0.000000,0.000000,0.000000,0.000000;
#CREDIT:;
#DISPLAYBPM:160.000000;
#NOTES:
00000000
00000000
00000000
00000000
,
00000000
00000000
00000000
00000000
,
00000000
00000000
00000000
00000000
,
00000000
00000000
00000000
00000000
,
00000000
00000000
00000000
00000000
,
00000011
00000000
00000010
00001000
,
01000000
00100000
10000000
10100000
,
10100000
00000000
00100000
00010000
,
00000100
00000010
00000001
00000011
,
00000001
00000000
00000000
00000000
,
00001000
00000101
00000000
00001000
,
00000000
00010000
00000000
00010000
,
00010000
11000000
01010000
00100000
,
10000000
00000000
00000000
00000000
,
00010000
11000000
00000000
00010000
,
00000000
00001000
00000000
00001000
,
00001000
00000101
00001100
00000010
,
00000000
00000000
00000001
00001000
,
00000000
00000000
00010000
10000000
,
00000000
00100000
01000000
01000000
,
00100000
01000000
00100000
00010000
,
00000000
00000000
10000000
00010000
,
00000000
00000000
00001000
00000001
,
00000000
00000000
00000100
00000010
,
00000000
00000100
00000010
00000000
,
00000010
00000001
00000100
00001000
,
00100000
10000000
01000000
00010000
,
00000000
00000000
00000000
00000000
,
00100000
00100000
00000000
01000000
00000000
01000000
00000000
01000000
,
00000000
00000000
00000000
00000000
,
00100000
00000000
00000000
00000000
,
00100000
00000000
00000000
10000000
00000000
00000000
01000000
00000000
,
00000000
00100000
00000000
00000000
00010000
00001000
00001000
00000000
,
00000000
00000000
00000000
00000000
,
00001000
00000101
00000000
00001000
,
00000000
00010000
00000000
00010000
,
00010000
11000000
01010000
00100000
,
10000000
00000000
10000000
00000000
,
00010000
11000000
00000000
00010000
,
00000000
00001000
00000000
00001000
,
00001000
00000101
00001100
00000010
,
00000000
00000001
00000100
00000001
,
00000000
00000001
00000100
00000001
,
00000000
00000001
00000100
00000001
,
00000001
00000000
00001000
00010000
,
01000000
10000000
01000000
10000000
,
00000000
10000000
01000000
10000000
,
00000000
10000000
01000000
00010000
,
01001000
00000000
00000000
00000000
,
00000000
00000000
00000000
00000000
,
00000011
00000000
00000010
00001000
,
01000000
00100000
10000000
10100000
,
10100000
00000000
00100000
00010000
,
00000100
00000010
00000001
00000011
,
00000001
00000000
00000001
00000000
,
00001000
00000101
00000000
00001000
,
00000000
00010000
00000000
00010000
,
00010000
11000000
01010000
00100000
,
00100000
10000000
01000000
00010000
,
00001000
00000000
00000010
00000100
00000000
00000000
00000000
00000000
;

//---------------dance-double - ----------------
#NOTEDATA:;
#CHARTNAME:;
#STEPSTYPE:dance-double;
#DESCRIPTION:;
#CHARTSTYLE:;
#DIFFICULTY:Medium;
#METER:8;
#RADARVALUES:0.312423,0.357090,0.142153,0.000000,0.000000,200.000000,187.000000,13.000000,0.000000,0.000000,0.000000,0.000000,0.000000,0.000000,0.312423,0.357090,0.142153,0.000000,0.000000,200.000000,187.000000,13.000000,0.000000,0.000000,0.000000,0.000000,0.000000,0.000000;
#CREDIT:;
#DISPLAYBPM:160.000000;
#NOTES:
00000000
00000000
00000000
00000000
,
00000000
00000000
00000000
00000000
,
00000000
00000000
00000000
00000000
,
00000000
00000000
00000000
00000000
,
00000000
00000000
00000000
00000000
00000000
00000010
00000000
00000001
,
00000010
00001000
00000010
00001000
,
01000000
00000000
00100000
00000000
10000000
00100000
00000000
10000000
,
00100000
00010000
00100000
00010000
,
00001000
00000000
00010000
00000100
00000000
00000000
00000000
00000000
,
00000000
00000000
00000000
00000000
,
00001000
00000101
00001000
00001000
,
00000100
00001000
00010000
00100000
,
00010000
11000000
01010000
00100000
,
10000000
00000000
10000000
00000000
,
00010000
11000000
00010000
00010000
,
01000000
00100000
00010000
00001000
,
00001000
00001100
00000101
00000000
,
00000010
00001000
00010000
00000000
,
00001000
00010000
01000000
00000000
,
00000000
00100000
01000000
01000000
,
00100000
01000000
00100000
00010000
,
00100000
00010000
00001000
00000000
,
00010000
00001000
00000100
00000000
,
00000000
00000010
00000100
00000100
,
00000010
00000100
00000010
00000001
,
00000010
00000001
00000100
00001000
,
00100000
10000000
01000000
00010000
,
00000010
00000001
00000100
00001000
,
00000100
00001000
00000000
00010000
00000000
01000000
00000000
10000000
,
00000000
00000000
00000000
00000000
,
00100000
00000000
00000000
00000000
,
10100000
00000000
00000000
00010000
00000000
00000000
00001000
00000000
,
00000000
00000100
00000000
00000000
00000010
00001000
00000100
00000000
,
00000000
00000000
00000000
00000000
,
10000000
00000000
00100000
00000000
10000000
00100000
00000000
00010000
,
00100000
00010000
00100000
00010000
,
00000100
00000000
00000010
00000000
00000001
00000010
00000000
00000001
,
00000010
00001000
00000010
00001000
,
01000000
00000000
00100000
00000000
10000000
00100000
00000000
10000000
,
00100000
00010000
00100000
00010000
,
00001000
00000000
00010000
00000100
00000000
00000000
00000000
00000000
,
00000000
00000001
00000100
00000001
,
00000000
00000001
00000100
00000001
,
00000000
00000001
00000100
00000001
,
00000001
00000000
00000000
00000000
00001000
00010000
00000000
01000000
,
00000000
10000000
01000000
10000000
,
00000000
10000000
01000000
10000000
,
00000000
00000000
00100000
00000000
10000000
00000000
00010000
00010000
,
00010000
00000000
00000000
00001000
00000000
00000000
00000100
00000000
,
00000000
00000001
00000000
00000000
00000010
00000100
00000010
00000000
,
00000000
00000000
00000000
00000000
,
00001000
00000101
00001000
00001000
,
00000010
00001000
00010000
01000000
,
00010000
11000000
01010000
00100000
,
10000000
00000000
10000000
00000000
,
00010000
11000000
00010000
00010000
,
01000000
00100000
00010000
00001000
,
00001000
00001100
00000101
00000010
,
00000010
00001000
00010000
00001000
,
00001000
00000000
00000010
00000100
00000000
00000000
00000000
00000000
;

//---------------dance-solo - ----------------
#NOTEDATA:;
#CHARTNAME:;
#STEPSTYPE:dance-solo;
#DESCRIPTION:;
#CHARTSTYLE:;
#DIFFICULTY:Easy;
#METER:4;
#RADARVALUES:0.318672,0.392013,0.229631,0.000000,0.000000,204.000000,183.000000,21.000000,0.000000,0.000000,0.000000,0.000000,0.000000,0.000000,0.318672,0.392013,0.229631,0.000000,0.000000,204.000000,183.000000,21.000000,0.000000,0.000000,0.000000,0.000000,0.000000,0.000000;
#CREDIT:;
#DISPLAYBPM:160.000000;
#NOTES:
000000
000000
000000
000000
,
000000
000000
000000
000000
,
000000
000000
000000
000000
,
000000
000000
000000
000000
,
000000
000000
000000
000000
,
000010
000001
000000
000000
,
000100
100000
000000
000000
,
010000
100000
000000
000000
,
000100
000001
000100
100000
,
000010
100000
000000
000000
,
100000
001001
100000
001000
,
010000
000001
000000
000000
,
000001
101000
001001
000100
,
010000
000001
000000
000000
,
000010
101000
000001
001000
,
001000
000001
000000
000000
,
000100
010000
001001
100100
,
000000
000010
100000
001000
,
000000
010000
000001
001000
,
000000
000100
001000
001000
,
000100
001000
000100
000001
,
000010
000000
000100
001000
,
001000
000100
001000
100000
,
010000
000000
001000
000100
,
000010
001000
000100
010000
,
000000
100000
000001
001000
,
000000
000001
100000
001000
,
000000
000010
100000
001000
,
000000
010000
000001
001000
,
000000
001000
100001
001000
,
000000
001000
010010
001000
,
000010
000000
010000
000010
010000
000010
010000
000000
,
000010
001000
100000
000000
,
000010
100000
000000
000000
,
100000
001001
100000
001000
,
010000
000001
000000
000000
,
000001
101000
001001
000100
,
010000
000001
000000
000000
,
000010
101000
000001
001000
,
001000
000001
000000
000000
,
000100
010000
001001
100100
,
000010
000001
001000
000001
,
000010
000001
001000
000001
,
000010
000001
001000
000001
,
000010
000000
000001
000000
000100
010000
000000
000010
,
010000
100000
001000
100000
,
010000
100000
001000
100000
,
010000
100000
001000
100000
,
010000
100000
001000
001000
,
010000
000010
010000
000010
010000
000000
000010
000000
,
000010
100000
000000
000000
,
100000
001001
100000
001000
,
010000
000001
000000
000000
,
000001
101000
001001
000100
,
010000
000001
000000
000000
,
000010
101000
000001
001000
,
001000
000001
000000
000000
,
000100
010000
001001
100100
,
000001
010000
001000
001000
,
000100
100000
000001
001100
;

//---------------dance-solo - ----------------
#NOTEDATA:;
#CHARTNAME:;
#STEPSTYPE:dance-solo;
#DESCRIPTION:;
#CHARTSTYLE:;
#DIFFICULTY:Medium;
#METER:7;
#RADARVALUES:0.465511,0.490017,0.503002,0.000000,0.000000,298.000000,252.000000,46.000000,0.000000,0.000000,0.000000,0.000000,0.000000,0.000000,0.465511,0.490017,0.503002,0.000000,0.000000,298.000000,252.000000,46.000000,0.000000,0.000000,0.000000,0.000000,0.000000,0.000000;
#CREDIT:;
#DISPLAYBPM:160.000000;
#NOTES:
000000
000000
000000
000000
,
000000
000000
000000
000000
,
000000
000000
000000
000000
,
000000
000000
000000
000000
,
000000
000000
000000
000000
,
000110
000011
100000
001000
,
000100
000001
001000
100000
,
010100
110000
000001
001000
,
000100
100000
001000
000001
,
000011
100000
001000
001000
,
110000
000000
000001
000000
001000
000100
001000
000000
,
110000
100000
000001
001000
,
000011
000000
000001
000000
100000
000100
001000
000000
,
000011
010100
001000
001000
,
110000
000000
000110
000000
001000
000100
001000
000000
,
000010
100000
001000
000001
,
010000
001001
101000
001001
,
000000
000000
000010
000000
001000
001000
001000
000000
,
000000
000000
010000
000000
001000
001000
001000
000000
,
000000
101000
000010
001001
,
010000
100100
000010
000101
,
000010
000000
000100
000000
001000
001000
001000
000000
,
001000
000000
001000
000000
000100
001000
000010
000000
,
000010
001000
001000
010000
,
000010
000101
101000
000100
,
000100
100000
001000
000000
001000
000000
001000
000000
,
000100
000001
000000
000000
001000
000000
001000
000000
,
000010
001000
100100
001001
,
000010
000000
000100
000000
001000
000100
001000
000000
,
010000
000000
000100
000000
001000
000100
001000
000000
,
001000
100000
000000
000000
001000
000000
001000
000000
,
001000
000001
100000
001000
100000
000001
010000
000010
,
100000
000000
001000
000000
100000
001000
000001
000000
,
000011
100000
001000
001000
,
110000
000000
000001
000000
001000
000100
001000
000000
,
110000
100000
000001
001000
,
000011
000000
000001
000000
100000
000100
001000
000000
,
000011
010100
001000
001000
,
110000
000000
000110
000000
001000
000100
001000
000000
,
000010
100000
001000
000001
,
010000
001001
101000
001001
,
000010
000010
000001
000000
001000
000000
000001
000000
,
000010
000010
000001
000000
001000
000000
000001
000000
,
000010
000010
000001
000000
001000
000000
000001
000000
,
000010
000010
000001
000000
010000
000010
000000
100000
,
010000
010000
100000
000000
001000
000000
100000
000000
,
010000
010000
100000
000000
001000
000000
100000
000000
,
010000
010000
100000
000000
001000
000000
100000
000000
,
010000
010000
100000
000000
001000
001000
000000
000000
,
100000
000010
010000
000001
001000
000000
001000
000000
,
000011
100000
001000
001000
,
110000
000000
000001
000000
001000
000100
001000
000000
,
110000
100000
000001
001000
,
000011
000000
000001
000000
100000
000100
001000
000000
,
000011
010100
001000
001000
,
110000
000000
000110
000000
001000
000100
001000
000000
,
000010
100000
001000
000001
,
010000
001001
101000
001001
,
000001
000010
010000
000000
001000
000000
001000
000000
,
000010
000010
000001
000000
010000
010000
101000
000000
;

//---------------dance-solo - ----------------
#NOTEDATA:;
#CHARTNAME:;
#STEPSTYPE:dance-solo;
#DESCRIPTION:;
#CHARTSTYLE:;
#DIFFICULTY:Hard;
#METER:8;
#RADARVALUES:0.537368,0.555352,0.798242,0.000000,0.000000,344.000000,271.000000,73.000000,0.000000,0.000000,0.000000,0.000000,0.000000,0.000000,0.537368,0.555352,0.798242,0.000000,0.000000,344.000000,271.000000,73.000000,0.000000,0.000000,0.000000,0.000000,0.000000,0.000000;
#CREDIT:;
#DISPLAYBPM:160.000000;
#NOTES:
000000
000000
000000
000000
,
000000
000000
000000
000000
,
000000
000000
000000
000000
,
000000
000000
000000
000000
,
000000
000000
000000
000000
,
000101
100000
100100
000001
,
100000
101000
000001
001001
,
100100
000010
000101
010000
,
010000
000000
000001
100000
000010
010000
000100
001000
,
000010
010000
001001
001000
,
101000
000000
001001
000000
001000
000100
001000
000000
,
000001
100000
000001
000000
101000
000000
001000
000000
,
000010
100000
000001
000000
101000
000000
001100
000000
,
010000
000010
101000
001000
,
001001
000000
101000
000000
001000
000100
001000
000000
,
100000
000001
100000
000000
001001
000000
001000
000000
,
010000
000010
100000
000001
001000
000100
001000
000100
,
000000
100000
001000
100100
,
000000
000001
001000
000101
,
000000
000000
001001
100100
,
010000
000010
000101
100100
,
001001
101000
000001
100000
,
010000
100100
000101
000010
,
000010
000001
100000
010000
,
000010
010000
000001
100000
000010
010000
000001
100000
,
000010
000101
010000
100100
,
000010
100100
010000
000101
,
000100
001001
000100
101000
,
000101
000000
100100
000000
000010
010000
000010
000000
,
000101
101000
001001
100100
,
000010
010000
110000
000011
,
000100
000010
000100
000001
100000
000100
010000
000100
,
001000
000100
010000
000010
100000
000001
001000
000100
,
000010
010000
001001
001000
,
101000
000000
001001
000000
001000
000100
001000
000000
,
000001
100000
000001
000000
101000
000000
001000
000000
,
000010
100000
000001
000000
101000
000000
001100
000000
,
010000
000010
101000
001000
,
001001
000000
101000
000000
001000
000100
001000
000000
,
100000
000001
100000
000000
001001
000000
001000
000000
,
010000
000010
100000
000001
001000
000100
001000
000100
,
010000
010001
000010
100010
,
010000
100010
000010
010001
,
000001
100010
100000
010001
,
000001
000000
100000
000000
000100
001000
000100
001000
,
000010
010001
100010
010000
,
010001
000100
100010
001000
,
100010
000100
010001
001000
,
001000
000100
001000
000100
001000
000100
100000
000001
,
001000
000100
100000
000001
001000
000100
100000
000001
,
000010
010000
001001
001000
,
101000
000000
001001
000000
001000
000100
001000
000000
,
000001
100000
000001
000000
101000
000000
001000
000000
,
000010
100000
000001
000000
101000
000000
001100
000000
,
010000
000010
101000
001000
,
001001
000000
101000
000000
001000
000100
001000
000000
,
100000
000001
100000
000000
001001
000000
001000
000000
,
000100
001000
000001
100000
000010
010000
000100
001000
,
000100
000000
010000
000000
000100
010000
000010
000000
,
010000
000001
010000
000000
000010
000000
101000
000000
;

//---------------dance-threepanel - ----------------
#NOTEDATA:;
#CHARTNAME:;
#STEPSTYPE:dance-threepanel;
#DESCRIPTION:;
#CHARTSTYLE:;
#DIFFICULTY:Easy;
#METER:5;
#RADARVALUES:0.295240,0.392013,0.076544,0.000000,0.000000,189.000000,182.000000,7.000000,0.000000,0.000000,0.000000,0.000000,0.000000,0.000000,0.295240,0.392013,0.076544,0.000000,0.000000,189.000000,182.000000,7.000000,0.000000,0.000000,0.000000,0.000000,0.000000,0.000000;
#CREDIT:;
#DISPLAYBPM:160.000000;
#NOTES:
000
000
000
000
,
000
000
000
000
,
000
000
000
000
,
000
000
000
000
,
000
000
000
000
,
010
001
000
000
,
010
100
000
000
,
010
100
000
000
,
010
001
010
100
,
001
100
000
000
,
100
010
100
010
,
100
001
000
000
,
001
010
101
010
,
100
001
000
000
,
010
010
001
010
,
010
001
000
000
,
010
100
101
010
,
000
001
100
010
,
000
100
001
010
,
000
010
010
010
,
001
100
010
001
,
010
000
010
010
,
010
001
010
100
,
010
000
010
010
,
001
010
010
010
,
000
100
001
010
,
000
001
100
010
,
000
001
100
010
,
000
100
001
010
,
000
010
101
010
,
000
010
101
010
,
001
000
100
001
100
001
100
000
,
001
010
100
000
,
001
100
000
000
,
100
010
100
010
,
100
001
000
000
,
001
010
101
010
,
100
001
000
000
,
010
010
001
010
,
010
001
000
000
,
010
100
010
001
,
010
001
010
001
,
010
100
010
100
,
010
001
010
001
,
010
000
001
000
010
001
000
100
,
010
100
010
100
,
010
001
010
001
,
010
100
010
100
,
010
100
100
001
,
100
001
100
001
100
000
001
000
,
010
100
000
000
,
100
010
100
010
,
100
001
000
000
,
001
010
101
010
,
100
001
000
000
,
010
010
001
010
,
010
001
000
000
,
010
100
101
010
,
001
100
010
000
,
010
100
001
010
;

//---------------dance-threepanel - ----------------
#NOTEDATA:;
#CHARTNAME:;
#STEPSTYPE:dance-threepanel;
#DESCRIPTION:;
#CHARTSTYLE:;
#DIFFICULTY:Medium;
#METER:6;
#RADARVALUES:0.429582,0.457349,0.251501,0.000000,0.000000,275.000000,252.000000,23.000000,0.000000,0.000000,0.000000,0.000000,0.000000,0.000000,0.429582,0.457349,0.251501,0.000000,0.000000,275.000000,252.000000,23.000000,0.000000,0.000000,0.000000,0.000000,0.000000,0.000000;
#CREDIT:;
#DISPLAYBPM:160.000000;
#NOTES:
000
000
000
000
,
000
000
000
000
,
000
000
000
000
,
000
000
000
000
,
000
000
000
000
,
010
001
100
010
,
010
001
010
100
,
010
100
001
010
,
010
100
010
001
,
010
100
010
010
,
100
000
001
000
010
010
010
000
,
001
010
100
010
,
001
000
010
000
100
010
010
000
,
001
101
010
010
,
100
000
101
000
010
010
010
000
,
001
100
010
001
,
100
011
110
011
,
000
000
010
000
010
010
010
000
,
000
000
100
000
010
010
010
000
,
000
110
010
011
,
100
110
010
011
,
010
000
010
000
010
010
010
000
,
010
000
010
000
010
010
001
000
,
010
010
010
100
,
010
011
011
010
,
010
100
010
000
010
000
010
000
,
010
001
000
000
010
000
010
000
,
001
010
110
011
,
001
000
010
000
010
010
010
000
,
100
000
010
000
010
010
010
000
,
010
100
000
000
010
000
010
000
,
010
100
001
010
001
100
001
100
,
001
000
010
000
001
010
010
000
,
100
100
010
010
,
100
000
001
000
010
010
010
000
,
001
010
100
010
,
001
000
010
000
100
010
010
000
,
001
011
010
010
,
100
000
011
000
010
010
010
000
,
100
001
010
001
,
100
011
110
011
,
010
100
010
000
100
000
010
000
,
010
001
010
000
001
000
010
000
,
010
100
010
000
100
000
010
000
,
010
001
010
000
001
100
000
010
,
010
010
001
000
010
000
001
000
,
010
010
100
000
010
000
100
000
,
010
010
001
000
010
000
001
000
,
010
010
100
000
010
010
000
000
,
100
001
100
001
010
000
010
000
,
001
100
010
010
,
100
000
001
000
010
010
010
000
,
001
010
100
010
,
001
000
010
000
100
010
010
000
,
001
101
010
010
,
100
000
011
000
010
010
010
000
,
001
100
010
100
,
001
011
110
011
,
001
010
010
000
100
000
010
000
,
001
010
001
000
100
010
100
000
;

//---------------dance-threepanel - ----------------
#NOTEDATA:;
#CHARTNAME:;
#STEPSTYPE:dance-threepanel;
#DESCRIPTION:;
#CHARTSTYLE:;
#DIFFICULTY:Hard;
#METER:7;
#RADARVALUES:0.529558,0.555352,0.743568,0.000000,0.000000,339.000000,271.000000,68.000000,0.000000,0.000000,0.000000,0.000000,0.000000,0.000000,0.529558,0.555352,0.743568,0.000000,0.000000,339.000000,271.000000,68.000000,0.000000,0.000000,0.000000,0.000000,0.000000,0.000000;
#CREDIT:;
#DISPLAYBPM:160.000000;
#NOTES:
000
000
000
000
,
000
000
000
000
,
000
000
000
000
,
000
000
000
000
,
000
000
000
000
,
011
100
110
001
,
100
110
001
011
,
110
010
011
100
,
010
000
100
001
100
001
010
010
,
100
001
110
001
,
011
000
110
000
010
010
010
000
,
100
001
100
000
011
000
100
000
,
001
100
001
000
110
000
011
000
,
100
001
110
010
,
011
000
110
000
010
010
010
000
,
100
001
100
000
011
000
100
000
,
010
001
100
001
010
010
010
010
,
000
100
010
110
,
000
001
010
011
,
000
000
011
110
,
010
001
110
110
,
011
110
001
100
,
010
011
011
010
,
010
001
100
010
,
100
001
100
001
100
001
100
001
,
010
010
010
110
,
001
110
001
011
,
010
011
010
110
,
011
000
110
000
001
100
010
000
,
011
110
011
110
,
001
010
100
001
,
010
001
010
001
100
010
100
010
,
010
010
100
001
100
001
010
010
,
100
001
011
010
,
110
000
011
000
010
010
010
000
,
001
100
001
000
110
000
001
000
,
010
100
001
000
110
000
010
000
,
100
001
110
010
,
011
000
110
000
010
010
010
000
,
100
001
100
000
011
000
100
000
,
010
001
100
001
010
010
010
010
,
100
110
010
101
,
010
101
010
101
,
010
011
100
110
,
001
000
100
000
010
010
010
010
,
010
110
011
010
,
101
010
101
010
,
101
010
101
010
,
010
010
010
010
010
010
100
001
,
010
010
100
001
010
010
100
001
,
010
001
110
010
,
011
000
110
000
010
010
010
000
,
100
001
100
000
110
000
001
000
,
010
100
001
000
110
000
010
000
,
100
001
011
010
,
110
000
011
000
010
010
010
000
,
100
001
100
000
110
000
001
000
,
010
010
100
001
100
001
010
010
,
010
000
001
000
010
001
100
000
,
001
100
001
000
100
000
011
000
;

//---------------dance-single - ----------------
#NOTEDATA:;
#CHARTNAME:;
#STEPSTYPE:dance-single;
#DESCRIPTION:;
#CHARTSTYLE:;
#DIFFICULTY:Beginner;
#METER:4;
#RADARVALUES:0.209324,0.292780,0.196827,0.021870,0.000000,134.000000,116.000000,18.000000,2.000000,0.000000,0.000000,0.000000,0.000000,0.000000,0.209324,0.292780,0.196827,0.021870,0.000000,134.000000,116.000000,18.000000,2.000000,0.000000,0.000000,0.000000,0.000000,0.000000;
#CREDIT:;
#DISPLAYBPM:158.000000:177.000000;
#NOTES:
0000
0000
0000
0000
,
0000
0000
0000
0000
,
0000
0000
0000
0000
,
0000
0000
0000
0000
,
0000
0000
0000
0000
,
0001
0000
0001
0000
,
0001
0000
0000
1000
,
1000
0000
0010
0000
,
0100
0100
0100
0000
,
1001
0000
0000
0000
,
0001
0001
0001
0000
,
0010
0000
0001
0000
,
0100
0100
0100
0000
,
0110
0000
0000
0000
,
1000
1000
1000
0000
,
0001
0000
0000
0000
,
0010
0010
0010
0000
,
0000
0000
0001
0000
,
0100
0000
0001
0000
,
1000
0000
0010
0000
,
0100
0100
0100
0000
,
0010
0000
1000
0000
,
0001
0000
1000
0000
,
0100
0000
0010
0000
,
0001
0001
0001
0000
,
1001
0000
0100
0000
,
0110
0000
1000
0000
,
1001
0000
0100
0000
,
0110
0000
1001
0000
,
0110
0000
0001
0000
,
1001
0000
0010
0000
,
0110
0000
1000
0000
,
0001
0001
0001
0000
,
1001
0000
0000
0000
,
0100
0100
0100
0000
,
0010
0000
1000
0000
,
0001
0001
0001
0000
,
0110
0000
0000
0000
,
0010
0010
0010
0000
,
1000
0000
0000
0000
,
0100
0100
0100
0000
,
1000
0000
1000
0000
,
0001
0000
0001
0000
,
0200
0000
0300
0000
,
0010
0000
1001
0000
,
0110
0000
1000
0000
,
0001
0000
1000
0000
,
0020
0000
0030
0000
,
1001
0000
0110
0000
,
1000
1000
1000
0000
,
1001
0000
0000
0000
,
0010
0010
0010
0000
,
0100
0000
0001
0000
,
1000
1000
1000
0000
,
0110
0000
0000
0000
,
0100
0100
0100
0000
,
0001
0000
0000
0000
,
0010
0010
0010
0000
,
0001
0000
1000
0000
,
0010
0010
0010
0000
;

//---------------dance-single - ----------------
#NOTEDATA:;
#CHARTNAME:;
#STEPSTYPE:dance-single;
#DESCRIPTION:;
#CHARTSTYLE:;
#DIFFICULTY:Challenge;
#METER:14;
#RADARVALUES:0.698266,0.683153,0.568611,0.153087,0.071076,447.000000,395.000000,52.000000,14.000000,0.000000,0.000000,0.000000,0.000000,0.000000,0.698266,0.683153,0.568611,0.153087,0.071076,447.000000,395.000000,52.000000,14.000000,0.000000,0.000000,0.000000,0.000000,0.000000;
#CREDIT:;
#DISPLAYBPM:158.000000:177.000000;
#NOTES:
0000
0000
0000
0000
,
0000
0000
0000
0000
,
0000
0000
0000
0000
,
0000
0000
0000
0000
,
0000
0000
0000
0000
0000
1010
0000
0101
,
1000
0100
0001
0010
0001
0100
1000
0000
,
0010
0100
0001
1000
0000
0011
0000
1100
,
0001
0010
0100
0010
0001
1000
0100
0000
,
1000
0000
0010
0000
0100
0000
0001
1000
0001
0000
0100
0000
0010
1000
0010
1000
,
0010
0100
0001
0000
1000
0100
1000
0001
,
0100
1000
0100
0001
0010
1100
0000
0101
,
1000
0100
0001
0000
1001
0000
0010
1000
,
0010
0100
0001
1000
0100
0011
0000
1100
,
0001
0100
0010
0000
1000
0001
1000
0100
,
0010
1000
0010
0001
0100
1010
0000
0101
,
0001
0010
1000
0000
0110
1000
0001
1000
,
0100
0000
0010
0000
0001
0000
0100
0010
0100
0000
0001
0000
1000
0010
1000
0010
,
1000
0100
0010
0100
0001
0100
1000
0002
,
0000
0103
0010
0100
1000
0100
0001
2000
,
0100
0000
3001
1000
0011
0010
0100
0000
,
1000
0010
0100
0010
1000
0100
0010
1002
,
0000
0103
0001
0010
1000
0010
0001
0200
,
0000
1300
0100
0010
0100
0001
1000
0020
,
0001
0000
0130
0010
1010
0001
1000
0100
,
0110
0000
0001
0100
1010
0100
0001
0101
,
1000
0010
0100
0010
1000
0100
0001
0000
,
1001
0010
1000
0200
0000
0000
0300
0110
,
0110
0000
0001
0100
1000
0100
0001
0000
,
0011
0011
0000
1100
0000
0101
0000
1100
,
0001
0000
1000
0010
1000
0100
0001
0000
,
1001
0100
0010
2000
0000
0001
3001
0000
,
1100
1000
0010
0001
0100
0001
1000
0010
,
0100
0000
1000
0000
0100
0000
0001
0000
1000
0010
1000
0000
0001
0000
1000
0100
,
1000
0010
0100
0001
0010
1000
0010
0100
,
0010
0001
0100
0010
1000
1100
0000
0101
,
1000
0010
1000
0001
0010
0100
0001
0100
,
1000
0010
0100
0001
1000
0010
0102
0000
,
0013
0001
1000
0010
1001
0100
0010
1000
,
0100
0001
0100
1000
0010
1010
0000
0011
,
1000
0001
1000
0010
0100
1000
0100
0001
,
1000
0000
0001
0000
0010
0000
0100
1000
0100
0000
0010
0000
0001
1000
0001
1000
,
0002
0000
0103
0000
0001
0010
1000
0020
,
0001
0000
0130
0000
0010
0001
1000
0020
,
0100
0000
1030
0001
1000
0000
0010
0200
,
0000
0001
0301
1000
0110
0110
0000
1001
,
0100
0000
0011
0000
1000
0010
1000
0002
,
0100
0000
1003
0000
0001
0100
0010
2000
,
0100
0000
3001
0010
0001
0000
1000
0010
,
1010
0100
0001
0011
0001
0100
1010
0010
,
1000
0000
0000
0100
0000
0000
0001
0000
0000
0100
0000
0000
1000
0000
0000
0010
0000
0000
0100
0000
0001
0000
1000
0000
,
0010
0100
0001
0000
1001
0010
1000
0100
,
0001
0100
1000
0010
0100
0101
0000
1100
,
0001
0010
1000
0000
1100
0010
0001
0100
,
0010
0100
1000
0100
0001
0011
0000
0101
,
1000
0010
0100
0001
1001
0100
0010
1000
,
0100
0001
0100
1000
0010
0110
0000
1010
,
0001
0100
0010
0000
1000
0100
1000
0001
,
0100
1000
0100
0001
0100
1000
0100
0010
,
0001
0010
1000
0100
0010
0001
1000
0010
,
0110
0000
0001
0100
1001
0000
0000
0000
;

//---------------dance-double - ----------------
#NOTEDATA:;
#CHARTNAME:;
#STEPSTYPE:dance-double;
#DESCRIPTION:;
#CHARTSTYLE:;
#DIFFICULTY:Hard;
#METER:11;
#RADARVALUES:0.587356,0.585559,0.503002,0.306175,0.000000,376.000000,330.000000,46.000000,28.000000,0.000000,0.000000,0.000000,0.000000,0.000000,0.587356,0.585559,0.503002,0.306175,0.000000,376.000000,330.000000,46.000000,28.000000,0.000000,0.000000,0.000000,0.000000,0.000000;
#CREDIT:;
#DISPLAYBPM:158.000000:177.000000;
#NOTES:
00000000
00000000
00000000
00000000
,
00000000
00000000
00000000
00000000
,
00000000
00000000
00000000
00000000
,
00000000
00000000
00000000
00000000
,
00000000
00000000
00000000
00000000
00000000
10100000
00000000
01010000
,
10000000
01000000
00010000
00000000
00100000
00000000
00001000
00000100
,
00001000
00010000
00001000
00000010
00000000
00000110
00000000
00001001
,
00000100
00000010
00001000
00000000
00000001
00000000
00000010
00000001
,
00000100
00000010
00001000
00000100
00010000
00001000
00010000
00100000
,
10000000
01000000
00100000
00000000
00010000
01000000
00010000
00100000
,
00002000
00000000
00013000
00000010
00000000
00001010
00000000
00000101
,
00001000
00000010
00000001
00000000
00000110
00000000
00000001
00000100
,
00000010
00001000
00000100
00010000
00000000
00011000
00000000
01001000
,
00010000
00001000
00100000
00000000
01000000
10000000
00010000
10000000
,
00200000
00000000
01300000
00001000
00000000
00011000
00000000
00010010
,
00000100
00000001
00001000
00000000
00000010
00000100
00000001
00001000
,
00000200
00000000
00000310
00000001
00001000
00000010
00001000
00000100
,
00000000
00001000
00000010
00000100
00000001
00000010
00000001
00002000
,
00000000
00003100
00010000
00001000
01000000
10000000
01000000
00020000
,
00100000
00000000
01030000
00000000
01010000
10000000
00010000
00000000
,
00110000
00000000
11000000
00000000
10000000
00100000
01000000
00002000
,
00000000
00013000
00001000
01000000
00001000
00010000
00000010
00000200
,
00000000
00010300
00000100
00000001
00000010
00000100
00001000
00000002
,
00000100
00000000
00001003
00000000
00000101
00000010
00001000
00000001
,
00000011
00000000
00000001
00000100
00001000
00001100
00000000
00010100
,
00000000
00010000
00010000
00001000
02000000
00000000
03100000
00000000
,
10100000
00010000
00000000
02000000
00000000
00000000
00000000
03100000
,
01100000
00000000
10000000
01000000
00010000
00001000
00000100
00000000
,
00000101
00000010
00000000
00001010
00000000
00001001
00000000
00010010
,
00000000
00000000
00000001
00000100
00001000
00000100
00000001
00000000
,
00000011
00001000
00000000
00000200
00000000
00000000
00000000
00010300
,
00010100
00000000
00010000
00001000
00010000
01000000
10000000
00100000
,
01000000
10000000
01000000
00010000
00100000
01000000
20000000
00000000
,
30010000
01000000
10000000
00000000
00100000
10000000
00010000
01000000
,
00002000
00000000
00013000
00000100
00000000
00001010
00000000
00000101
,
00000010
00001000
00000100
00000000
00001001
00000000
00001000
00000010
,
00000100
00001000
00000100
00000001
00000000
00000012
00000000
00010000
,
00010003
00001000
01000000
00000000
01100000
10000000
00010000
10000000
,
01000000
00100000
01000000
10000000
00000000
10010000
00000000
01001000
,
00010000
00001000
00000010
00000000
00000001
00000100
00000010
00000100
,
00000002
00000000
00001003
00000010
00010000
00001000
01000000
00100000
,
20020000
00000000
00030000
00000000
30100000
01000000
00001000
00020000
,
00000000
00000000
00000000
00000000
00030010
00000100
00000001
00002000
,
00000100
00000000
00000001
00000000
00000010
00000000
00013000
00100000
,
20000000
01000000
31000000
00000000
11000000
00010000
00000000
00101000
,
00000000
00000000
00000200
00000000
00001300
00000010
00001000
00000002
,
00000000
00000000
00000000
00000000
00000013
00000100
00010000
00002000
,
01000000
00000000
00000100
00000000
00100000
00000000
00013000
00001000
,
00011000
00000000
00000000
01001000
00000000
00000000
11000000
00000000
,
00100000
00010000
00100000
01000000
10000000
00100000
10000000
00010000
,
01000000
00001000
00010000
00000000
00000010
00000100
00000010
00001000
,
00000002
00000000
00000013
00000100
00000000
00010100
00000000
01001000
,
00100000
10000000
00010000
00000000
10010000
00000000
01000000
00100000
,
10000000
01000000
10000000
00010000
00000000
02010000
00000000
10000000
,
13000000
01000000
00010000
00000000
00110000
00001000
00010000
00000100
,
00000020
00000000
00000031
00001000
00000010
00000110
00000000
00001001
,
00000100
00000001
00000010
00000000
00000001
00000100
00000010
00010000
,
00001000
01000000
00001000
00010000
00001000
00100000
00010000
01000000
,
00200000
00000000
10300000
00010000
00000000
10000000
01000000
00100000
,
00002000
00000000
00013000
00000100
00001000
00000000
00000000
00000000
;

//---------------dance-double - ----------------
#NOTEDATA:;
#CHARTNAME:;
#STEPSTYPE:dance-double;
#DESCRIPTION:;
#CHARTSTYLE:;
#DIFFICULTY:Challenge;
#METER:14;
#RADARVALUES:0.704515,0.748215,0.612350,0.174957,0.076544,451.000000,395.000000,56.000000,16.000000,0.000000,0.000000,0.000000,0.000000,0.000000,0.704515,0.748215,0.612350,0.174957,0.076544,451.000000,395.000000,56.000000,16.000000,0.000000,0.000000,0.000000,0.000000,0.000000;
#CREDIT:;
#DISPLAYBPM:158.000000:177.000000;
#NOTES:
// measure 0
00000000
00000000
00000000
00000000
,  // measure 1
00000000
00000000
00000000
00000000
,  // measure 2
00000000
00000000
00000000
00000000
,  // measure 3
00000000
00000000
00000000
00000000
,  // measure 4
00000000
00000000
00000000
00000000
00000000
00101000
00000000
00010010
,  // measure 5
00000001
00000100
00000010
00010000
00001000
01000000
00100000
10000000
,  // measure 6
01000000
00010000
01000000
10000000
00000000
10010000
00000000
01001000
,  // measure 7
00010000
00000010
00000100
00001000
00000100
00000001
00000010
00000100
,  // measure 8
00001000
00000000
00000010
00000000
00000100
00000000
00000001
00000010
00000001
00000000
00000100
00000000
00000010
00010000
00000010
00010000
,  // measure 9
00000010
00001000
01000000
00000000
10000000
00100000
10000000
00010000
,  // measure 10
01000000
00100000
01000000
10000000
01000000
01100000
00000000
01010000
,  // measure 11
00100000
00010000
10000000
00000000
10010000
00000000
01000000
00010000
,  // measure 12
00100000
01000000
10000000
00100000
01000000
01001000
00000000
00010100
,  // measure 13
00000010
00000001
00001000
00000000
00000001
00000100
00000010
00001000
,  // measure 14
00000100
00000001
00000100
00010000
00001000
01001000
00000000
10100000
,  // measure 15
01000000
00010000
00100000
00010000
10000000
00100000
10000000
01000000
,  // measure 16
00010000
00000000
00001000
00000000
00000100
00000000
00000001
00001000
00000001
00000000
00000010
00000000
00000100
00010000
00000100
00010000
,  // measure 17
00000100
00000010
00000001
00000100
00000001
00000010
00000001
00002000
,  // measure 18
00000000
00003100
00010000
00001000
01000000
10000000
01000000
00200000
,  // measure 19
10000000
00000000
01300000
00010000
00110000
10000000
01000000
00000000
,  // measure 20
10000000
00100000
01000000
10000000
01000000
00010000
00100000
00021000
,  // measure 21
00000000
00000010
00030010
00000100
00001000
00000100
00000001
00000020
,  // measure 22
00000000
00000130
00000010
00000001
00001000
00000010
00010000
00002000
,  // measure 23
01000000
00000000
00103000
00010000
01010000
00100000
10000000
01000000
,  // measure 24
01100000
00000000
10010000
01000000
10000000
00010000
00100000
00101000
,  // measure 25
00000000
00001000
00010000
00000010
00001000
00000100
00000001
00000100
,  // measure 26
00001010
00010000
00000000
01002000
00000000
00103000
00000000
00011000
,  // measure 27
00011000
00000000
01000000
00010000
00000100
00010000
10000000
00100000
,  // measure 28
01100000
01100000
00000000
01010000
00000000
11000000
00000000
00110000
,  // measure 29
00001000
00000000
00010000
00000010
00000100
00000001
00000100
00000000
,  // measure 30
00000101
00001000
00000000
00000020
00000100
00000130
00001000
00000000
,  // measure 31
00010010
00010000
00001000
01001000
01000000
00100000
10100000
10000000
,  // measure 32
01000000
00000000
01100000
00000000
00010000
00000000
10000000
00000000
00100000
01000000
00100000
00000000
10000000
00000000
00010000
01000000
,  // measure 33
00010000
00100000
00001000
00010000
00001000
00000100
00000001
00000010
,  // measure 34
00000001
00000100
00000010
00010000
00001000
00011000
00000000
00101000
,  // measure 35
00010000
01000000
00100000
00000000
10010000
01000000
00100000
10000000
,  // measure 36
01000000
00001000
01000000
00100000
01000000
11000000
00000000
00110000
,  // measure 37
01000000
00001000
00010000
00000010
00010010
00000100
00000001
00001000
,  // measure 38
00000100
00000001
00000100
00010000
00000010
00000110
00000000
00000101
,  // measure 39
00001000
00000100
00010000
00001000
01000000
10000000
01000000
00100000
,  // measure 40
10000000
01000000
10000000
00000000
00100000
00000000
01000000
00001000
01000000
00000000
00100000
00000000
10000000
00010000
10000000
00010000
,  // measure 41
20000000
00000000
01000000
00000000
30010000
00100000
00001000
00020000
,  // measure 42
00000010
00000000
00000100
00000000
00030001
00001000
00000010
00000200
,  // measure 43
00001000
00000000
00000301
00000100
00000010
00000000
00001001
00000200
,  // measure 44
00000000
00000010
00000310
00010000
00010100
00010100
00000000
00101000
,  // measure 45
01000000
00000000
10010000
00000000
00100000
00010000
10000000
00200000
,  // measure 46
01000000
00000000
00001000
00000000
10300000
00100000
01000000
00020000
,  // measure 47
00100000
00000000
10030000
00010000
01000000
00000000
00001000
00010000
,  // measure 48
00011000
00000010
00000100
00000101
00000010
00001000
00001100
00000001
,  // measure 49
00000010
00000000
00000000
00001000
00000000
00000000
00010000
00000000
00000000
01000000
00000000
00000000
10000000
00000000
00000000
00100000
00000000
00000000
01000000
00000000
00001000
00000000
00010000
00000000
,  // measure 50
00000100
00000010
00001000
00000000
00000001
00000010
00000001
00000100
,  // measure 51
00000010
00000001
00000010
00001000
00000100
00010100
00000000
01001000
,  // measure 52
00010000
00001000
01000000
00000000
10010000
00000000
00100000
10000000
,  // measure 53
01000000
00010000
01000000
00100000
00001000
01001000
00000000
00011000
,  // measure 54
00001000
00000010
00000001
00000000
00000110
00000001
00001000
00000010
,  // measure 55
00000001
00000010
00010000
00001000
01000000
01010000
00000000
01100000
,  // measure 56
10000000
00010000
00100000
00000000
01000000
00100000
00001000
00010000
,  // measure 57
00000010
00000001
00000010
00001000
00000010
00000001
00000010
00010000
,  // measure 58
00002000
00000000
01003000
00200000
00000000
10000000
10300000
00010000
,  // measure 59
02000000
00000000
03100000
10000000
10010000
00000000
00000000
00000000
;
