#TITLE:LOVE IS ORANGE;
#SUBTITLE:;
#ARTIST:Orange Lounge;
#MUSIC:LOVE IS ORANGE.ogg;
#BANNER:LOVE IS ORANGE-bn.png;
#BACKGROUND:LOVE IS ORANGE-bg.png;
#LYRICSPATH:;
#CDTITLE:;
#SAMPLESTART:34.67;
#SAMPLELENGTH:20;
#BPMS:0.000000=180.000000;
#STOPS:;
#TIMESIGNATURES:;
#BGCHANGES:;
#FGCHANGES:;
#ATTACKS:;
#SPEEDS:;
#SCROLLS:;

//---------------dance-single - ---------------
#NOTES:
     dance-single:
     :
     Beginner:
     3:
     0,0,0,0,0:
// measure 0
0000
0000
0000
0000
,  // measure 1
0000
0000
0000
0000
,  // measure 2
0000
0000
0000
0000
,  // measure 3
0000
0000
0000
0000
,  // measure 4
0000
0000
0000
0000
,  // measure 5
1000
1000
0000
0000
,  // measure 6
1001
0000
0110
0000
,  // measure 7
0001
0001
0001
0000
,  // measure 8
0010
0010
0010
0000
,  // measure 9
0100
0100
0100
0000
,  // measure 10
1001
0000
0110
0000
,  // measure 11
1000
1000
1000
0000
,  // measure 12
0001
0001
0001
0000
,  // measure 13
0100
0100
0100
0000
,  // measure 14
0002
0000
0003
0000
,  // measure 15
2000
0000
3000
0000
,  // measure 16
0002
0000
0003
0000
,  // measure 17
0100
0100
0000
0000
,  // measure 18
0110
0000
1001
0000
,  // measure 19
0010
0010
0010
0000
,  // measure 20
1000
1000
1000
0000
,  // measure 21
0100
0100
0100
0000
,  // measure 22
0110
0000
1001
0000
,  // measure 23
1000
1000
1000
0000
,  // measure 24
0001
0001
0001
0000
,  // measure 25
0010
0010
0010
0000
,  // measure 26
0002
0000
0003
0000
,  // measure 27
2000
0000
3000
0000
,  // measure 28
0010
0000
1000
0000
,  // measure 29
0200
0000
0300
0000
,  // measure 30
0020
0000
0030
0000
,  // measure 31
0200
0000
0300
0000
,  // measure 32
1000
0000
0001
0000
,  // measure 33
1000
1000
0000
0000
,  // measure 34
1001
0000
0110
0000
,  // measure 35
0010
0010
0010
0000
,  // measure 36
1000
1000
1000
0000
,  // measure 37
0001
0001
0001
0000
,  // measure 38
0110
0000
1001
0000
,  // measure 39
0100
0100
0100
0000
,  // measure 40
0010
0010
0010
0000
,  // measure 41
0100
0100
0100
0000
,  // measure 42
0002
0000
0003
0000
,  // measure 43
2000
0000
3000
0000
,  // measure 44
0001
0000
0100
0000
,  // measure 45
0010
0000
1000
0000
,  // measure 46
0200
0000
0300
0000
,  // measure 47
0020
0000
0030
0000
,  // measure 48
0001
0000
1000
0000
,  // measure 49
0001
0000
0100
0000
,  // measure 50
0010
0000
0010
0000
,  // measure 51
1000
0000
1000
0000
,  // measure 52
0100
0000
0100
0000
,  // measure 53
0001
0000
0001
0000
,  // measure 54
1000
0000
0010
0000
,  // measure 55
1000
0000
0001
0000
,  // measure 56
0100
0000
0010
0000
,  // measure 57
0100
0000
0001
0000
,  // measure 58
1000
1000
1000
0000
,  // measure 59
0001
0001
0001
0000
,  // measure 60
0010
0010
0010
0000
,  // measure 61
0001
0000
0100
0000
,  // measure 62
0010
0010
0010
0000
,  // measure 63
1000
1000
1000
0000
,  // measure 64
0100
0100
0100
0000
,  // measure 65
1000
0000
0001
0000
,  // measure 66
0110
0000
0000
0000
;

//---------------dance-single - ---------------
#NOTES:
     dance-single:
     :
     Easy:
     7:
     0,0,0,0,0:
// measure 0
0000
0000
0000
0000
,  // measure 1
0000
0000
0000
0000
,  // measure 2
0000
0000
0000
0000
,  // measure 3
0000
0000
0000
0000
,  // measure 4
0000
0000
0000
0000
,  // measure 5
1000
0001
1000
0000
0000
0000
0010
0000
,  // measure 6
1001
0000
0110
0000
,  // measure 7
0001
0100
0001
0000
1000
0000
0000
0000
,  // measure 8
0010
1000
0100
0000
1000
0000
0001
0000
,  // measure 9
0010
0001
0100
0000
1000
0000
0000
0000
,  // measure 10
1100
0000
0101
0000
,  // measure 11
0001
0010
0001
0000
1000
0000
0000
0000
,  // measure 12
0100
0010
0001
0000
1000
0000
0010
0000
,  // measure 13
1000
0001
0100
0000
0010
0000
0000
0000
,  // measure 14
2000
0000
0000
3002
0000
0000
0000
0000
,  // measure 15
0023
0000
0000
0230
0000
0000
0000
0000
,  // measure 16
2300
0000
0000
3020
0000
0000
0000
0000
,  // measure 17
1030
0001
1000
0000
0000
0000
0010
0000
,  // measure 18
1001
0000
0110
0000
,  // measure 19
0010
0100
0001
0000
1000
0000
0000
0000
,  // measure 20
0100
0010
0001
0000
0100
0000
1000
0000
,  // measure 21
0010
1000
0001
0000
0100
0000
0000
0000
,  // measure 22
0101
0000
1100
0000
,  // measure 23
0010
0001
0100
0000
1000
0000
0000
0000
,  // measure 24
0001
0010
0001
0000
0100
0000
0010
0000
,  // measure 25
1000
0100
1000
0000
0001
0000
0000
0000
,  // measure 26
2000
0000
0000
0000
3001
0000
0000
0010
,  // measure 27
0001
0100
1000
0100
,  // measure 28
0001
0000
0000
0010
0100
0000
1000
0010
,  // measure 29
2000
0000
0000
3002
0000
0000
0003
0000
,  // measure 30
0020
0000
0000
0000
0130
0000
0000
1000
,  // measure 31
0001
0100
1000
0100
,  // measure 32
0001
0000
0000
1000
0010
0000
1000
0001
,  // measure 33
0200
0020
0030
0310
,  // measure 34
1001
0000
0010
0000
1000
0100
1000
0000
,  // measure 35
0001
0000
0010
0000
0001
0100
0001
0000
,  // measure 36
1000
0000
0001
0000
1000
0100
1000
0000
,  // measure 37
0010
0000
0100
0000
0001
0010
0001
0000
,  // measure 38
0110
0000
0001
0000
1000
0010
0100
0000
,  // measure 39
0001
0000
0010
0000
0001
1000
0100
0000
,  // measure 40
1000
0000
0001
0000
1000
0010
1000
0000
,  // measure 41
0100
0000
0010
0000
0001
1000
0001
0000
,  // measure 42
0101
1000
0002
0003
,  // measure 43
1010
0010
0200
0300
,  // measure 44
0101
0010
1000
0100
,  // measure 45
2002
3003
0220
0330
,  // measure 46
1001
0001
0020
0030
,  // measure 47
0011
1000
0002
0003
,  // measure 48
1100
1000
0001
0100
,  // measure 49
1001
0110
1001
0110
,  // measure 50
1000
0000
0010
1000
0200
0000
0300
0000
,  // measure 51
0010
0000
0001
1000
0020
0000
0030
0000
,  // measure 52
1000
0100
0001
0100
,  // measure 53
0220
0330
2002
3003
,  // measure 54
0011
0000
0010
0100
2000
0000
3000
0000
,  // measure 55
1010
0000
1000
0001
0200
0000
0300
0000
,  // measure 56
0001
0010
1000
0100
,  // measure 57
2200
3300
0202
0303
,  // measure 58
0001
0010
0001
0010
0001
0000
1000
0000
,  // measure 59
0010
1000
0010
1000
0010
0000
0100
0000
,  // measure 60
0001
0010
1000
0100
,  // measure 61
1001
0100
1010
0001
,  // measure 62
1000
0100
1000
0100
1000
0000
0010
0000
,  // measure 63
0100
0001
0100
0001
0100
0000
0010
0000
,  // measure 64
1000
0100
0010
0001
,  // measure 65
0011
1000
1010
0001
,  // measure 66
0110
0000
0000
0000
;

//---------------dance-single - ---------------
#NOTES:
     dance-single:
     :
     Medium:
     10:
     0,0,0,0,0:
// measure 0
0000
0000
0000
0000
,  // measure 1
0000
0000
0000
0000
,  // measure 2
0000
0000
0000
0000
,  // measure 3
0000
0000
0000
0000
,  // measure 4
0000
0000
0000
0000
,  // measure 5
1000
1000
1100
0000
0000
0000
0010
0000
,  // measure 6
1001
0000
0000
0001
0100
0000
0000
0010
,  // measure 7
1000
0001
1000
0001
0100
0000
0000
0000
,  // measure 8
0010
1000
0001
1000
0010
0000
0100
0000
,  // measure 9
0001
0010
0001
1000
0001
0000
0000
0000
,  // measure 10
0110
0000
0000
0001
1000
0000
0000
0100
,  // measure 11
0010
0001
1000
0001
0100
0000
0000
0000
,  // measure 12
0010
1000
0100
0010
0001
0000
1000
0000
,  // measure 13
0001
0100
0001
1000
0100
0000
0000
0000
,  // measure 14
2000
0000
0000
3002
0000
0013
0001
0100
,  // measure 15
0020
0000
0000
2030
0000
3100
0010
0001
,  // measure 16
2000
0000
0000
3002
0000
0013
0100
1000
,  // measure 17
0001
0001
0101
0000
0000
0000
0010
0000
,  // measure 18
1001
0000
0000
1000
0100
0000
0000
0010
,  // measure 19
0001
0100
1000
0100
0001
0000
0000
0000
,  // measure 20
1000
0010
0001
0010
1000
0000
0100
0000
,  // measure 21
0010
0001
1000
0001
0100
0000
0000
0000
,  // measure 22
0110
0000
0000
0010
1000
0000
0000
0001
,  // measure 23
1000
0010
0001
0010
1000
0000
0000
0000
,  // measure 24
0001
0100
1000
0100
0001
0000
0010
0000
,  // measure 25
0100
1000
0001
1000
0010
0000
0000
0000
,  // measure 26
1002
0000
0103
0000
1010
0000
0001
0100
,  // measure 27
2000
0000
3010
1000
0100
0000
0010
0001
,  // measure 28
0100
0000
0000
0001
1000
0000
0001
0010
,  // measure 29
0200
0000
0000
2300
0000
0000
3000
0000
,  // measure 30
1200
0000
0310
0000
1001
0000
1000
0010
,  // measure 31
0002
0000
1003
0001
0100
0000
0001
0010
,  // measure 32
0100
0000
0000
1000
0001
0000
0010
0001
,  // measure 33
0101
2100
0001
3010
,  // measure 34
1001
0000
0010
1000
0100
0000
1000
0010
,  // measure 35
0001
0010
1000
0001
0100
0000
0010
0000
,  // measure 36
1000
0001
0010
0001
0100
0000
1010
0000
,  // measure 37
0001
0010
1000
0010
0001
0000
0100
0000
,  // measure 38
0110
0000
0001
0010
0001
0000
1000
0010
,  // measure 39
0100
0001
0010
0100
1000
0000
0001
0000
,  // measure 40
0100
0010
1000
0001
0010
0000
0011
0000
,  // measure 41
1000
0010
0001
0010
1000
0000
0000
0000
,  // measure 42
0001
0100
0010
1000
0002
0000
0000
0000
,  // measure 43
1003
0100
0010
0001
2000
0000
0000
0000
,  // measure 44
3001
0100
0001
0100
0010
1000
0010
1000
,  // measure 45
0200
0000
0020
0330
,  // measure 46
0001
1000
0010
1000
0200
0000
0000
0000
,  // measure 47
1300
0010
0100
0001
0020
0000
0000
0000
,  // measure 48
0031
1000
0001
1000
0010
0100
0010
0100
,  // measure 49
0002
0000
2000
3003
,  // measure 50
0001
0100
1000
0100
0002
0000
0000
0000
,  // measure 51
1003
0100
0001
0100
2000
0000
0000
0000
,  // measure 52
3010
1000
0010
1000
0001
0100
0001
0100
,  // measure 53
0020
1030
0002
0103
,  // measure 54
0001
0010
0001
1000
0020
0000
0000
0000
,  // measure 55
1030
0100
0010
0001
0200
0000
0000
0000
,  // measure 56
0301
0010
0001
0010
0100
1000
0100
1000
,  // measure 57
0002
1003
0020
0130
,  // measure 58
0001
0010
0100
0010
0002
1000
1003
0000
,  // measure 59
0010
1000
0100
1000
0002
0100
0103
0000
,  // measure 60
0001
0010
0100
1000
0001
0010
0100
1000
,  // measure 61
0020
0000
0130
0000
0002
0100
0103
0000
,  // measure 62
0001
1000
0100
1000
0020
0100
0130
0000
,  // measure 63
0010
1000
0001
0010
0002
0100
0103
0000
,  // measure 64
0001
0010
0100
1000
0001
0010
0100
1000
,  // measure 65
0020
0000
0130
0000
0002
0000
1003
0100
,  // measure 66
0001
0000
0000
0000
;

//---------------dance-single - ---------------
#NOTES:
     dance-single:
     :
     Hard:
     13:
     0,0,0,0,0:
// measure 0
0000
0000
0000
0000
,  // measure 1
0000
0000
0000
0000
,  // measure 2
0000
0000
0000
0000
,  // measure 3
0000
0000
0000
0000
,  // measure 4
0000
0000
0000
0000
,  // measure 5
1100
1100
1100
0000
0000
0000
0010
0000
,  // measure 6
1001
0000
0001
0100
0001
0010
0001
1000
,  // measure 7
0010
0001
0010
1000
0100
0010
0001
0000
,  // measure 8
1000
0010
0001
0010
1000
0100
0010
0000
,  // measure 9
0001
0100
0010
1000
0100
0010
0001
0000
,  // measure 10
0110
0000
0001
0010
0100
0010
0100
1000
,  // measure 11
0010
0001
0010
1000
0100
0010
0001
0000
,  // measure 12
1000
0001
1000
0010
1000
0100
0001
0000
,  // measure 13
0010
0001
0100
0010
1000
0100
0001
0000
,  // measure 14
0011
0000
0001
1010
0000
0010
1000
0100
,  // measure 15
1100
0000
0010
0101
0000
0010
1000
0001
,  // measure 16
0110
0000
1000
0101
0000
0010
1000
0001
,  // measure 17
1100
1100
1100
0000
0000
0000
0010
0000
,  // measure 18
1001
0000
1000
0001
0010
1000
0010
0001
,  // measure 19
0100
0010
0100
1000
0100
0001
0010
0000
,  // measure 20
0001
0100
0010
0001
0010
1000
0100
0000
,  // measure 21
0010
0001
1000
0001
0100
0010
1000
0000
,  // measure 22
0110
0000
0010
1000
0001
0010
0100
0001
,  // measure 23
0100
1000
0010
0100
0001
1000
0010
0000
,  // measure 24
1000
0001
0010
1000
0010
0001
0100
0000
,  // measure 25
0010
0100
0001
1000
1001
0000
0000
0000
,  // measure 26
0102
0000
1003
0001
0010
1000
0010
0001
,  // measure 27
0201
0000
0310
1000
0001
0010
0001
0100
,  // measure 28
1010
0000
0010
0100
1001
0000
0100
0010
,  // measure 29
0101
0000
1000
0001
0010
0100
1000
0001
,  // measure 30
0120
0000
1030
0010
0001
0010
1000
0100
,  // measure 31
2001
0000
3001
0010
1000
0010
0001
0100
,  // measure 32
0101
0000
0010
1000
1100
0000
1000
0001
,  // measure 33
1010
0000
0000
0000
0011
0000
0000
0000
1000
0001
1000
0000
0010
0000
1000
0001
,  // measure 34
1000
0000
0010
0100
0001
0010
0001
1000
,  // measure 35
0010
0000
0001
0000
0010
0000
1000
0000
0100
0000
0010
0000
0001
1000
0001
1000
,  // measure 36
0001
0100
0010
1000
0100
0010
0001
0000
,  // measure 37
1000
0000
0001
0000
0010
0000
0001
0000
0100
0000
0010
0000
1000
0001
1000
0001
,  // measure 38
1000
0000
0000
0000
0010
0000
0100
0000
0001
1000
0001
0000
0010
0000
0100
0000
,  // measure 39
1000
0000
0010
0000
0001
0000
0010
0000
1000
0000
0100
0000
0010
0001
0010
0001
,  // measure 40
0010
0100
1000
0001
1000
0010
0001
0000
,  // measure 41
0100
0001
0010
0001
1000
0010
0100
0000
,  // measure 42
0001
0000
1000
0000
0001
0100
0001
0000
2000
0000
0000
0000
0000
0000
0000
0000
,  // measure 43
3010
0000
1000
0000
0001
0010
0001
0000
0200
0000
0000
0000
0000
0000
0010
0000
,  // measure 44
0310
1000
0010
0001
0010
1000
0010
0001
,  // measure 45
0020
1030
2100
3001
,  // measure 46
1001
0000
0100
0000
0001
1000
0001
0000
0020
0000
0100
0000
0000
0100
0000
0000
,  // measure 47
0130
0000
1000
0000
0001
0100
0001
0000
2000
0000
0010
0000
0000
0010
0000
0000
,  // measure 48
3010
1000
0010
0001
0010
1000
0010
0001
,  // measure 49
0010
0000
0000
1000
0001
0000
0010
0000
0200
0000
1000
0000
1300
0000
0000
0000
,  // measure 50
0001
0000
1000
0000
0001
0100
0001
0000
2000
0000
0010
0000
3010
0000
0000
0000
,  // measure 51
0100
0000
0001
0000
0010
0100
0010
0000
0002
0000
1000
0000
1003
0000
0000
0000
,  // measure 52
0001
0100
1000
0100
0001
0010
1000
0010
,  // measure 53
0002
1000
1003
0010
2000
0100
3100
0000
,  // measure 54
0110
0000
0001
0000
1000
0010
1000
0000
0002
0000
0100
0000
0103
0000
0000
0000
,  // measure 55
0110
0000
0010
0000
1000
0100
1000
0000
0002
0000
0010
0000
0013
0000
0000
0000
,  // measure 56
0001
0100
1000
0100
0001
0010
1000
0010
,  // measure 57
0002
0010
0013
0100
2000
0001
3001
0000
,  // measure 58
1010
0000
0010
0000
0100
0001
0100
0000
0010
0000
1000
0000
0100
0000
0010
0000
,  // measure 59
0001
0000
1000
0000
0010
0100
0010
0000
1000
0000
0100
0000
0010
0000
0001
0000
,  // measure 60
0100
1000
0100
0001
0100
0010
1000
0001
,  // measure 61
0020
0001
0031
0100
2000
0010
3010
0000
,  // measure 62
1001
0000
0001
0000
0010
0100
0010
0000
0001
0000
0100
0000
1000
0000
0100
0000
,  // measure 63
0001
0000
1000
0000
0100
0010
0100
0000
1000
0000
0010
0000
0001
0000
0010
0000
,  // measure 64
1000
0100
0001
0100
1000
0010
0001
0010
,  // measure 65
2000
0000
0001
0000
3001
0000
0010
0000
0200
0000
1000
0000
1300
0010
0100
0001
,  // measure 66
1000
0000
0000
0000
;

//---------------dance-single - ---------------
#NOTES:
     dance-single:
     :
     Challenge:
     17:
     0,0,0,0,0:
// measure 0
0000
0000
0000
0000
,  // measure 1
0000
0000
0000
0000
,  // measure 2
0000
0000
0000
0000
,  // measure 3
0000
0000
0000
0000
,  // measure 4
0000
0000
0000
0000
,  // measure 5
1100
0101
1100
0000
0000
0000
0010
0000
,  // measure 6
1001
0000
0100
0001
0110
0010
1000
0001
,  // measure 7
1000
0100
0001
0100
1000
0010
0100
0001
,  // measure 8
0010
1000
0010
0001
0100
0010
0100
0001
,  // measure 9
0010
0100
0001
0100
1000
0010
0100
0001
,  // measure 10
0011
0000
0001
1000
1010
0010
0100
0001
,  // measure 11
0010
1000
0010
0100
0010
0001
0100
0010
,  // measure 12
1000
0100
0001
0100
1000
0001
0100
0010
,  // measure 13
0001
0000
0010
0000
0100
0000
0010
0000
1000
0000
0001
0000
0010
0100
1000
0000
,  // measure 14
1001
0000
0001
0000
0100
0000
1010
0000
0010
0000
0100
0000
0001
1000
0100
0000
,  // measure 15
0110
0000
0010
0000
0001
0000
0101
0000
0010
0000
1000
0000
0001
1000
0100
0000
,  // measure 16
1100
0000
0010
0000
0001
0000
0011
0000
1000
0000
0001
0000
0100
0010
1000
0000
,  // measure 17
1100
0101
1100
0000
0000
0000
0010
0000
,  // measure 18
1001
0000
0010
0000
1000
0000
0100
0000
0010
0001
0100
0000
0010
0000
1000
0000
,  // measure 19
0100
0000
0001
0000
0100
0000
0010
0000
0001
0000
1000
0000
0010
0100
0001
0000
,  // measure 20
0010
0000
0001
0100
0010
0000
1000
0000
0100
0000
0010
0000
0001
0000
0100
0000
,  // measure 21
1000
0000
0100
0000
0010
0000
0100
0000
0001
0000
0010
0000
0100
1000
0001
0000
,  // measure 22
0110
0000
0010
0000
1000
0000
0100
0000
1000
0001
0010
0000
0100
0000
1000
0000
,  // measure 23
0010
0000
0001
0000
0010
0000
1000
0000
0100
0000
0010
0000
0001
1000
0100
0000
,  // measure 24
1000
0000
0010
0000
0100
0000
0001
0000
0010
0000
0100
0000
1000
0010
0100
0000
,  // measure 25
0001
0000
0010
0001
1000
0000
0100
0000
1001
0000
0000
0000
0000
0000
0000
0000
,  // measure 26
1010
0000
0001
0000
0100
0000
0010
0000
0110
0000
1000
0000
0100
0010
0001
0000
,  // measure 27
0100
0000
0001
0000
0010
0001
0100
0000
0010
0000
1000
0000
0001
1000
0100
0000
,  // measure 28
0110
0000
0010
0001
0100
0000
0010
0000
1010
0000
1000
0001
0100
0000
0010
0000
,  // measure 29
0101
0010
1000
1100
0001
0100
1000
0010
,  // measure 30
1001
0000
1000
0000
0100
1000
0001
0000
0011
0000
0001
0000
0100
0010
1000
0000
,  // measure 31
0001
0000
0100
0000
0001
0010
0100
0000
1000
0000
0001
0000
0100
0010
1000
0000
,  // measure 32
0110
0000
0010
1000
0001
0000
0100
0000
0101
0000
0001
0010
0100
0000
1000
0000
,  // measure 33
1100
0000
1000
0100
0010
0001
0100
0000
0001
1000
0010
0100
0001
0000
1000
0001
,  // measure 34
0100
0000
0010
0000
1000
0000
0100
0010
0100
1000
0001
0000
0100
0000
0010
1000
,  // measure 35
0001
0000
0100
0000
0010
0000
0100
0000
0001
0000
1000
0000
0100
1000
0001
1000
,  // measure 36
0010
0000
0100
0000
0001
0000
1000
0010
0100
0001
1000
0000
0010
0000
0100
0000
,  // measure 37
0001
0010
0001
0000
0100
0000
0010
0000
1000
0000
0100
0000
0010
0001
1000
0010
,  // measure 38
0100
0000
0001
0000
1000
0000
0010
1000
0100
0010
0001
0000
0100
0000
0001
1000
,  // measure 39
0001
0000
0100
0000
0010
0000
1000
0100
0010
0001
0100
0000
0001
1000
0010
0100
,  // measure 40
0001
0000
0010
0000
0100
0000
1000
0001
0010
0100
1000
0000
0010
0000
0100
0001
,  // measure 41
1000
0000
0010
0000
1000
0000
0001
0000
0010
0000
0100
0000
1000
0001
0100
0010
,  // measure 42
1000
0000
0000
0100
0000
0000
1000
0001
1000
0001
0000
0000
0200
0000
0000
0010
0000
0000
0310
0000
0000
0000
0000
0000
,  // measure 43
1001
0000
0000
0010
0000
0000
1000
0100
1000
0100
0000
0000
0020
0000
0000
0001
0000
0000
0031
0000
0000
0011
0000
0000
,  // measure 44
1100
0001
0100
1000
0010
1000
0100
0001
,  // measure 45
2010
0001
3001
0000
0102
1000
1003
0000
,  // measure 46
0110
0000
0000
0000
0000
0000
0010
0000
0000
0000
0000
0000
1000
0000
0001
0000
1000
0000
0001
0000
0000
0000
0000
0000
0010
0000
0000
0000
0000
0000
0011
0000
0000
0000
0000
0000
0000
0000
0000
1010
0000
0000
0000
0000
0000
0000
0000
0000
,  // measure 47
0101
0000
0000
0000
0000
0000
1000
0000
0000
0000
0000
0000
0010
0000
0100
0000
0010
0000
0100
0000
0000
0000
0000
0000
0001
0000
0000
0000
0000
0000
0011
0000
0000
0000
0000
0000
0000
0000
0000
0101
0000
0000
0000
0000
0000
0000
0000
0000
,  // measure 48
1100
0000
0010
0000
0001
0000
0100
0000
0001
0000
1010
0000
0010
0100
0001
0000
,  // measure 49
0011
0000
0000
0001
1000
0000
0100
0000
1002
0000
0010
0000
0013
0000
0000
0000
,  // measure 50
0110
0000
0001
0000
1000
0010
0100
0001
0010
0000
0100
0000
1000
0001
0100
0010
,  // measure 51
0100
0000
0001
0000
0010
0100
0010
0001
1000
0000
0010
0000
1000
0001
0010
0100
,  // measure 52
1000
0000
0001
0010
0001
0000
1000
0010
1000
0000
0001
0100
0001
0000
1000
0100
,  // measure 53
1000
0000
0001
0100
0010
0000
1000
0000
1001
0000
0100
0000
0001
0010
0100
1000
,  // measure 54
0001
0000
0000
0000
0000
0000
1000
0000
0000
0000
0000
0000
0010
0000
0100
0000
0010
0000
0100
0000
0000
0000
0000
0000
0001
0000
0000
0000
0000
0000
0010
0000
0000
0000
0000
0000
0001
0000
0000
1000
0000
0000
0100
0000
0000
1000
0000
0000
,  // measure 55
0010
0000
0100
0000
0001
0010
0100
1000
0001
0000
1000
0000
0010
1000
0001
0100
,  // measure 56
0001
0000
0010
0001
0100
0000
0010
1000
0100
0000
1000
0001
0010
0000
0001
1000
,  // measure 57
0100
0000
0010
0001
0010
0100
1000
0000
0001
0100
0010
0100
0001
0000
1000
0000
,  // measure 58
0101
0000
0000
0000
0000
0000
0001
0000
0000
0000
0000
0000
1000
0000
0100
0000
1000
0000
0100
0000
0000
0010
0000
0000
0001
0000
0000
0000
0000
0000
0100
0000
0000
0000
0000
0000
0010
0000
0000
1000
0000
0000
0001
0000
0000
0010
0000
0000
,  // measure 59
0100
0000
0000
0000
0000
0000
1000
0000
0000
0000
0000
0000
0010
0000
1000
0000
0010
0000
1000
0000
0000
0001
0000
0000
0100
0000
0000
0000
0000
0000
0010
0000
0000
0000
0000
0000
1000
0000
0000
0001
0000
0000
0010
0000
0000
0100
0000
0000
,  // measure 60
0010
0000
0001
1000
0001
0000
0100
0010
0100
0000
0010
1000
0100
0000
0010
0001
,  // measure 61
0100
0000
0010
0000
1000
0001
1000
0000
0010
0100
0001
0000
1000
0001
0100
0010
,  // measure 62
1000
0000
0000
0000
0000
0000
0001
0000
0000
0000
0000
0000
0010
0000
0001
0000
0010
0000
0001
0000
0000
0100
0000
0000
0010
0000
0000
0000
0000
0000
1000
0000
0000
0000
0000
0000
0100
0000
0000
1000
0000
0000
0001
0000
0000
0100
0000
0000
,  // measure 63
0010
0000
0000
0000
0000
0000
1000
0000
0000
0000
0000
0000
0001
0000
0010
0000
0001
0000
0010
0000
0000
0100
0000
0000
1000
0000
0000
0000
0000
0000
0001
0000
0000
0000
0000
0000
1000
0000
0000
0010
0000
0000
0100
0000
0000
0001
0000
0000
,  // measure 64
0010
0000
0001
1000
0010
0000
1000
0100
0010
0000
0001
0100
0010
0000
1000
0001
,  // measure 65
0100
0000
0010
0000
1000
0001
0100
0000
0001
0000
0010
0000
0001
0100
0010
1000
,  // measure 66
0001
0000
0000
0000
;
