#TITLE:LOVE BA-ZOOKA!;
#SUBTITLE:;
#ARTIST:DJ YOSHITAKA feat. Nanacchi;
#TITLETRANSLIT:;
#SUBTITLETRANSLIT:;
#ARTISTTRANSLIT:;
#GENRE:;
#CREDIT:;
#BANNER:LOVE BA-ZOOKA!-bn.png;
#BACKGROUND:LOVE BA-ZOOKA!-bg.png;
#LYRICSPATH:;
#CDTITLE:;
#MUSIC:LOVE BA-ZOOKA!.ogg;
#OFFSET:0.667000;
#SAMPLESTART:45.333000;
#SAMPLELENGTH:20.000000;
#SELECTABLE:YES;
#DISPLAYBPM:180.000000;
#BPMS:0.000000=180.000000
;
#STOPS:
;
#BGCHANGES:;
#KEYSOUNDS:;
#ATTACKS:;

//---------------dance-single - ----------------
#NOTES:
     dance-single:
     :
     Hard:
     12:
     0.665011,0.715099,0.673501,0.059427,0.004952,470.000000,402.000000,68.000000,6.000000,0.000000,0.000000,0.665011,0.715099,0.673501,0.059427,0.004952,470.000000,402.000000,68.000000,6.000000,0.000000,0.000000:
0000
0000
0000
0000
,
0000
0000
0000
0000
,
0000
0000
0000
0000
,
0000
0000
0000
0000
,
0000
0000
0000
0000
,
1001
0000
0000
0000
,
0110
0000
0000
0000
,
1010
0000
0101
0000
,
1001
0000
0110
0000
1000
0001
0100
0010
,
1000
0100
1000
0100
0010
0001
0100
0010
,
1000
0000
1000
0000
1000
0001
1000
0001
,
0010
0000
0011
0000
1100
0001
0100
0010
,
0000
1000
0100
0010
0100
1000
0010
0100
,
0001
0000
1001
0000
1010
0100
0001
1000
,
0000
0100
0010
0100
1000
0010
1000
0001
,
0011
0000
1001
0000
1010
0100
0001
1000
,
1100
0000
0110
0000
0011
0100
0010
1000
,
0001
0100
0001
0000
0010
0100
1000
0001
,
0000
0100
0010
0000
0100
0010
1000
0002
,
0000
0000
0013
0000
0000
0010
0001
0100
,
1000
0000
0010
1000
0000
0001
0010
0100
,
2000
0000
3010
0000
0000
1000
0100
0010
,
0001
0000
0100
0010
0000
0100
0001
1000
,
0200
0000
0310
0000
0001
1000
0001
0100
,
0010
1000
0010
0100
0000
0001
1000
0001
,
0011
0000
0100
0000
1010
0000
0100
0001
,
1000
1000
1000
0000
0020
0000
0130
0000
,
0000
0000
0110
0000
0110
0110
0000
1001
,
0000
0010
1000
0100
1000
0001
0100
0000
,
0010
0000
1010
0000
1010
1010
0000
0101
,
0000
0001
0010
0000
0001
0100
1000
0000
,
1100
0000
0010
0001
0010
0100
1000
0000
,
0101
0000
0010
1000
0100
0010
0001
1000
,
0001
0100
0010
0100
1000
0100
0001
0100
,
0010
0000
1000
0100
1000
0000
0001
0000
,
1001
0000
0010
1000
0100
0010
0001
1000
,
0000
0001
0100
0010
1000
0100
1000
0001
,
0010
0000
0001
0100
0001
1000
0000
0101
,
0000
0010
0110
0000
1001
0000
0110
0000
,
1010
0000
0100
0001
0010
0100
1000
0001
,
0000
0010
0001
0000
0011
0000
0100
1000
,
0000
0001
1000
0001
0010
0100
1000
0010
,
0000
0100
0010
0100
0001
0010
0001
1000
,
1010
0000
0101
0000
0010
1000
0100
0010
,
0001
0100
1000
0000
0001
0010
1000
0000
,
0110
0000
1000
0010
1000
0001
0010
0100
,
0000
1000
0100
0010
0001
0100
0001
0000
,
1000
0010
0000
0100
0001
0010
0001
1000
,
0010
0100
0001
0000
1000
0100
0001
0000
,
0011
0001
0100
0000
1010
1000
0100
0000
,
0110
0001
1000
0000
0101
0000
1100
0000
,
1001
0000
0100
0010
0100
1000
0010
0001
,
0000
0100
0001
0010
0001
1000
0010
0100
,
0001
0000
0100
0000
0010
0100
0001
1001
,
0000
0100
0010
0000
1000
0100
0001
0000
,
0110
0000
0001
0100
0010
1000
0100
0010
,
0011
0000
1000
0001
1000
0100
0010
0001
,
0000
0000
0101
0000
1100
1100
0000
0101
,
0000
0000
0000
0000
0000
0000
0000
0000
0010
0000
0000
0010
0000
0000
0010
0000
,
1000
0100
0010
0001
0010
0100
1000
0000
,
1010
0100
0001
0000
0011
0100
1000
0000
,
1001
0100
0000
0010
1000
0010
0100
0001
,
0010
0100
0010
0001
0100
0010
1000
0001
,
0100
0000
1010
0000
0101
1000
0001
0010
,
0000
0001
0100
0010
1000
0100
1000
0001
,
0010
0000
0011
0000
1100
1000
0001
0100
,
0000
0010
0100
0010
1000
0001
1000
0100
,
1100
0000
0110
0000
0011
0100
0010
1000
,
1010
0000
1001
0000
0101
0001
0010
0100
,
1000
0010
1000
0001
1000
0100
0010
0001
,
0100
0010
1000
0000
0001
1000
0002
0200
,
0000
0000
0000
0000
,
0000
0000
0000
0303
,
0110
0000
0000
1001
0000
0000
1100
1100
,
0000
0000
0000
0000
,
0000
0000
0001
0010
0001
0100
0010
1000
,
0001
0000
0000
0000
;

//---------------dance-single - ----------------
#NOTES:
     dance-single:
     :
     Medium:
     9:
     0.506540,0.564552,0.515030,0.198088,0.000000,358.000000,306.000000,52.000000,20.000000,0.000000,0.000000,0.506540,0.564552,0.515030,0.198088,0.000000,358.000000,306.000000,52.000000,20.000000,0.000000,0.000000:
0000
0000
0000
0000
,
0000
0000
0000
0000
,
0000
0000
0000
0000
,
0000
0000
0000
0000
,
0000
0000
0000
0000
,
1001
0000
0000
0000
,
0110
0000
0000
0000
,
1010
0000
0101
0000
,
1001
0000
0110
0000
1000
0001
0100
0000
,
0001
0010
0100
1000
,
0010
0000
0010
0000
0010
0100
0010
0100
,
0000
0000
0101
0000
0101
0000
1000
0001
,
0000
0010
0100
0000
1000
0001
0100
0000
,
1010
0000
1010
0000
1010
0000
1000
0001
,
0000
1000
0100
0000
0010
0001
0100
0000
,
0110
0000
1001
0000
0010
1000
0100
0000
,
0110
0000
1001
0000
0010
0001
0100
0000
,
0001
1000
0001
0000
0010
0000
0100
1000
,
0000
1000
0010
0000
0100
0000
0001
0200
,
0000
0000
0310
0000
0000
1000
0010
1000
,
0001
0000
0010
0100
0000
0100
1000
0001
,
0200
0000
0000
0000
0300
0010
0100
0001
,
1000
0000
0100
0010
0000
0010
0001
1000
,
0002
0000
0000
0000
0003
0100
0001
1000
,
0010
0000
0100
0001
0000
1000
0001
0200
,
0010
0000
0000
0000
1000
0000
0301
0100
,
0000
0010
1000
0000
0110
0000
1000
0000
,
0000
0000
1100
0000
1000
0001
0000
0101
,
0000
0020
2030
3002
,
0103
0000
0101
0000
1000
0001
0000
2200
,
0000
0300
0010
3010
,
1001
0000
0100
0001
0020
0000
0030
0000
,
0011
0000
1000
0001
0000
1000
0000
0200
,
1000
1000
0001
0001
,
1300
0000
0010
0100
0001
0000
0001
0000
,
1001
0000
0010
1000
0000
0100
0000
0020
,
0000
0000
0031
0000
1000
0001
0100
0000
,
0010
0000
0010
0000
1000
0001
0000
0110
,
0000
1010
0101
1100
,
1001
0000
0100
0000
0001
1000
0001
0100
,
0000
0000
0010
0000
1000
0000
0001
2000
,
0000
0000
0010
0000
3010
0100
0001
1000
,
0000
0100
0010
0100
0010
0001
1000
0001
,
0100
0000
0100
0000
0100
0010
1000
0002
,
0000
0010
1000
0100
,
1003
0000
0001
0000
1000
0010
0100
0010
,
0000
0000
1000
0000
0001
0100
0001
0000
,
0011
0000
0100
0000
1000
0010
0100
0000
,
1010
0000
0100
0000
0001
1000
0100
0000
,
1100
0010
0101
0010
,
1000
0001
0100
0000
0001
0000
1000
0000
,
1001
0000
0001
1000
0000
0001
0000
0200
,
0000
0000
0010
0000
1000
0000
0301
0100
,
0001
0000
0010
0000
0100
0000
1000
0002
,
0000
0100
1000
0103
,
0101
0000
0010
1000
0002
0000
0003
0000
,
1100
0000
0010
1000
0200
0000
0300
0000
,
0000
0000
0110
0000
1000
0001
0000
0101
,
0000
0000
0010
0010
,
0110
0000
0100
0000
0001
1000
0100
0000
,
0011
1000
0101
1000
,
1100
0000
0010
0000
0001
0100
0001
0000
,
1000
0000
0010
0000
1000
0000
0001
0100
,
0010
0000
1010
0000
1010
0000
0100
0010
,
0000
1000
0001
0000
0010
0001
0100
0000
,
0110
0000
0110
0000
0110
0000
1000
0001
,
0000
1000
0100
0000
0010
0001
0100
0000
,
1010
0000
0101
0000
0010
0001
1000
0000
,
1100
0000
0011
0000
0100
0001
1000
0000
,
0010
1000
0001
0000
1000
0000
0100
0010
,
0000
0001
1000
0000
0010
0000
2000
0002
,
0000
0000
0000
0000
,
0000
0000
0000
3003
,
1100
0000
0000
0011
0000
0000
0100
0010
,
0000
0000
0000
0000
,
0000
0000
1000
0000
0010
0000
1000
0100
,
0001
0000
0000
0000
;

//---------------dance-single - ----------------
#NOTES:
     dance-single:
     :
     Easy:
     7:
     0.329676,0.414005,0.217897,0.178280,0.000000,233.000000,211.000000,22.000000,18.000000,0.000000,0.000000,0.329676,0.414005,0.217897,0.178280,0.000000,233.000000,211.000000,22.000000,18.000000,0.000000,0.000000:
0000
0000
0000
0000
,
0000
0000
0000
0000
,
0000
0000
0000
0000
,
0000
0000
0000
0000
,
0000
0000
0000
0000
,
1001
0000
0000
0000
,
0110
0000
0000
0000
,
1000
0000
0001
0000
,
0010
0010
0010
0010
,
0001
0001
1000
1000
,
0010
0010
0010
0010
,
0100
0100
0100
0010
,
1000
0010
0100
0001
,
0010
0010
0010
0001
,
1000
0001
0100
0010
,
1000
1000
1000
0100
,
0001
0001
0001
0100
,
0010
1000
0010
0100
,
0001
0010
0001
1000
,
2002
0000
0000
3003
,
0010
1000
0010
0100
,
0220
0000
0000
0330
,
0001
0010
0100
1000
,
2002
0000
0000
3003
,
0010
0100
0010
1000
,
0110
0000
0001
1000
,
0001
0100
0100
0100
,
0000
1001
1001
0000
,
0010
1000
0010
0100
,
0001
0110
0110
0000
,
1000
0000
0001
1000
,
0001
0010
0001
0000
,
0100
0010
1000
0001
,
0220
0000
0000
0000
,
0000
0330
1000
0001
,
1001
0010
1000
0100
,
2000
0000
0000
3000
,
0001
0010
0001
0100
,
0010
1000
1000
0001
,
0010
0001
0010
0100
,
1000
0010
1000
0001
,
0200
0000
0000
0000
,
0300
0010
1000
0001
,
0010
0010
0010
0000
,
0001
0100
0010
1000
,
0100
0100
1000
0001
,
0100
0000
0010
1000
,
0002
0000
0000
0000
,
0003
0010
0001
0100
,
0020
0000
0000
0000
,
0000
0030
1000
0001
,
1001
0100
0010
0100
,
0002
0000
0000
0003
,
0010
0001
1000
0001
,
0100
0010
1000
0100
,
1001
1000
0001
0000
,
0110
0001
0100
0000
,
0000
0110
1001
0000
,
0110
0000
0010
0010
,
1000
0100
1000
0001
,
0020
0030
0200
0300
,
2000
0000
0000
3000
,
0001
0001
1000
1000
,
0010
0110
0110
0000
,
0100
0001
1000
0100
,
1000
1001
1001
0000
,
0010
1000
0010
0100
,
0001
0001
0001
0100
,
1000
1000
1000
0100
,
0010
0001
0010
0100
,
1000
0010
1000
0001
,
0200
0000
0000
0000
,
0000
0000
0000
0300
,
0010
0000
0010
0000
,
0020
0000
0000
0030
,
0000
1000
0100
0010
,
0001
0000
0000
0000
;

//---------------dance-single - ----------------
#NOTES:
     dance-single:
     :
     Beginner:
     4:
     0.195259,0.263458,0.019809,0.019809,0.000000,138.000000,136.000000,2.000000,2.000000,0.000000,0.000000,0.195259,0.263458,0.019809,0.019809,0.000000,138.000000,136.000000,2.000000,2.000000,0.000000,0.000000:
0000
0000
0000
0000
,
0000
0000
0000
0000
,
0000
0000
0000
0000
,
0000
0000
0000
0000
,
0000
0000
0000
0000
,
1001
0000
0000
0000
,
0110
0000
0000
0000
,
1000
0000
0001
0000
,
0000
0000
0000
0000
,
0100
0000
0100
0000
,
0100
0000
0100
0000
,
0010
0010
0010
0000
,
0001
0000
1000
0000
,
0100
0100
0100
0000
,
1000
0000
0001
0000
,
1000
1000
1000
0000
,
0001
0001
0001
0000
,
0010
0000
0001
0000
,
0100
0000
0010
0000
,
1000
0000
0000
0000
,
1000
0000
0001
0000
,
0100
0000
0000
0000
,
0010
0000
1000
0000
,
0010
0000
0000
0000
,
0100
0000
0001
0000
,
0010
0000
0000
0000
,
0001
0001
0001
0000
,
0000
1000
1000
0000
,
0001
0000
0100
0000
,
0010
0010
0010
0000
,
1000
0000
0100
0100
,
0100
0000
1000
0000
,
0001
0000
1000
0000
,
0020
0000
0000
0000
,
0030
0000
1000
1000
,
1000
0000
0001
0000
,
0100
0000
0000
0000
,
0010
0000
0010
0000
,
1000
0000
0001
0000
,
1000
0000
0100
0000
,
1000
0000
0001
0000
,
0100
0000
0000
0000
,
0000
0000
0000
0000
,
0010
0010
0010
0000
,
1000
0000
0100
0000
,
0010
0010
0010
0000
,
0001
0000
0100
0000
,
0001
0000
0000
0000
,
0000
0000
1000
0000
,
0100
0000
0000
0000
,
0000
0000
1000
1000
,
1000
0000
0001
0000
,
0010
0000
0000
0000
,
0001
0000
0100
0000
,
0010
0000
1000
0000
,
0100
0100
0100
0000
,
0010
0010
0010
0000
,
0000
0001
0001
0000
,
0100
0000
0010
0000
,
1000
0000
1000
0000
,
0001
0000
0001
0000
,
0100
0000
0000
0000
,
0100
0100
0100
0000
,
0001
0001
0001
0000
,
0010
0000
0100
0000
,
1000
1000
1000
0000
,
0001
0000
0100
0000
,
0010
0010
0010
0000
,
0100
0100
0100
0000
,
0010
0000
1000
0000
,
0001
0000
1000
0000
,
0200
0000
0000
0000
,
0300
0000
0000
0000
,
0010
0000
0010
0000
,
0010
0000
0000
0000
,
0000
0000
0001
0000
,
0001
0000
0000
0000
;

//---------------dance-single - ----------------
#NOTES:
     dance-single:
     :
     Challenge:
     15:
     0.874419,0.978557,0.673501,0.039618,0.371416,618.000000,550.000000,68.000000,4.000000,0.000000,0.000000,0.874419,0.978557,0.673501,0.039618,0.371416,618.000000,550.000000,68.000000,4.000000,0.000000,0.000000:
// measure 0
0000
0000
0000
0000
,  // measure 1
0000
0000
0000
0000
,  // measure 2
0000
0000
0000
0000
,  // measure 3
0000
0000
0000
0000
,  // measure 4
0000
0000
0000
0000
,  // measure 5
1001
0000
0010
1000
0000
0100
0000
0010
,  // measure 6
0110
0001
0100
1000
,  // measure 7
1010
0000
0010
0100
0101
0000
1000
0000
,  // measure 8
0011
0000
1100
0000
0001
1000
0010
0100
,  // measure 9
0001
0000
0001
0000
1000
0000
1000
0000
0010
1000
0010
0100
0001
0100
0010
0100
,  // measure 10
0001
0000
0001
0000
0001
0001
0001
0001
,  // measure 11
0011
0000
0110
0000
1100
0010
1000
0001
,  // measure 12
0100
0010
0100
0000
0001
0000
1000
0000
0010
0100
0010
0000
1000
0000
0001
0000
,  // measure 13
0101
0000
1001
0000
1010
0100
1000
0001
,  // measure 14
1000
0010
1000
0000
0100
0000
0010
0000
0001
0100
0001
0000
1000
0000
0010
0000
,  // measure 15
0110
0000
1001
0000
1000
0100
0010
0001
,  // measure 16
0101
0000
0000
0000
1100
0000
0000
0000
0001
1000
0001
0000
0100
0000
0010
0000
,  // measure 17
1000
1000
1000
0100
0010
0001
0100
0010
,  // measure 18
1000
0100
0001
0000
1000
0001
0100
0010
,  // measure 19
2000
0000
0100
0000
3100
0000
0000
0000
1000
0001
0100
0000
0010
0000
1000
0000
,  // measure 20
0001
0010
0100
0000
1000
0000
0001
0000
0100
0010
0100
0000
0001
0000
1000
0000
,  // measure 21
0020
0100
0130
0010
0000
1000
0001
0010
,  // measure 22
0100
1000
0010
0000
0100
0000
0001
0000
1000
0100
0010
0000
0001
0000
1000
0000
,  // measure 23
0001
0010
0001
0000
0100
0000
0010
0000
0000
0000
1000
0000
0100
0000
0010
0000
,  // measure 24
0001
1000
0010
0000
1000
0000
0100
0000
0010
0001
0100
0000
0010
0000
1000
0000
,  // measure 25
1001
0000
0100
0000
1010
0001
0100
1000
,  // measure 26
0010
0000
0010
0000
0100
0000
0000
0000
0001
1000
0000
0001
0100
0000
0000
0000
,  // measure 27
0000
0000
0110
0000
1010
1010
0001
0011
,  // measure 28
0000
0000
0100
0000
1000
0000
0010
0000
1000
0001
0100
0000
0010
1000
0100
0000
,  // measure 29
0010
0000
0011
0000
0101
0101
1000
1010
,  // measure 30
0000
0000
0100
0000
0010
0000
0100
0000
0001
1000
0100
0000
0010
0000
0001
0000
,  // measure 31
1001
0000
0100
0000
0010
0000
1000
0000
0001
0100
0010
0000
1000
0001
0100
0000
,  // measure 32
0110
0000
0010
0000
1000
0000
0001
0000
1000
0100
0010
0000
0001
0000
1000
0000
,  // measure 33
0001
0000
0100
0000
0010
0000
0100
0000
1000
0000
0100
0000
0001
0010
0100
1000
,  // measure 34
0001
0000
0100
0010
1000
1000
0001
0000
,  // measure 35
1001
0010
1000
0100
1000
0010
0100
0001
,  // measure 36
0010
0000
0100
0000
1000
0000
0010
0000
1000
0001
0100
0000
0010
0000
1000
0000
,  // measure 37
0100
0010
0001
0100
0110
0110
1000
1010
,  // measure 38
0001
0100
0101
0000
0011
1000
1100
0000
,  // measure 39
0011
0100
0010
0001
0100
0010
1000
0001
,  // measure 40
0100
0000
1000
0000
0100
0000
0001
0000
0010
0100
1000
0000
0001
0000
1100
0000
,  // measure 41
0000
0000
1000
0000
0010
0000
0001
0000
0100
0000
0010
0000
0100
0000
0001
1000
,  // measure 42
0001
0000
0010
0000
0100
0000
0010
0000
0100
1000
0001
0000
0100
0001
1000
0000
,  // measure 43
1010
0000
0001
0000
0100
0000
0010
0000
1000
0100
0010
0000
0001
0000
1000
0000
,  // measure 44
0010
1000
0100
0000
1000
0000
0001
0000
0010
0100
0010
0000
0001
0000
1000
0000
,  // measure 45
0010
0000
0100
0000
0010
0000
1000
0000
0100
0010
0001
0000
1000
0000
0001
0000
,  // measure 46
0100
0010
0100
0000
0001
0000
0010
0000
0100
1000
0001
0000
1000
0000
0010
0000
,  // measure 47
1001
0000
0100
0000
0001
0000
0010
0000
0100
1000
0001
0000
0100
0000
0010
0000
,  // measure 48
1000
0001
1000
0000
0100
0000
0010
0000
0001
0100
0001
0000
0010
0000
1000
0000
,  // measure 49
0100
0010
0100
1000
0001
0000
0100
0000
0010
1000
0001
0000
0010
0100
1000
0000
,  // measure 50
0001
0100
0001
0000
1000
0100
1000
0000
0001
0010
0001
0000
1000
0010
1000
0010
,  // measure 51
0100
0000
0001
0010
0100
0000
1000
0000
0001
1000
0010
0000
0100
0000
0001
0000
,  // measure 52
0010
0000
1000
0000
0010
0000
0001
0000
0100
0010
1000
0000
0100
0010
0100
0000
,  // measure 53
1000
0001
0100
0001
0010
0100
1100
1010
,  // measure 54
0100
0000
0001
0000
0110
0000
1000
0000
0001
0010
0001
0000
0100
0010
1000
0000
,  // measure 55
1001
0000
0010
0000
1000
0000
0100
0000
1000
0001
0010
0000
0100
0000
1000
0000
,  // measure 56
1100
0000
1000
0000
0001
0000
0100
0000
0010
1000
0010
0000
0100
0001
1000
0000
,  // measure 57
0000
0000
1100
0000
0011
0101
0000
1010
,  // measure 58
0000
0000
0000
0000
0000
0000
0000
0000
0110
0000
0000
0110
0000
0000
0110
0000
,  // measure 59
1001
0010
1000
0001
0010
0100
1000
0001
,  // measure 60
0100
0000
0001
0010
0001
0000
1000
0000
0010
0000
0100
0001
1000
0000
0010
0000
,  // measure 61
1000
0000
0100
0000
0001
0000
0100
0000
1000
0000
0010
0000
0100
0001
1000
0000
,  // measure 62
0010
0000
0100
0000
0001
0000
0000
0000
1000
0001
1000
0000
0100
0000
0010
0000
,  // measure 63
0011
0000
0110
0000
1100
0001
0100
1000
,  // measure 64
0010
1000
0100
0000
1000
0000
0001
0000
0010
0100
0010
0000
0001
0000
1000
0000
,  // measure 65
1010
0000
1001
0000
0101
0010
0100
0001
,  // measure 66
1000
0010
0100
0000
0001
0000
1000
0000
0100
0010
0001
0000
1000
0000
0001
0000
,  // measure 67
0011
1000
1100
0000
0010
1000
0100
0001
,  // measure 68
0101
0000
1000
0000
1010
0000
0000
0000
0010
0100
0001
0000
1000
0000
0100
0000
,  // measure 69
0010
0010
0010
0001
0100
0010
1000
1010
,  // measure 70
0001
0100
1000
0000
0010
1000
0100
0022
,  // measure 71
0000
0000
0000
0000
,  // measure 72
0030
0000
0000
0003
,  // measure 73
1001
0000
0000
0101
0000
0000
1010
1100
,  // measure 74
0000
0000
0000
0000
,  // measure 75
0000
0000
0000
1000
0100
0010
0001
0010
0100
1000
0100
0010
,  // measure 76
0001
0000
0000
0000
;
