#TITLE:LOVE & JOY;
#ARTIST:木村 由姫;
#ARTISTTRANSLIT:Yuki Kimura;
#BANNER:LOVE & JOY.png;
#BACKGROUND:LOVE & JOY-bg.png;
#JACKET:LOVE & JOY-jacket.png;
#MUSIC:LOVE & JOY.ogg;
#SAMPLESTART:23.56;
#SAMPLELENGTH:20;
#DISPLAYBPM:173;
#BPMS:0=172.9,4=173.025;
#BGCHANGES:;

//---------------dance-single - ----------------
#NOTES:
     dance-single:
     :
     Beginner:
     2:
     :
0000
0000
0000
0000
,
0000
0000
0000
0000
,
0000
0000
0000
0000
,
0000
0000
0000
0000
,
0000
0000
0000
0000
,
0010
0000
0000
0000
,
0100
0000
0000
0000
,
0010
0000
0000
0000
,
0000
0000
0000
0000
,
0001
0000
0001
0000
,
0001
0000
0000
0000
,
1000
0000
1000
0000
,
1000
0000
0000
0000
,
0001
0000
0001
0000
,
0001
0000
0000
0000
,
1000
0000
1000
0000
,
1000
0000
0000
0000
,
0001
0001
0001
0000
,
0001
0000
0001
0000
,
1000
1000
1000
0000
,
1000
0000
1000
0000
,
0100
0000
0000
0000
,
0010
0000
0000
0000
,
0001
0000
1000
0000
,
0001
0000
0000
0000
,
0001
0001
0001
0000
,
0001
0000
0001
0000
,
1000
1000
1000
0000
,
1000
0000
1000
0000
,
0100
0000
0000
0000
,
0010
0000
0000
0000
,
0001
0000
1000
0000
,
1001
0000
0000
0000
,
1000
0000
0000
0000
,
0001
0000
0000
0000
,
1000
0000
0000
0000
,
0001
0000
0000
0000
,
0100
0000
0000
0000
,
1000
0000
0000
0000
,
0100
0000
0000
0000
,
0001
0000
0000
0000
,
1000
0000
1000
0000
,
1000
0000
0000
0000
,
1000
0000
0000
0000
,
0100
0000
0000
0000
,
0001
0000
0001
0000
,
0001
0000
0000
0000
,
0001
0000
0000
0000
,
0100
0000
0000
0000
,
0001
0000
0001
0000
,
1000
0000
1000
0000
,
0100
0000
0100
0000
,
0010
0000
0000
0000
,
0100
0000
0000
0000
,
0001
0001
0001
0000
,
0001
0000
0001
0000
,
1000
1000
1000
0000
,
1000
0000
1000
0000
,
0100
0000
0000
0000
,
0010
0000
0000
0000
,
0100
0000
0100
0000
,
0100
0000
0000
0000
,
0001
0001
0001
0000
,
0001
0000
0001
0000
,
1000
1000
1000
0000
,
1000
0000
1000
0000
,
0100
0000
0100
0000
,
0010
0000
0010
0000
,
1000
0000
0001
0000
,
1001
0000
0000
0000
,
0000
0000
0000
0000
;

//---------------dance-single - ----------------
#NOTES:
     dance-single:
     :
     Easy:
     5:
     :
0000
0000
0000
0000
,
0000
0000
0000
0000
,
0000
0000
0000
0000
,
0000
0000
0000
0000
,
0000
0000
0000
0000
,
0001
0000
0100
0000
,
1000
0000
0100
0000
,
0001
0000
0010
0000
,
1000
0000
0010
0000
,
0001
0000
0100
0000
,
1000
0000
0001
0000
,
0010
0000
1000
0000
,
0001
0000
0100
0000
,
1000
0000
0001
0000
,
0010
0000
1000
0000
,
0001
0000
1000
0000
,
0100
0100
0100
0000
,
1000
0001
1000
0000
,
0010
0100
0010
0000
,
0100
0010
1000
0001
,
0100
0010
1000
0000
,
0010
0010
0001
0000
,
1000
1000
0100
0000
,
0010
0001
1000
0100
,
0020
0000
0000
0030
,
0100
0010
0100
0000
,
1000
0001
1000
0000
,
0001
0010
0100
1000
,
0001
1000
0010
0000
,
0001
0001
0100
0000
,
1000
1000
0100
0000
,
0010
1000
0001
0100
,
0020
0000
0000
0030
,
1000
0000
1000
1000
,
0100
0000
0100
0100
,
0010
0000
0010
0010
,
0001
0000
1000
0000
,
0001
0000
0001
0010
,
0010
0000
0010
0100
,
0100
0000
0100
1000
,
1000
0000
0001
0000
,
0100
0000
0100
0000
,
0001
0100
0001
0000
,
0010
0000
0010
0000
,
1000
0100
1000
0000
,
0001
0000
1000
0000
,
0001
0100
1000
0000
,
0100
0000
0010
0000
,
1000
0010
0001
0000
,
1000
0100
1000
0000
,
0001
0100
0001
0000
,
1000
0100
1000
0100
,
0001
0100
0001
0100
,
0020
0000
0030
0000
,
0001
1000
1001
0000
,
0010
0100
0010
0000
,
0010
0100
0001
1000
,
0010
0100
0001
0000
,
0100
0100
1000
0000
,
0001
0001
0010
0000
,
0100
1000
0001
0100
,
0020
0000
0000
0030
,
0010
0100
0110
0000
,
0001
1000
0001
0000
,
1000
0100
0010
0001
,
1000
0001
0100
0000
,
0001
0100
1000
0000
,
0001
0010
1000
0000
,
0001
0100
1000
0010
,
2002
0000
0000
0000
,
3003
0000
0000
0000
,
0000
0000
0000
0000
;

//---------------dance-single - ----------------
#NOTES:
     dance-single:
     :
     Medium:
     9:
     :
0000
0000
0000
0000
,
0000
0000
0000
0000
,
0000
0000
0000
0000
,
0000
0000
0000
0000
,
0000
0000
0000
0000
,
0100
0100
0001
0001
,
1000
1000
0010
0010
,
0100
0100
0001
0001
,
0010
0010
0100
0100
,
1000
1000
0100
0100
,
0010
0001
0010
0001
,
0100
0100
0010
0010
,
1000
0100
1000
0100
,
0010
0010
0001
0001
,
0100
0010
0100
0010
,
1000
1000
0001
0001
,
1001
0000
1001
0000
1000
0010
0100
0010
,
0100
0000
0010
0000
1001
0000
1000
0100
,
0000
0010
0000
0001
0100
0000
1001
0000
,
1000
0000
0001
0000
0100
0000
0010
0100
,
0000
0100
0000
0100
0010
0000
0110
0000
,
1000
1100
0001
0101
,
0010
0000
1000
0000
0100
0000
0001
0100
,
1000
0001
0100
0110
,
1002
0000
0000
0000
1003
0010
0100
0010
,
0100
0000
0010
0000
1001
0000
0010
0100
,
0000
0001
0000
1000
0100
0000
0110
0000
,
0001
0000
0100
0000
0010
0000
1000
0001
,
0000
0001
0000
0001
1000
0000
1001
0000
,
0010
1010
0100
0101
,
0010
0000
0001
0000
0100
0000
1000
0100
,
0001
0010
1000
0001
,
2002
0000
0000
3003
,
0001
0100
0010
0100
,
1000
0000
0100
0000
0010
0000
0010
0100
,
0000
0001
0000
0001
0000
0001
1000
0000
,
0001
1000
0010
0101
,
0001
0010
0001
0100
,
1000
0000
0010
0000
0100
0000
0010
1000
,
0000
0100
0000
0100
0000
0100
0010
0000
,
0001
1000
1010
1001
,
0010
0100
1000
0010
,
0100
0002
0000
0100
,
0103
0010
1000
0001
,
0010
0100
0010
0000
1000
0000
1001
0000
,
0010
0010
0010
1000
,
0001
0200
0000
0010
,
0310
1000
0100
0010
,
1000
0000
0001
0000
0100
0000
0100
0010
,
0100
0000
0010
0000
1010
0000
0000
0010
,
0100
0000
0010
0000
0011
0000
0000
0010
,
0100
1010
0100
0011
,
0100
0001
0010
1000
,
1001
0000
1001
0000
0001
0100
0010
0010
,
0100
0000
0010
0000
1001
0000
0001
0100
,
0000
0010
0000
1000
0100
0000
0110
0000
,
0001
0000
1000
0000
0100
0000
0010
0100
,
0000
0100
0000
0100
0010
0000
0110
0000
,
1002
0103
2001
3100
,
0210
0000
0301
0000
0100
0000
1000
0100
,
0001
1000
0100
0110
,
2001
0000
0000
0000
3001
0100
0010
0010
,
0100
0000
0010
0000
1001
0000
0010
0100
,
0000
1000
0000
0001
0100
0000
0110
0000
,
1000
0000
0100
0000
0010
0000
0001
1000
,
0000
0001
0000
1000
0001
0000
1001
0000
,
0012
0103
2010
3100
,
0110
0000
1001
0000
0110
0000
0001
0100
,
1000
0000
0100
0001
1000
0001
0100
0000
,
2002
0000
0000
0000
,
3003
0000
0000
0000
,
0000
0000
0000
0000
;

//---------------dance-single - ----------------
#NOTES:
     dance-single:
     :
     Hard:
     11:
     :
0000
0000
0000
0000
,
0000
0000
0000
0000
,
0000
0000
0000
0000
,
0000
0000
0000
0000
,
0000
0000
0000
0000
,
1000
0000
0001
0100
0001
0000
0010
0000
,
1000
0000
0100
0001
0100
0000
0001
0000
,
1000
0000
0010
0100
0010
0000
0001
0000
,
0100
0000
0010
1000
0010
0000
0100
0000
,
0001
0000
0010
0001
0010
0000
0001
0100
,
0001
0000
1000
0100
1000
0000
0010
1000
,
0010
0000
0100
0001
0100
0000
0001
1000
,
0001
0000
1000
0010
1000
0000
0010
0100
,
0010
0000
1000
0100
0010
0000
0001
1000
,
0100
0000
0010
0001
0100
0000
0010
1000
,
0001
0000
1000
0010
0100
0000
0001
1000
,
1001
0000
0000
0000
1001
0000
0000
0001
0100
0000
0010
0000
0010
0000
0010
0000
,
0100
0000
1100
0000
0101
0000
0010
0001
,
0000
0100
0000
1000
0010
0000
1001
0000
,
0010
0000
1010
0000
0011
0000
0100
0001
,
0000
0010
0000
1000
0100
0000
0110
0000
,
1001
0000
0100
0010
1000
0000
1000
0100
,
0010
0000
0010
0001
0100
0000
0100
0010
,
2000
0000
0100
0100
0000
3001
0100
0000
,
0110
0000
0000
0000
1001
0000
0000
0001
0100
0000
0010
0000
0010
0000
0010
0000
,
0100
0000
1100
0000
0101
0000
0010
1000
,
0000
0100
0000
0001
0010
0000
1001
0000
,
0010
0000
0011
0000
1010
0000
0100
1000
,
0000
0010
0000
0001
0100
0000
0110
0000
,
1001
0000
0001
0100
0010
0000
0010
1000
,
0001
0000
0001
0010
0100
0000
0100
1000
,
0002
0000
0100
0100
0000
1003
0100
0000
,
0110
1001
0110
1001
,
0010
0100
0010
1000
0000
1000
0010
0100
,
0010
1000
0100
1000
0000
1000
0100
0010
,
0000
0011
0000
0011
0000
0100
0001
0010
,
0000
0101
0000
1100
0000
0001
1001
0000
,
0001
0010
0001
0100
0000
0100
0001
1000
,
0010
0100
0010
1000
0000
1000
0001
0010
,
0000
0110
0000
0110
0000
0010
0001
0100
,
0000
0011
0000
1100
0000
0100
0110
0000
,
1000
0100
0010
0100
1000
0000
0001
0000
,
0100
0101
0010
0100
,
0001
1100
0010
1000
,
0001
0000
0010
0000
0001
0100
1000
0000
,
0100
0010
1000
0010
0100
0000
0001
0000
,
1000
0011
0100
1000
,
0010
0101
1000
0001
,
0010
0000
1000
0000
0100
0010
0100
0000
,
1000
0100
0010
0001
0010
0000
0011
0000
,
0001
0010
0100
1000
0100
0000
1100
0000
,
1000
0100
0010
0000
0001
0010
0100
0000
,
0010
0000
0000
0001
0000
0000
0001
0000
1000
0000
0000
0100
0000
0000
0100
0000
,
1100
0000
0000
0000
0011
0000
0000
0010
0100
0000
0010
0000
0010
0000
0010
0000
,
0100
0000
1100
0000
0101
0000
0010
0001
,
0000
0100
0000
1000
0010
0000
1001
0000
,
0110
0000
1010
0000
0011
0000
0100
0001
,
0000
0010
0000
1000
0100
0000
0110
0000
,
1001
0000
0010
0100
0001
0000
1000
0001
,
0010
0000
0001
1000
0100
0000
0010
0100
,
0002
0000
0100
0100
0000
1003
0100
0000
,
0110
0000
0000
0000
1001
0000
0000
0001
0100
0000
0010
0000
0010
0000
0010
0000
,
0100
0000
1100
0000
0101
0000
0010
1000
,
0000
0100
0000
0001
0010
0000
1001
0000
,
1010
0000
0011
0000
1010
0000
0100
1000
,
0000
0010
0000
0001
0100
0000
0110
0000
,
1001
0000
0001
1000
0001
0100
0010
1000
,
0010
0000
1000
0100
0010
0001
1000
0001
,
2000
0000
0100
0100
0000
3001
0100
0000
,
0110
0000
0000
0000
1001
0000
0000
0010
0100
0000
0010
0000
0010
0000
0010
0000
,
0100
0000
0000
0000
,
0000
0000
0000
0000
;

//---------------dance-single - ----------------
#NOTES:
     dance-single:
     :
     Challenge:
     14:
     :
0000
0000
0000
0000
,
0000
0000
0000
0000
,
0000
0000
0000
0000
,
0000
0000
0000
0000
,
0000
0000
0000
0000
,
1001
0000
0001
0100
1000
0000
0001
0100
,
0010
0000
1000
0100
0001
0000
0010
0001
,
0100
0000
0010
1000
0001
0000
0010
0100
,
1000
0000
0000
0000
0010
0000
0001
0000
0100
0000
0000
0000
1000
0001
1000
0001
,
1000
0000
0010
0001
0100
0001
0010
0100
,
1000
0010
1000
0001
1000
0100
0010
0001
,
0100
0000
0010
1000
0001
1000
0100
0010
,
0100
0000
0001
0000
0100
0000
1000
0000
0010
0000
0100
0000
0001
1000
0001
1000
,
0001
0100
0010
0001
1000
0010
0100
1000
,
0100
0010
0100
1000
0100
0001
0010
1000
,
0001
0000
0010
0000
0001
0000
0100
0000
1000
0010
1000
0000
0001
1000
0001
0000
,
0101
0000
0000
0000
1100
0000
0000
0001
1000
0000
0010
0000
0010
0000
0010
0000
,
0101
0000
1010
0000
1100
0001
0010
1000
,
0100
0000
0010
0000
0001
0000
0100
0000
1000
0000
0010
0100
0001
0000
0000
0000
,
0011
0000
1100
0000
0101
0010
1000
0001
,
0100
0000
0010
0000
1000
0000
0100
0000
0010
0000
0001
1000
0100
0000
0000
0000
,
0010
0001
0000
0000
0001
0100
0000
0000
0100
1000
0000
0000
1000
0010
0000
0000
,
0100
0001
0000
0000
1000
0001
0000
0000
0010
0001
0000
0000
1000
0000
1000
0000
,
1000
0010
0001
1000
0100
0010
0001
0000
,
0011
0000
0000
0000
1100
0000
0000
0001
0100
0000
0010
0000
0010
0000
0010
0000
,
1001
0000
1010
0000
0101
0010
0100
0001
,
0010
0000
1000
0000
0100
0000
0010
0000
0100
0000
1000
0001
0100
0000
0000
0000
,
0110
0000
1010
0000
1100
0001
1000
0010
,
0100
0000
0010
0000
1000
0000
0100
0000
0001
0000
0010
0100
1000
0000
0000
0000
,
0001
0010
0000
0000
0010
1000
0000
0000
1000
0100
0000
0000
0100
0001
0000
0000
,
0100
1000
0000
0000
0001
1000
0000
0000
0010
1000
0000
0000
0001
0000
0001
0000
,
0001
0010
1000
0001
0010
0100
1000
0000
,
1001
0000
0000
0000
0110
0000
0000
1000
0001
0000
0001
0000
0001
0000
0001
0000
,
0010
1000
0001
0100
0010
1000
0100
0001
,
1000
0001
1000
0001
0010
0010
0100
0100
,
1000
0001
1000
0100
0010
0001
0010
0100
,
0010
0010
1000
0100
0001
1000
0001
0100
,
1000
0100
0100
0001
1000
0010
0001
0010
,
1000
0010
0010
0100
0100
0001
1000
0001
,
1000
0001
0010
0100
1000
0010
0001
0100
,
1010
0000
0000
0000
0101
0000
0000
0010
0100
0000
0100
0000
0100
0000
0100
0000
,
0001
0010
1000
0010
1000
0100
1000
0001
,
0100
0010
0010
0000
1000
0100
1000
0001
,
0000
0010
0010
0001
1000
0010
1000
0100
,
0000
1000
0010
0001
1000
0001
0100
0010
,
1000
0100
0001
0010
0100
0010
0001
1000
,
0001
0010
0010
0000
0100
1000
0001
1000
,
0000
0010
1000
0100
0001
0010
0001
0001
,
0000
0000
0010
0000
0100
0000
1000
0001
1000
0000
0010
0000
0100
0000
0001
0000
,
0010
0000
0010
0000
0001
0000
1000
0000
1000
0000
0000
1000
0010
0100
0001
0000
,
1000
0000
1000
0000
0100
0000
0010
0000
0010
0000
0000
0001
1000
0001
1000
0000
,
0010
0010
1000
1000
0100
0100
0001
0001
,
0010
0001
0000
0001
0100
0000
0010
0000
1000
0100
0000
0100
0010
0000
0001
0000
,
1000
0000
0001
0100
0001
0000
1000
0100
1000
0000
0010
0000
0010
0000
0010
0000
,
1001
0000
0011
0000
0101
0010
0100
1000
,
0001
0000
0010
0000
0001
0000
0100
0000
1000
0000
0010
0100
0001
0000
0000
0000
,
0011
0000
1001
0000
1010
0001
1000
0100
,
0001
0000
1000
0000
0010
0000
1000
0000
0100
0000
0010
0001
1000
0000
0000
0000
,
0010
1000
0000
0000
1000
0100
0000
0000
0100
0001
0000
0000
0001
0010
0000
0000
,
0100
0010
0000
0000
0001
0010
0000
0000
1000
0010
0000
0000
0100
0000
0100
0000
,
0100
0001
0010
1000
0001
0100
1000
0000
,
1100
0000
0000
0000
0011
0000
0000
0100
0001
0000
1000
0000
1000
0000
1000
0000
,
1100
0000
0110
0000
0011
1000
0001
0010
,
1000
0000
0100
0000
0001
0000
0100
0000
0010
0000
0001
1000
0100
0000
0000
0000
,
0110
0000
1001
0000
1010
0100
0001
0010
,
1000
0000
0001
0000
0010
0000
1000
0000
0100
0000
0010
0001
0100
0000
0000
0000
,
0001
0010
0000
0000
0010
1000
0000
0000
1000
0100
0000
0000
0100
0001
0000
0000
,
1000
0100
0000
0000
0010
0100
0000
0000
0001
0100
0000
0000
0010
0000
0010
0000
,
0010
1000
0100
0001
1000
0001
0010
0000
,
1100
0000
0000
0000
0101
0000
0000
0010
1000
0000
1000
0000
1000
0000
1000
0000
,
1001
0000
0000
0000
;

//---------------dance-double - ----------------
#NOTES:
     dance-double:
     :
     Easy:
     6:
     :
00000000
00000000
00000000
00000000
,
00000000
00000000
00000000
00000000
,
00000000
00000000
00000000
00000000
,
00000000
00000000
00000000
00000000
,
00000000
00000000
00000000
00000000
,
00000100
00000000
00000001
00000000
,
00000100
00000000
00001000
00000000
,
00000010
00000000
00000001
00000000
,
00000010
00000000
00001000
00000000
,
00010000
00000000
01000000
00000000
,
10000000
00000000
01000000
00000000
,
00010000
00000000
00100000
00000000
,
10000000
00000000
00100000
00000000
,
00010000
00000000
00001000
00000000
,
00000100
00000000
00000010
00000000
,
00000001
00000000
00000010
00000000
,
00000100
00000100
00000100
00000000
,
00001000
00000001
00001001
00000000
,
00000100
00001000
00010000
00000000
,
00001000
00010000
01000000
10000000
,
00010000
10000000
10010000
00000000
,
00100000
00100000
01000000
01000000
,
00010000
10000000
00010000
00000000
,
00100000
00001000
00010000
00000100
,
00000020
00000000
00000000
00000030
,
00000001
00001000
00001001
00000000
,
00000100
00001000
00010000
00000000
,
00001000
00010000
00100000
10000000
,
00010000
10000000
10010000
00000000
,
10000000
10000000
00010000
00010000
,
10000000
00010000
10000000
00000000
,
00100000
00001000
00010000
00000100
,
00002000
00000000
00000000
00003000
,
00000010
00000000
00000001
00000000
,
00000100
00000100
00000100
00000000
,
00001000
00000000
00010000
00000000
,
00010000
01000000
10000000
00000000
,
00100000
00000000
10000000
00000000
,
01000000
01000000
01000000
00000000
,
00010000
00000000
00001000
00000000
,
00001000
00000100
00000001
00000000
,
00000010
00000000
00000100
00000000
,
00000001
00001000
00000001
00000000
,
00000100
00000000
00001000
00000000
,
00010000
00001000
00010000
00000000
,
01000000
00000000
00100000
00000000
,
10000000
00010000
10000000
00000000
,
01000000
00000000
00010000
00000000
,
00001000
00010000
00001000
00000000
,
00000100
00000100
00000100
00000000
,
00000010
00000010
00000010
00000000
,
00001000
00000001
00001000
00000010
,
00000100
00001000
00010000
00001000
,
00200000
00000000
00300000
00000000
,
00010000
10000000
10010000
00000000
,
01000000
00010000
00001000
00000000
,
00010000
00001000
00000100
00000001
,
00001000
00000001
00001001
00000000
,
00000010
00000010
00000100
00000100
,
00001000
00000001
00001000
00000010
,
00000100
00001000
00010000
00100000
,
02000000
00000000
00000000
03000000
,
00010000
10000000
10010000
00000000
,
00100000
00010000
00001000
00000000
,
00010000
00001000
00000010
00000001
,
00001000
00000001
00001001
00000000
,
00000001
00000001
00000100
00001000
,
00010000
00010000
00001000
00100000
,
00010000
00100000
01000000
10000000
,
20020000
00000000
00000000
00000000
,
30030000
00000000
00000000
00000000
,
00000000
00000000
00000000
00000000
;

//---------------dance-double - ----------------
#NOTES:
     dance-double:
     :
     Medium:
     9:
     :
00000000
00000000
00000000
00000000
,
00000000
00000000
00000000
00000000
,
00000000
00000000
00000000
00000000
,
00000000
00000000
00000000
00000000
,
00000000
00000000
00000000
00000000
,
02000000
00000000
00000000
00000000
,
03020000
00000000
00000000
00000000
,
00030020
00000000
00000000
00000000
,
00000000
00000000
00000000
00001030
,
00000200
00000000
00000010
00000000
,
00002300
00000000
00000100
00000000
,
00003002
00000000
00000010
00000103
,
00002000
00000000
00023000
00000000
,
02030000
00000000
00010000
00000000
,
23000000
00000000
00010000
00000000
,
30200000
00000000
01000000
00000000
,
01300000
00000000
01000000
00000000
01000000
00010000
10000000
00010000
,
10000000
00000000
11000000
00000000
00110000
00000000
00100000
01000000
,
00000000
00100000
00000000
00001000
00010000
00000000
00011000
00000000
,
00000100
00000000
00001000
00000000
00000001
00000000
00000100
00000010
,
00000000
00000010
00000000
00000010
00000100
00000000
00000110
00000000
,
00000001
00000100
00001000
00010000
,
00100000
00000000
00100000
00000000
01000000
00000000
00010000
10000000
,
00010000
00100000
00010000
10000000
,
01200000
00000000
00000000
00000000
00300000
00001000
00010000
00001000
,
00010000
00000000
00001000
00000000
00011000
00000000
00010000
00000100
,
00000000
00000010
00000000
00000100
00001000
00000000
00001001
00000000
,
00001000
00000000
00000010
00000000
00000100
00000000
00001000
00010000
,
00000000
00010000
00000000
00010000
00001000
00000000
00011000
00000000
,
00010000
00100000
10000000
01000000
,
00100000
00000000
00001000
00010000
00001000
00000000
00000010
00000000
,
00000001
00000100
00001000
00010000
,
00022000
00000000
00000000
00033000
,
00001000
01000000
00001000
00100000
,
00010000
00000000
10000000
00000000
01000000
00000000
00010000
00001000
,
00000000
00010000
00000000
00010000
00000000
00010000
00001000
00000000
,
00010000
00001000
00000100
00000001
,
00000010
00000001
00000010
00001000
,
00000010
00000000
00000001
00000000
00000100
00000000
00001000
00010000
,
00000000
00001000
00000000
00001000
00000000
00001000
00010000
00000000
,
00100000
01000000
01100000
00000000
,
10000000
10000000
10000000
00100000
,
01000000
00020000
00000000
00130000
,
00001000
00010000
00000100
00001000
,
00000100
00000010
00000100
00000000
00001000
00000000
00001001
00000000
,
00000100
00000100
00000100
00000001
,
00000100
00000020
00000000
00000130
,
00001000
00010000
00001000
00100000
,
00010000
00000000
10000000
00000000
10010000
00000000
00000000
00100000
,
00010000
00000000
00100000
00000000
00011000
00000000
00000000
00000010
,
00001000
00000000
00000010
00000000
00011000
00000000
00000000
00100000
,
00010000
00100000
00010000
00110000
,
10000000
01000000
00010000
00001000
,
00000020
00000000
00000000
00000000
00000000
00000031
00001000
00000001
,
00001000
00000000
00000101
00000000
00001010
00000000
00000010
00000100
,
00000000
00000010
00000000
00010000
00001000
00000000
00011000
00000000
,
01000000
00000000
00010000
00000000
10000000
00000000
01000000
00100000
,
00000000
00100000
00000000
00100000
01000000
00000000
01100000
00000000
,
10000000
01000000
00010000
00001000
,
00000010
00000000
00000010
00000000
00000100
00000000
00001000
00000001
,
00001000
00000010
00001000
00000001
,
00000120
00000000
00000000
00000000
00000030
00010000
00001000
00010000
,
00001000
00000000
00010000
00000000
00011000
00000000
00001000
01000000
,
00000000
00100000
00000000
01000000
00010000
00000000
10010000
00000000
,
00010000
00000000
00100000
00000000
01000000
00000000
00010000
00001000
,
00000000
00001000
00000000
00001000
00010000
00000000
00011000
00000000
,
00001000
00000110
00000001
00001001
,
00000010
00000000
00010000
00001000
00010000
00000000
00100000
00000000
,
10000000
11000000
00100000
00110000
,
20020000
00000000
00000000
00000000
,
30030000
00000000
00000000
00000000
,
00000000
00000000
00000000
00000000
;

//---------------dance-double - ----------------
#NOTES:
     dance-double:
     :
     Hard:
     11:
     :
00000000
00000000
00000000
00000000
,
00000000
00000000
00000000
00000000
,
00000000
00000000
00000000
00000000
,
00000000
00000000
00000000
00000000
,
00000000
00000000
00000000
00000000
,
00000010
00000000
00000001
00000100
00000001
00000000
00000100
00000000
,
00000010
00000000
00001000
00000100
00001000
00000000
00000010
00000000
,
00000100
00000000
00001000
00010000
00001000
00000000
00010000
00000000
,
00001000
00000000
00100000
01000000
00100000
00000000
00010000
00000000
,
01000000
00000000
00100000
10000000
00100000
00000000
10000000
01000000
,
10000000
00000000
01000000
00010000
01000000
00000000
00010000
00001000
,
00010000
00000000
00001000
00000010
00001000
00000000
00000010
00000001
,
00000010
00000000
00000001
00000100
00000001
00000000
00000100
00001000
,
00000100
00000000
00001000
00010000
00100000
00000000
00100000
10000000
,
01000000
00000000
01000000
00100000
00010000
00000000
00010000
00001000
,
00000100
00000000
00000100
00000010
00000001
00000000
00000001
00000100
,
00001000
00000000
00010000
00000000
00011000
00100000
00100000
00100000
,
01000000
00000000
10010000
00000000
01100000
00000000
00010000
00100000
,
00000000
10000000
00000000
01000000
00010000
00000000
00011000
00000000
,
00000100
00000000
00000001
00000000
00000010
00000000
00001000
00000010
,
00000000
00000001
00000000
00000100
00001000
00000000
00011000
00000000
,
00100000
01010000
00100000
11000000
,
00100000
00000000
01010000
00000000
00011000
00000000
00010000
00001000
,
00000020
00000000
00000001
00000001
00000000
00000130
00001000
00000000
,
00000001
00000000
00001000
00000000
00001001
00000010
00000010
00000010
,
00000100
00000000
00000011
00000000
00001010
00000000
00000010
00000001
,
00000000
00000100
00000000
00001000
00010000
00000000
00011000
00000000
,
00010000
00000000
00100000
00000000
01000000
00000000
00100000
10000000
,
00000000
01000000
00000000
00010000
00001000
00000000
00011000
00000000
,
00000010
00001100
00000010
00000101
,
00000010
00000000
00001100
00000000
00011000
00000000
00001000
00010000
,
00200000
00000000
10000000
10000000
00000000
01300000
00010000
00000000
,
01010000
11000000
01100000
10010000
,
10000000
01000000
10000000
00100000
00000000
00100000
01000000
00100000
,
01000000
00010000
00100000
00010000
00000000
00010000
00100000
00001000
,
00000000
00101000
00000000
00011000
00000000
00010000
00001000
00000010
,
00000000
00000100
00000000
00000110
00000000
00000001
00001000
00000000
,
00000001
00000010
00000001
00000100
00000000
00000100
00000010
00000100
,
00000010
00001000
00000100
00001000
00000000
00001000
00000100
00010000
,
00000000
00010100
00000000
00011000
00000000
00001000
00010000
00100000
,
00000000
00100000
00000000
00100000
00000000
10000000
10010000
00000000
,
10000000
01000000
00100000
00000000
00110000
00000000
00010000
01000000
,
00000000
00100000
10000000
00000000
00010000
00000000
10000000
00000000
,
01000000
00100000
00001000
00011000
,
00000100
00000000
00001000
00000000
00000010
00001000
00000001
00000000
,
00000001
00000100
00000010
00000000
00001010
00000000
00000101
00000000
,
00000010
00001100
00000001
00000010
,
00001000
00011000
00010000
00100000
,
01000000
00000000
01100000
00000000
00100000
01000000
00100000
00000000
,
00100000
10000000
01000000
00010000
00001000
00000000
00011000
00000000
,
00000010
00000001
00000100
00001000
00010000
00000000
00011000
00000000
,
00100000
00001000
00010000
00000000
00000010
00010000
00001000
00000000
,
00100000
00000000
00000000
00010000
00000000
00000000
00010000
00000000
10000000
00000000
00000000
01000000
00000000
00000000
01000000
00000000
,
00010000
00000000
00001000
00000000
00011000
00000010
00000010
00000010
,
00000100
00000000
00001001
00000000
00000110
00000000
00001000
00000010
,
00000000
00000001
00000000
00000100
00001000
00000000
00011000
00000000
,
01000000
00000000
10000000
00000000
00100000
00000000
00010000
00100000
,
00000000
10000000
00000000
01000000
00010000
00000000
00011000
00000000
,
00000010
00000000
00000010
00000001
00000100
00000000
00000100
00000010
,
00001000
00000000
00001000
00000100
00010000
00000000
00010000
00001000
,
00200000
00000000
00010000
00010000
00000000
01300000
10000000
00000000
,
10010000
00000000
10010000
00000000
10010000
00100000
00100000
00100000
,
01000000
00000000
10100000
00000000
00110000
00000000
00100000
10000000
,
00000000
01000000
00000000
00010000
00001000
00000000
00011000
00000000
,
00001000
00000000
00000010
00000000
00000100
00000000
00000010
00000001
,
00000000
00000100
00000000
00001000
00010000
00000000
00011000
00000000
,
00100000
00000000
00010000
01000000
00100000
00000000
10000000
01000000
,
00010000
00000000
00001000
00010000
00000100
00000000
00001000
00000001
,
00000020
00000000
00000001
00000001
00000000
00000130
00001000
00000000
,
00001100
00010010
00011000
00101000
,
00011000
00000000
00000000
00000000
,
00000000
00000000
00000000
00000000
;
