#TITLE:LOVE & JOY -Risk Junk MIX-;
#SUBTITLE:;
#ARTIST:Risk Junk;
#TITLETRANSLIT:;
#SUBTITLETRANSLIT:;
#ARTISTTRANSLIT:;
#GENRE:;
#CREDIT:;
#BANNER:LOVE & JOY -Risk Junk MIX--bn.png;
#BACKGROUND:LOVE & JOY -Risk Junk MIX--bg.png;
#LYRICSPATH:;
#CDTITLE:;
#MUSIC:LOVE & JOY -Risk Junk MIX-.ogg;
#OFFSET:0.000000;
#SAMPLESTART:62.641998;
#SAMPLELENGTH:20.000000;
#SELECTABLE:YES;
#DISPLAYBPM:180.000000;
#BPMS:0.000000=180.000000
;
#STOPS:
;
#BGCHANGES:;
#KEYSOUNDS:;
#ATTACKS:;

//---------------dance-single - ----------------
#NOTES:
     dance-single:
     :
     Beginner:
     3:
     0.170497,0.256135,0.088705,0.000000,0.000000,148.000000,137.000000,11.000000,0.000000,0.000000,0.000000,0.170497,0.256135,0.088705,0.000000,0.000000,148.000000,137.000000,11.000000,0.000000,0.000000,0.000000:
0000
0000
0000
0000
,
0000
0000
0000
0000
,
0000
0000
0000
0000
,
0000
0000
0000
0000
,
0000
0000
0000
0000
,
0001
0000
0000
0000
,
1000
0000
0000
0000
,
0001
0000
0000
0000
,
1000
0000
0000
0000
,
0000
0000
0000
0000
,
0001
0000
0000
0000
,
0001
0000
0001
0000
,
0010
0000
0000
0000
,
0010
0000
0010
0000
,
1000
0000
0000
0000
,
0001
0000
0000
0000
,
1000
0000
0001
0000
,
1001
0000
0000
0000
,
1000
0000
0000
0000
,
1000
0000
1000
0000
,
0010
0000
0000
0000
,
0010
0000
0010
0000
,
0001
0000
0000
0000
,
1000
0000
0000
0000
,
0001
0000
1000
0000
,
1001
0000
0000
0000
,
0000
0000
0000
1000
,
0000
0000
0000
0010
,
0000
0000
0000
0001
,
0000
0000
0000
0100
,
0000
0000
0000
1000
,
0000
0000
0000
0010
,
0000
0000
0000
0001
,
0000
0000
0000
0100
,
0000
0000
1000
1000
,
0000
0000
0001
0001
,
0000
0000
1000
1000
,
0000
0000
0001
0001
,
0000
0000
0010
0010
,
0000
0000
0100
0100
,
0000
0000
0010
0010
,
0000
0000
0100
0100
,
0000
0000
0000
1001
,
0000
0000
0000
1001
,
0000
0000
0000
1001
,
0000
0000
0000
1001
,
1001
0000
0000
0000
,
0001
0000
0000
0000
,
1000
0000
0001
0000
,
1000
0000
0000
0000
,
0001
0000
1000
0000
,
0010
0000
0010
0000
,
0100
0000
0100
0000
,
0001
0000
1000
0000
,
1001
0000
0000
0000
,
1000
0000
0000
0000
,
0001
0000
1000
0000
,
0001
0000
0000
0000
,
1000
0000
0001
0000
,
0010
0000
0010
0000
,
0100
0000
0100
0000
,
1000
0000
0001
0000
,
1001
0000
0000
0000
,
0000
0000
0010
0010
,
0000
0000
0001
0001
,
0000
0000
1000
1000
,
0000
0000
0000
0000
,
0000
0000
0100
0100
,
0000
0000
0001
0001
,
0000
0000
1000
1000
,
0000
0000
0100
0100
,
0100
0000
0000
0000
,
0000
0000
0000
0000
,
0010
0010
0010
0000
,
0010
0000
0010
0000
,
1000
1000
1000
0000
,
1000
0000
1000
0000
,
0001
0000
0001
0000
,
1000
0000
1000
0000
,
0001
0000
1000
0000
,
1001
0000
0000
0000
,
0010
0010
0010
0000
,
0010
0000
0010
0000
,
0001
0001
0001
0000
,
0001
0000
0001
0000
,
1000
0000
1000
0000
,
0001
0000
0001
0000
,
1000
0000
0001
0000
,
1001
0000
0000
0000
,
0010
0010
0010
0000
,
0100
0100
0100
0100
,
0000
0000
0000
0000
;

//---------------dance-single - ----------------
#NOTES:
     dance-single:
     :
     Easy:
     4:
     0.226946,0.292725,0.064512,0.129025,0.000000,197.000000,189.000000,8.000000,16.000000,0.000000,0.000000,0.226946,0.292725,0.064512,0.129025,0.000000,197.000000,189.000000,8.000000,16.000000,0.000000,0.000000:
0000
0000
0000
0000
,
0000
0000
0000
0000
,
0000
0000
0000
0000
,
0000
0000
0000
0000
,
0000
0000
0000
0000
,
0001
0000
0001
0000
,
1000
0000
1000
0000
,
0001
0000
1000
0000
,
0001
0000
1000
0000
,
0000
0000
0000
0000
,
0001
0000
1000
0000
,
0010
0010
0010
0000
,
1000
0000
0001
0000
,
0010
0010
0010
0000
,
0001
0000
0010
0000
,
1000
0000
0010
0000
,
0001
0000
1000
0000
,
2002
0000
3003
0000
,
0001
0000
1000
0000
,
0100
0100
0100
0000
,
1000
0000
0001
0000
,
0100
0100
0100
0000
,
0001
0000
0100
0000
,
1000
0000
0100
0000
,
0001
0000
1000
0000
,
2002
0000
3003
0000
,
0000
0010
0000
0010
,
0000
0001
0000
0001
,
0000
1000
0000
1000
,
0001
1000
0001
0000
,
0000
0100
0000
0100
,
0000
0001
0000
0001
,
0000
1000
0000
1000
,
0001
1000
0001
0000
,
0000
0001
0000
0010
,
0000
0100
0000
1000
,
0000
0010
0000
0100
,
0000
0001
0000
1000
,
0000
0001
0000
0001
,
0000
1000
0000
1000
,
0000
0100
0000
0010
,
0000
0001
0001
0000
,
1000
1000
0100
0000
,
0001
0001
0100
0000
,
0001
0001
0010
0000
,
1000
1000
0010
0000
,
2002
0000
3003
0000
,
0001
0000
0010
0000
,
0001
0001
0001
0000
,
1000
0000
0010
0000
,
1000
1000
1000
0000
,
0001
0001
0010
0000
,
1000
1000
0010
0000
,
0001
0000
1000
0000
,
2002
0000
3003
0000
,
1000
0000
0100
0000
,
1000
1000
1000
0000
,
0001
0000
0100
0000
,
0001
0001
0001
0000
,
1000
0000
0100
0000
,
0001
0000
0010
0000
,
1000
0000
0001
0000
,
2002
0000
3003
0000
,
1000
1000
1000
0000
,
0010
0010
0010
0000
,
0001
0001
0001
0000
,
0100
0000
0100
0000
,
1000
1000
0100
0000
,
0100
0100
0001
0000
,
0001
0001
0010
0000
,
1000
0000
0001
0000
,
2002
0000
3003
0000
,
0000
0000
0000
0000
,
0001
0000
1000
0000
,
0001
1000
0001
0000
,
0010
0000
0100
0000
,
0010
0100
0010
0000
,
0001
0000
0010
0000
,
0100
0000
1000
0000
,
0010
0000
0100
0000
,
2002
0000
3003
0000
,
1000
0000
0001
0000
,
1000
0001
1000
0000
,
0010
0000
0100
0000
,
0010
0100
0010
0000
,
0001
0001
0010
0000
,
1000
1000
0010
0000
,
0001
0000
1000
0000
,
2002
0000
3003
0000
,
0001
0000
1000
0000
,
0010
0000
0100
0100
,
0000
0000
0000
0000
;

//---------------dance-single - ----------------
#NOTES:
     dance-single:
     :
     Medium:
     9:
     0.514948,0.517914,0.387075,0.153217,0.000000,447.000000,399.000000,48.000000,19.000000,0.000000,0.000000,0.514948,0.517914,0.387075,0.153217,0.000000,447.000000,399.000000,48.000000,19.000000,0.000000,0.000000:
0000
0000
0000
0000
,
0000
0000
0000
0000
,
0000
0000
0000
0000
,
0000
0000
0000
0000
,
0000
0000
0000
0000
,
1000
1000
0010
0010
,
0001
0001
0100
0100
,
1000
1000
0010
0010
,
0001
0000
0001
0000
1000
0010
0100
0001
,
0000
0000
0000
0000
,
0021
0000
0100
0000
0031
0000
0010
0100
,
0000
1000
0000
0001
0100
0000
0101
0000
,
1020
0000
0100
0000
1030
0000
0010
0100
,
0000
0001
0000
1000
0100
0000
0110
0000
,
0001
0010
0100
1000
,
0010
0000
1000
0000
1001
0000
1000
0001
,
0100
0000
0001
1000
0000
0100
0010
0000
,
0001
0000
0001
0000
1000
0010
1000
0000
,
1020
0000
0100
0000
1030
0000
0010
1000
,
0000
0100
0000
0010
0001
0000
1001
0000
,
0021
0000
0100
0000
0031
0000
0001
0100
,
0000
1000
0000
0100
0010
0000
0110
0000
,
0010
1000
0100
0001
,
0110
1001
0110
1000
,
0010
0000
0001
1000
0000
0010
0100
0000
,
0001
0001
1000
0001
,
0100
0000
0010
0000
1000
0010
1000
0010
,
0100
0000
0001
0000
0010
0100
0010
0100
,
0001
0000
1000
0000
0100
0010
0100
0010
,
0001
0100
1000
0010
,
0100
0000
0010
0000
0001
0010
0001
0010
,
0100
0000
1000
0000
0010
0100
0010
0100
,
1000
0000
0001
0000
0100
0010
0100
0010
,
1000
0100
0001
0010
,
0001
0000
0010
0000
0100
1000
0100
0000
,
0010
0001
0100
0000
0010
1000
0100
0000
,
1000
0000
0010
0000
0100
0001
0100
0000
,
0010
0001
0100
0000
0010
1000
0100
0000
,
0010
0000
1001
0000
1000
0001
0010
0000
,
0100
1000
0100
0000
1000
0001
0100
0000
,
1000
0000
0010
0000
0001
0100
0001
0000
,
0010
0000
0001
0100
0010
0000
0000
0000
,
1000
0000
0001
1000
0100
0000
0110
0000
,
0001
0000
1000
0001
0100
0000
0110
0000
,
1000
0000
0010
0100
0001
0000
0010
0001
,
0100
1000
0010
0001
,
1000
0100
0010
0001
1000
0000
0000
0000
,
1020
0000
0100
0000
1030
0000
0010
0100
,
0000
0001
0000
1000
0100
0000
1100
0000
,
0021
0000
0100
0000
0031
0000
0010
0100
,
0000
1000
0000
0001
0100
0000
0110
0000
,
1000
0010
0100
0001
,
0010
0000
0001
0000
1001
0000
0001
1000
,
0100
0000
1000
0001
0000
0100
0010
0000
,
1000
0000
1000
0000
0001
0010
0001
0000
,
0021
0000
0100
0000
0031
0000
0010
0001
,
0000
0100
0000
0010
1000
0000
1001
0000
,
1020
0000
0100
0000
1030
0000
1000
0100
,
0000
0001
0000
0100
0010
0000
0110
0000
,
0010
0001
0100
1000
,
0110
1001
0110
0001
,
0010
0000
1000
0001
0000
0010
0100
0000
,
1000
1000
0001
1000
,
0001
0000
1000
0001
0100
0000
0110
0000
,
1000
0000
0001
1000
0100
0000
0110
0000
,
0001
0000
0010
0100
1000
0000
0010
1000
,
0001
0000
1000
0000
1001
0000
0000
0001
,
0001
0000
0010
0000
2200
0000
3300
1000
,
1000
0000
0010
0000
0202
0000
0303
0001
,
0001
0000
0010
0000
0100
0010
0100
0000
,
1000
0010
0001
0100
,
0010
1000
0100
0000
0010
0001
0100
0000
,
0010
0100
1001
0000
,
0201
0000
0010
0000
0301
0000
0100
0010
,
0000
1000
0000
0001
0010
0000
0011
0000
,
1200
0000
0010
0000
1300
0000
0100
0010
,
0000
0001
0000
1000
0010
0000
0110
0000
,
0001
0100
0010
1000
,
0100
0000
1000
0000
1001
0000
1000
0001
,
0010
0000
0001
1000
0000
0010
0100
0000
,
0001
0000
0001
0000
1000
0100
1000
0000
,
1200
0000
0010
0000
1300
0000
0100
1000
,
0000
0010
0000
0100
0001
0000
1001
0000
,
0201
0000
0010
0000
0301
0000
0001
0010
,
0000
1000
0000
0010
0100
0000
0110
0000
,
0100
1000
0010
0001
,
0110
1001
0110
1000
,
0100
0000
0001
1000
0000
0100
0010
0000
,
0012
0000
1000
1003
,
0010
0000
1000
0000
0101
0000
0001
0010
,
0000
0100
0000
1000
0001
0000
0220
0000
,
0000
0000
0000
0330
,
0000
0000
0000
0000
;

//---------------dance-single - ----------------
#NOTES:
     dance-single:
     :
     Hard:
     13:
     0.705029,0.739878,0.572548,0.161281,0.165313,612.000000,541.000000,71.000000,20.000000,0.000000,0.000000,0.705029,0.739878,0.572548,0.161281,0.165313,612.000000,541.000000,71.000000,20.000000,0.000000,0.000000:
0000
0000
0000
0000
,
0000
0000
0000
0000
,
0000
0000
0000
0000
,
0000
0000
0000
0000
,
0000
0000
0000
0000
,
0001
0000
0001
0010
0100
0000
0100
1000
,
0010
0000
0010
0100
0001
0000
0001
1000
,
0100
0000
0100
0001
0100
0000
0100
0010
,
0001
0000
0000
0000
0001
0000
1000
0000
0010
0000
0100
0000
0001
1000
0001
1000
,
0000
0000
0000
0000
,
1020
0000
0001
0000
1030
0000
0010
0100
,
0001
1000
0100
0010
0001
0000
1100
0000
,
0021
0000
1000
0000
0031
0000
0001
1000
,
0100
0010
0001
1000
0010
0000
0110
0000
,
0010
1010
0100
0101
,
0011
0000
1001
0000
1100
0000
0001
1000
,
0100
0000
1000
0001
0100
0010
1000
0000
,
0001
0000
0000
0000
0001
0000
0000
1000
0001
0000
0010
0000
0010
0000
0010
0000
,
0021
0000
1000
0000
0031
0000
0010
0001
,
0100
0010
1000
0010
0100
0000
1001
0000
,
1020
0000
0001
0000
1030
0000
1000
0100
,
0001
0100
0010
0100
1000
0000
0101
0000
,
0010
0011
0100
1100
,
0110
0000
1001
0000
0110
0000
0001
1000
,
0010
0000
1000
0001
0010
0100
1000
0000
,
0101
0000
0000
0000
1100
0000
0000
0000
0001
0010
0000
0100
1000
0000
0001
0000
,
0100
0000
0000
0010
1000
0000
0010
0000
0100
0000
0001
0000
0100
0000
0010
0000
,
1000
0000
0000
0100
0010
0000
0001
0000
0010
0000
0100
0000
1000
0000
0100
0000
,
1000
0000
0000
0001
0100
0000
0001
0000
0010
0000
0001
0000
1000
0000
0100
0000
,
1000
0001
0000
1000
0001
0000
0010
0000
0100
1000
0100
0000
0010
0100
0010
0000
,
0001
0000
0000
0100
0010
0000
1000
0000
0001
0000
1000
0000
0100
0000
1000
0000
,
0001
0000
0000
0010
0100
0000
1000
0000
0001
0000
1000
0000
0010
0000
1000
0000
,
0001
0000
0000
0100
0010
0000
1000
0000
0100
0000
0010
0000
0100
0000
0010
0000
,
0001
1000
0000
0001
1000
0000
0010
0000
0100
0001
0100
0000
0010
0100
0010
0000
,
1000
0100
0010
0001
0100
0001
0100
0001
,
0010
0001
0100
0001
0010
1000
0100
1000
,
0001
0100
0010
1000
0100
1000
0100
1000
,
0010
1000
0100
1000
0010
0001
0100
0001
,
0010
0000
1001
0000
0001
1000
0010
0100
,
0001
1000
0100
1000
0001
0010
0100
1000
,
0001
0100
0010
0100
0001
1000
0001
1000
,
0010
0000
1000
0000
0100
0000
1000
0000
0010
0000
0000
0100
0010
0000
0100
0000
,
0001
0010
1000
0100
0001
0000
0110
0000
,
1000
0010
0001
0100
1000
0000
0110
0000
,
0001
0010
1000
0100
0001
0100
1000
0010
,
0001
0000
0000
0001
0010
0000
0000
0010
0100
0000
1000
0000
0010
0000
1000
0000
,
0001
0100
0010
1000
1001
0000
0000
0000
,
0021
0000
1000
0000
0031
0000
0010
0100
,
1000
0001
0100
0010
1000
0000
0101
0000
,
1020
0000
0001
0000
1030
0000
1000
0001
,
0100
0010
1000
0001
0010
0000
0110
0000
,
0010
0011
0100
1100
,
1010
0000
1001
0000
0101
0000
1000
0001
,
0100
0000
0001
1000
0100
0010
0001
0000
,
0110
0000
0000
0000
1001
0000
0000
0010
1000
0000
0010
0000
0010
0000
0010
0000
,
1020
0000
0001
0000
1030
0000
0010
1000
,
0100
0010
0001
0010
0100
0000
1001
0000
,
0021
0000
1000
0000
0031
0000
0001
0100
,
1000
0100
0010
0100
0001
0000
1100
0000
,
0010
1010
0100
0101
,
0110
0000
1001
0000
0110
0000
1000
0001
,
0010
0000
0001
1000
0010
0100
0001
0000
,
1100
0000
0000
0000
0101
0000
0000
0000
1000
0010
0000
0100
0001
0000
1000
0000
,
0001
0010
1000
0100
0001
0000
0110
0000
,
1000
0010
0001
0100
1000
0000
0110
0000
,
0001
0010
1000
0100
0001
0100
1000
0010
,
0001
0000
1000
0000
1001
0000
0000
1000
,
1000
0010
0001
0100
2200
0000
3300
0001
,
0001
0010
1000
0100
0202
0000
0303
1000
,
1000
0010
0001
0100
1000
0100
0001
0010
,
1000
0000
0000
1000
0010
0000
0000
0010
0100
0000
0000
0100
0001
0000
0000
0001
,
1000
0100
0010
0001
1000
0010
0100
0001
,
1000
0001
0001
0001
1000
1000
1000
1000
,
1010
0000
0000
0010
0100
0000
0000
0100
0001
0000
0000
0001
0010
0000
0100
0000
,
0001
0100
1000
0001
0200
0000
0310
0000
,
0110
0000
0000
0010
1000
0000
0000
1000
0001
0000
0000
0001
0010
0000
0100
0000
,
1000
0100
0001
0100
0020
0000
0130
0000
,
0010
0011
0100
1100
,
0110
0000
1001
0000
0110
0000
1000
0001
,
0100
0000
0010
1000
0100
0010
0001
0000
,
1100
0000
0101
0000
1001
0010
0010
0010
,
0011
0000
0000
0010
0100
0000
0000
0100
1000
0000
0000
1000
0001
0000
0100
0000
,
0010
1000
0010
0001
0020
0000
1030
0000
,
1001
0000
0000
1000
0010
0000
0000
0010
0100
0000
0000
0100
0001
0000
0100
0000
,
1000
0100
0010
1000
0200
0000
1300
0000
,
0010
1010
0100
0101
,
0110
0000
1001
0000
0110
0000
0001
1000
,
0010
0000
1000
0001
0010
0100
1000
0000
,
0202
0000
0000
0000
0303
1000
1000
1000
,
0001
0000
0010
0000
0110
0000
1000
0010
,
0000
0100
0000
0001
1000
0000
0220
0000
,
0000
0000
0000
0330
,
0000
0000
0000
0000
;

//---------------dance-double - ----------------
#NOTES:
     dance-double:
     :
     Easy:
     6:
     0.292610,0.365907,0.112897,0.129025,0.000000,254.000000,240.000000,14.000000,16.000000,0.000000,0.000000,0.292610,0.365907,0.112897,0.129025,0.000000,254.000000,240.000000,14.000000,16.000000,0.000000,0.000000:
00000000
00000000
00000000
00000000
,
00000000
00000000
00000000
00000000
,
00000000
00000000
00000000
00000000
,
00000000
00000000
00000000
00000000
,
00000000
00000000
00000000
00000000
,
00000010
00001000
00000001
00000000
,
00000010
00000001
00001000
00000000
,
00000001
00000100
00001000
00010000
,
00001000
00010000
01000000
10000000
,
00000000
00000000
00000000
00000000
,
00100000
10000000
10010000
00000000
,
00100000
10000000
00100000
00000000
,
00010000
10000000
01000000
00010000
,
00001000
00000010
00000001
00000000
,
00001000
00000010
00000100
00000000
,
00000001
00000010
00000100
00000000
,
00010000
00010000
00001000
00001000
,
00022000
00000000
00033000
00000000
,
00000010
00001000
00001001
00000000
,
00000010
00000001
00000010
00000000
,
00001000
00000001
00000100
00001000
,
00010000
00100000
10000000
00000000
,
00010000
00100000
01000000
00000000
,
10000000
00100000
01000000
00000000
,
00010000
00010000
10000000
10000000
,
20020000
00000000
30030000
00000000
,
00000000
00100000
00000000
10000000
,
00000000
01000000
00000000
00010000
,
00000000
00001000
00000000
00000010
,
00000100
00000010
00000100
00000010
,
00000000
00000001
00000000
00000100
,
00000000
00001000
00000000
00010000
,
00000000
00100000
00000000
10000000
,
00010000
10000000
00010000
00000000
,
00100000
00010000
01000000
00000000
,
00100000
10000000
01000000
00000000
,
00100000
00001000
00010000
00000000
,
00000010
00000100
00000010
00000000
,
00000010
00001000
00000100
00000000
,
00000010
00000001
00000100
00000000
,
00000010
00010000
00001000
00000000
,
00100000
01000000
00100000
00000000
,
10000000
01000000
00010000
00000000
,
00010000
01000000
10000000
00000000
,
10000000
00100000
00010000
00100000
,
10000000
01000000
00010000
00001000
,
00022000
00000000
00033000
00000000
,
00000010
00000001
00001001
00000000
,
00000010
00000001
00000010
00000000
,
00001000
00000001
00000100
00001000
,
00010000
00100000
10000000
00000000
,
00010000
00100000
01000000
00000000
,
10000000
00100000
01000000
00000000
,
00001000
00001000
00010000
00010000
,
00022000
00000000
00033000
00000000
,
00100000
00010000
10010000
00000000
,
00100000
10000000
00100000
00000000
,
00010000
10000000
01000000
00010000
,
00001000
00000010
00000001
00000000
,
00001000
00000010
00000100
00000000
,
00000001
00000010
00000100
00000000
,
00001000
00001000
00000001
00000001
,
00002002
00000000
00003003
00000000
,
00000001
00000010
00000001
00000000
,
00000010
00001000
00000010
00000000
,
00001000
00010000
00001000
00000000
,
00010000
00000000
00010000
00000000
,
00100000
10000000
00100000
00000000
,
10000000
01000000
10000000
00000000
,
01000000
00010000
01000000
00000000
,
00001000
00000000
00010000
00000000
,
00022000
00000000
00000000
00000000
,
00033000
00000000
00000000
00000000
,
00001000
00010000
00011000
00000000
,
00000010
00010000
00000100
00000000
,
00010000
00010000
00001000
00001000
,
00100000
00010000
01000000
00000000
,
00010000
00100000
10000000
00000000
,
00010000
01000000
10000000
00000000
,
00100000
00000000
01000000
00000000
,
02200000
00000000
03300000
00000000
,
00010000
00001000
00011000
00000000
,
00100000
00001000
01000000
00000000
,
00001000
00001000
00010000
00010000
,
00000010
00001000
00000100
00000000
,
00001000
00000010
00000001
00000000
,
00001000
00000100
00000001
00000000
,
00000010
00000000
00000100
00000000
,
00000220
00000000
00000330
00000000
,
00000001
00000000
00000100
00000000
,
00001000
00000000
00010000
00010000
,
00000000
00000000
00000000
00000000
;

//---------------dance-double - ----------------
#NOTES:
     dance-double:
     :
     Medium:
     9:
     0.497668,0.554908,0.403203,0.306434,0.000000,432.000000,382.000000,50.000000,38.000000,0.000000,0.000000,0.497668,0.554908,0.403203,0.306434,0.000000,432.000000,382.000000,50.000000,38.000000,0.000000,0.000000:
00000000
00000000
00000000
00000000
,
00000000
00000000
00000000
00000000
,
00000000
00000000
00000000
00000000
,
00000000
00000000
00000000
00000000
,
00000000
00000000
00000000
00000000
,
00010000
00010000
00100000
00100000
,
10000000
10000000
01000000
01000000
,
00010000
00010000
00001000
00001000
,
00000100
00000000
00000100
00000000
00000001
00000010
00000100
00001000
,
00000000
00000000
00000000
00000000
,
00002010
00000000
00000001
00000000
00003100
00000000
00000001
00000100
,
00000000
00000010
00000000
00001000
00000010
00000000
00011000
00000000
,
00120000
00000000
10000000
00000000
01030000
00000000
10000000
01000000
,
00000000
00100000
00000000
00010000
00100000
00000000
00011000
00000000
,
00001000
00000010
00000001
00000100
,
00001000
00000000
00010000
00000000
00011000
00000000
00001000
00010000
,
01000000
00000000
00100000
01000000
00000000
10000000
00010000
00000000
,
10000000
00000000
10000000
00000000
00010000
00100000
00010000
00000000
,
00102000
00000000
00010000
00000000
00103000
00000000
00010000
00100000
,
00000000
00010000
00000000
00001000
00010000
00000000
00011000
00000000
,
00020010
00000000
00001000
00000000
00030010
00000000
00001000
00000010
,
00000000
00001000
00000000
00010000
00001000
00000000
00011000
00000000
,
00010000
00100000
10000000
01000000
,
00010000
00000000
00001000
00000000
00011000
00000000
00010000
00001000
,
00000100
00000000
00000010
00000100
00000000
00000001
00001000
00000000
,
00002002
00000000
00000000
00003003
,
00000001
00000000
00000010
00000000
00000100
00001000
00000100
00000000
,
00001000
00000000
00000010
00000000
00000100
00000001
00000100
00000000
,
00001000
00000000
00010000
00000000
00001000
00010000
00001000
00000000
,
00100000
00010000
01000000
00000000
00100000
10000000
01000000
00000000
,
00010000
00000000
01000000
00000000
00100000
01000000
10000000
00000000
,
00010000
00000000
01000000
00000000
00100000
01000000
00010000
00000000
,
00100000
00000000
00001000
00000000
00010000
00001000
00010000
00000000
,
00000010
00001000
00000100
00000000
00000010
00000001
00000100
00000000
,
00000002
00000103
00000200
00000310
,
00000020
00001030
00002000
00013000
,
00020000
01030000
02000000
03100000
,
00200000
10300000
20000000
31000000
,
00100000
10010000
20000000
31000000
,
02000000
03100000
00200000
00310000
,
00020000
00031000
00002000
00003100
,
00000200
00000000
00000310
00000001
00001000
00000000
00000000
00000000
,
00000010
00000000
00001000
00000100
00000010
00000000
00000110
00000000
,
00000010
00000000
00000001
00000100
00000010
00000000
00000110
00000000
,
00010000
00000000
00001000
00010000
00001000
00000000
00100000
00010000
,
01000000
00100000
10000000
01000000
,
00100000
00010000
00100000
01000000
10000000
00000000
00000000
00000000
,
00120000
00000000
10000000
00000000
01030000
00000000
10000000
01000000
,
00000000
00100000
00000000
00010000
00100000
00000000
00011000
00000000
,
00002010
00000000
00000001
00000000
00003100
00000000
00000001
00000100
,
00000000
00000010
00000000
00001000
00000010
00000000
00011000
00000000
,
00010000
00100000
10000000
01000000
,
00010000
00000000
00001000
00000000
00011000
00000000
00010000
00001000
,
00000100
00000000
00000010
00000100
00000000
00000001
00001000
00000000
,
00000001
00000000
00000001
00000000
00001000
00000010
00001000
00000000
,
00020010
00000000
00001000
00000000
00030010
00000000
00001000
00000010
,
00000000
00001000
00000000
00010000
00001000
00000000
00011000
00000000
,
00102000
00000000
00010000
00000000
00103000
00000000
00010000
00100000
,
00000000
00010000
00000000
00001000
00010000
00000000
00011000
00000000
,
00001000
00000010
00000001
00000100
,
00001000
00000000
00010000
00000000
00011000
00000000
00001000
00010000
,
01000000
00000000
00100000
01000000
00000000
10000000
00010000
00000000
,
20020000
00000000
00000000
30030000
,
00100000
00000000
00010000
01000000
00100000
00000000
01100000
00000000
,
00100000
00000000
10000000
01000000
00100000
00000000
01100000
00000000
,
00001000
00000000
00010000
00001000
00010000
00000000
00000010
00001000
,
00000100
00000000
00000010
00000000
00001001
00000000
00000000
00000010
,
00000010
00000000
00000001
00000000
00000202
00000000
00000303
00000010
,
00000010
00000000
00001000
00000000
00002200
00000000
00003300
00010000
,
00010000
00000000
00001000
00000000
00100000
00010000
00100000
00000000
,
00001000
00010000
01000000
10000000
,
00100000
01000000
00010000
00000000
00100000
01000000
10000000
00000000
,
00100000
01000000
10010000
00000000
,
01020000
00000000
10000000
00000000
00130000
00000000
01000000
00100000
,
00000000
01000000
00000000
00010000
01000000
00000000
00011000
00000000
,
00002100
00000000
00000001
00000000
00003010
00000000
00000100
00000010
,
00000000
00000100
00000000
00001000
00000100
00000000
00011000
00000000
,
00010000
01000000
10000000
00100000
,
10100000
00000000
00110000
00000000
00011000
00000000
00010000
00001000
,
00000010
00000000
00000100
00000010
00000000
00000001
00001000
00000000
,
00000110
00000000
00001001
00000000
00001000
00000100
00001000
00000000
,
00020100
00000000
00001000
00000000
00030100
00000000
00001000
00000100
,
00000000
00000001
00000000
00000100
00001000
00000000
00011000
00000000
,
01002000
00000000
00010000
00000000
01003000
00000000
00010000
01000000
,
00000000
10000000
00000000
01000000
00010000
00000000
00011000
00000000
,
00001000
00000100
00000001
00000010
,
00000011
00000000
00001010
00000000
00011000
00000000
00001000
00010000
,
00100000
00000000
01000000
00100000
00000000
10000000
00010000
00000000
,
20020000
00000000
00000000
30030000
,
00100000
00000000
10000000
00000000
11000000
00000000
10000000
00100000
,
00000000
00010000
00000000
00001000
00010000
00000000
00022000
00000000
,
00000000
00000000
00000000
00033000
,
00000000
00000000
00000000
00000000
;

//---------------dance-double - ----------------
#NOTES:
     dance-double:
     :
     Hard:
     13:
     0.711941,0.739878,0.459651,0.129025,0.165313,618.000000,561.000000,57.000000,16.000000,0.000000,0.000000,0.711941,0.739878,0.459651,0.129025,0.165313,618.000000,561.000000,57.000000,16.000000,0.000000,0.000000:
00000000
00000000
00000000
00000000
,
00000000
00000000
00000000
00000000
,
00000000
00000000
00000000
00000000
,
00000000
00000000
00000000
00000000
,
00000000
00000000
00000000
00000000
,
00000010
00000000
00010000
00001000
00000100
00000000
00000010
00000100
,
00001000
00000000
00001000
00010000
01000000
00000000
00100000
01000000
,
00010000
00000000
00001000
00010000
01000000
00000000
10000000
00010000
,
01000000
00000000
00000000
00000000
00100000
00000000
00010000
00000000
00001000
00000000
00000100
00000000
00000001
00001000
00000001
00001000
,
00000000
00000000
00000000
00000000
,
00000021
00000000
00001000
00000000
00000031
00000000
00000100
00000010
,
00001000
00000100
00010000
00001000
00100000
00000000
11000000
00000000
,
10200000
00000000
00010000
00000000
10300000
00000000
01000000
00100000
,
00010000
01000000
00001000
00010000
00000010
00000000
00000101
00000000
,
00000010
00000001
00000100
00000000
00000010
00001000
00000100
00000000
,
00001010
00000000
00011000
00000000
01010000
00000000
00100000
01000000
,
00010000
00000000
10000000
01000000
00100000
00010000
10000000
00000000
,
00100000
00000000
00000000
00000000
00100000
00000000
00000000
01000000
00010000
00000000
00100000
00000000
00100000
00000000
00100000
00000000
,
00120000
00000000
10000000
00000000
01030000
00000000
00100000
00010000
,
00001000
00000100
00000010
00000001
00000100
00000000
00001001
00000000
,
00002010
00000000
00000001
00000000
00003100
00000000
00000010
00001000
,
00010000
01000000
00100000
10000000
01000000
00000000
10010000
00000000
,
00100000
10000000
01000000
00000000
00100000
00010000
01000000
00000000
,
00110000
00000000
00011000
00000000
00001100
00000000
00000010
00000100
,
00001000
00000000
00000001
00000100
00000010
00001000
00000001
00000000
,
00001100
00000000
00000000
00000000
00000101
00000000
00000000
00000000
00001000
00000010
00000000
00000100
00000001
00000000
00001000
00000000
,
00000100
00000000
00000000
00000010
00000001
00000000
00000010
00000000
00000100
00000000
00000010
00000000
00001000
00000000
00010000
00000000
,
01000000
00000000
00000000
10000000
01000000
00000000
00100000
00000000
01000000
00000000
10000000
00000000
00010000
00000000
01000000
00000000
,
00100000
00000000
00000000
10000000
00010000
00000000
10000000
00000000
01000000
00000000
00010000
00000000
00001000
00000000
00000010
00000000
,
00000001
00001000
00000000
00000001
00001000
00000000
00000010
00000000
00000100
00000001
00000100
00000000
00000010
00000100
00000010
00000000
,
00001000
00000000
00000000
00000100
00000010
00000000
00000001
00000000
00001000
00000000
00000001
00000000
00000100
00000000
00000010
00000000
,
00010000
00000000
00000000
00001000
01000000
00000000
00100000
00000000
10000000
00000000
00100000
00000000
01000000
00000000
00010000
00000000
,
10000000
00000000
00000000
01000000
00100000
00000000
01000000
00000000
00010000
00000000
01000000
00000000
00100000
00000000
00001000
00000000
,
00010000
00001000
00000000
00010000
00001000
00000000
00000100
00000000
00000010
00000100
00000010
00000000
00001000
00000010
00001000
00000000
,
00000001
00000100
00000010
00001000
00000100
00001000
00000100
00001000
,
00000010
00010000
00000100
00001000
00000010
00010000
00000100
00001000
,
00000001
00000100
00000010
00000100
00001000
00010000
00100000
01000000
,
00001000
01000000
00010000
00100000
00001000
01000000
00010000
00100000
,
01000000
00000000
10010000
00000000
00010000
10000000
01000000
00100000
,
00001000
01000000
00100000
01000000
00001000
01000000
00100000
01000000
,
00001000
00010000
00000010
00000100
00000001
00001000
00000100
00000010
,
00000001
00000000
00000010
00000000
00000100
00000000
00000010
00000000
00000001
00000000
00000000
00001000
00000100
00000000
00000010
00000000
,
00001000
00000010
00000001
00000100
00001000
00000000
00011000
00000000
,
00010000
00100000
10000000
01000000
00010000
00000000
00011000
00000000
,
00001000
00000010
00000001
00000100
00001000
00000100
00000001
00000010
,
00001000
00000000
00000000
00001000
00100000
00000000
00000000
00100000
00010000
00000000
01000000
00000000
00100000
00000000
10000000
00000000
,
00010000
01000000
10000000
01000000
10010000
00000000
00000000
00000000
,
10200000
00000000
00010000
00000000
10300000
00000000
01000000
00100000
,
00010000
01000000
00001000
00010000
00000010
00000000
00000101
00000000
,
00000021
00000000
00001000
00000000
00000031
00000000
00000100
00000010
,
00001000
00000100
00010000
00001000
00100000
00000000
11000000
00000000
,
00100000
10000000
01000000
00000000
00100000
00010000
01000000
00000000
,
00110000
00000000
00011000
00000000
00001100
00000000
00000010
00000100
,
00001000
00000000
00000001
00000100
00000010
00001000
00000001
00000000
,
00000010
00000000
00000000
00000000
00000010
00000000
00000000
00000100
00001000
00000000
00000010
00000000
00000010
00000000
00000010
00000000
,
00002010
00000000
00000001
00000000
00003100
00000000
00000010
00001000
,
00010000
01000000
00100000
10000000
01000000
00000000
10010000
00000000
,
00120000
00000000
10000000
00000000
01030000
00000000
00100000
00010000
,
00001000
00000100
00000010
00000001
00000100
00000000
00001001
00000000
,
00000010
00000001
00000100
00000000
00000010
00001000
00000100
00000000
,
00001010
00000000
00011000
00000000
01010000
00000000
00100000
01000000
,
00010000
00000000
10000000
01000000
00100000
00010000
10000000
00000000
,
01010000
00000000
00000000
00000000
11000000
00000000
00000000
00000000
00010000
00100000
00000000
01000000
10000000
00000000
00010000
00000000
,
10000000
01000000
00100000
00010000
01000000
00000000
00011000
00000000
,
00100000
00001000
00010000
00000010
00000100
00000000
00000101
00000000
,
00001000
00000010
00000001
00000100
00000010
00001000
00000100
00000010
,
00000001
00000000
00001000
00000000
00001001
00000000
00000000
00000010
,
00000100
00000001
00000100
00001000
00022000
00000000
00033000
00001000
,
00010000
00100000
10000000
00100000
02200000
00000000
03300000
00100000
,
10000000
01000000
00100000
01000000
00010000
01000000
10000000
00100000
,
01000000
00000000
00000000
01000000
00010000
00000000
00000000
00010000
00001000
00000000
00000000
00001000
00000010
00000000
00000000
00000010
,
00000001
00001000
00000100
00000001
00000010
00000100
00001000
00000010
,
00000100
00000010
00000010
00000010
00000100
00000100
00000100
00000100
,
00000110
00000000
00000000
00000010
00001000
00000000
00000000
00001000
00000100
00000000
00000000
00000100
00010000
00000000
01000000
00000000
,
00100000
00010000
01000000
00100000
10000000
00000000
11000000
00000000
,
01100000
00000000
00000000
00100000
00010000
00000000
00000000
00010000
01000000
00000000
00000000
01000000
00001000
00000000
00000100
00000000
,
00000010
00001000
00000100
00000010
00000001
00000000
00000101
00000000
,
00000010
00010000
00000010
00010000
00000100
00001000
00000100
00001000
,
00000010
00010000
00001000
00100000
00110000
00000000
00010000
10000000
,
01000000
00000000
00100000
00010000
01000000
00100000
10000000
00000000
,
01010000
00000000
11000000
00000000
10010000
00100000
00100000
00100000
,
00110000
00000000
00000000
00010000
00001000
00000000
00000000
00001000
00010000
00000000
00000000
00010000
00100000
00000000
00001000
00000000
,
00000010
00000001
00000010
00000100
00001000
00000000
00000101
00000000
,
00001010
00000000
00000000
00001000
00010000
00000000
00000000
00010000
00001000
00000000
00000000
00001000
00000010
00000000
00010000
00000000
,
00100000
10000000
00100000
01000000
00010000
00000000
11000000
00000000
,
00100000
00001000
00100000
00001000
01000000
00010000
01000000
00010000
,
00100000
00001000
00010000
00000010
00001010
00000000
00001000
00000001
,
00000100
00000000
00000010
00001000
00000100
00000010
00000001
00000000
,
00002200
00000000
00000000
00000000
00003300
00000001
00000001
00000001
,
00001000
00000000
00000010
00000000
00000110
00000000
00000001
00000010
,
00000000
00001000
00000000
00010000
00100000
00000000
20020000
00000000
,
00000000
00000000
00000000
30030000
,
00000000
00000000
00000000
00000000
;

//---------------dance-single - ----------------
#NOTES:
     dance-single:
     :
     Challenge:
     17:
     0.972295,1.038651,0.209666,0.032256,0.717701,844.000000,818.000000,26.000000,4.000000,0.000000,0.000000,0.972295,1.038651,0.209666,0.032256,0.717701,844.000000,818.000000,26.000000,4.000000,0.000000,0.000000:
// measure 0
0000
0000
0000
0000
,  // measure 1
0000
0000
0000
0000
,  // measure 2
0000
0000
0000
0000
,  // measure 3
0000
0000
0000
0000
,  // measure 4
0000
0000
0000
0000
,  // measure 5
1000
0100
0000
0100
0010
0000
0001
1000
0001
0000
0100
0000
0010
0000
0000
0000
,  // measure 6
0100
0001
0000
0001
0010
0000
0001
1000
0001
0000
0100
0000
0010
0000
0000
0000
,  // measure 7
1010
0000
0000
0000
0100
0000
0001
1000
0001
0000
0000
0000
0010
0000
0000
0000
,  // measure 8
0011
0000
1000
0000
1000
0000
1000
0010
0100
0000
0001
0000
0001
0010
0100
1000
,  // measure 9
0000
0010
0010
0010
0010
0010
0010
0010
,  // measure 10
1001
0000
0100
0000
0001
0000
0010
0000
0100
0000
1000
0010
1000
0000
0001
0100
,  // measure 11
0001
0000
0010
0100
1000
0000
0001
1000
0010
0000
0100
0000
0110
0000
0001
0000
,  // measure 12
0001
0000
1000
0000
0010
0000
1000
0000
0100
0000
0010
0001
0100
0000
0010
0000
,  // measure 13
1000
0000
0001
0000
0100
0000
0010
1000
0100
0000
0010
0001
0100
0000
0010
0000
,  // measure 14
1000
0000
0001
0100
0001
0000
1000
0100
1000
0000
0010
0100
0001
0000
1000
0100
,  // measure 15
1000
0000
0010
1000
0001
0000
0010
0100
1000
0000
0000
0000
0001
0000
0001
0000
,  // measure 16
0001
0000
0010
0000
0001
0000
0100
0000
1000
0000
0010
0100
0001
0000
0000
0000
,  // measure 17
1000
0000
0100
0010
0001
0000
1000
0000
0000
0000
0010
0000
0010
0000
0010
0000
,  // measure 18
1001
0000
0100
0000
0001
0000
0010
0000
1000
0000
0100
1000
0001
0000
0100
0000
,  // measure 19
0010
0000
1000
0000
0001
0000
0010
0000
0100
0000
1000
0001
1000
0000
0010
0100
,  // measure 20
0001
0000
0010
0000
1000
0000
0010
0000
0001
0000
0100
0010
1000
0000
0100
0000
,  // measure 21
0010
0000
0001
1000
0001
0000
0100
0010
1000
0000
0010
0100
0001
0000
1000
0100
,  // measure 22
1000
0000
0001
0010
0100
0000
1000
0000
0010
0000
1000
0000
0001
0000
0100
0000
,  // measure 23
0001
0000
0010
0000
0100
1000
0000
1000
0001
0000
0100
0010
1000
0000
0001
0000
,  // measure 24
0011
0100
1000
0010
1010
0100
0001
1000
,  // measure 25
0110
0000
1000
0001
0100
0000
0000
0000
0001
0010
0100
1000
0010
0000
0100
0001
,  // measure 26
1000
0000
0010
0100
0000
0100
0001
0000
1000
0000
0010
1000
0100
0010
0001
1000
,  // measure 27
0010
0000
0100
0001
1000
0000
0100
0000
0010
0000
0001
1000
0001
0100
0010
1000
,  // measure 28
0100
0000
0010
0001
0100
0000
0010
0000
1000
0001
1000
0010
1000
0100
0010
0001
,  // measure 29
0100
0010
0000
0010
1000
0010
0000
0010
0100
0001
1000
0001
0010
0100
1000
0001
,  // measure 30
0100
0000
0001
1000
0001
0000
0010
0000
0100
0000
1000
0001
0100
0010
1000
0100
,  // measure 31
0010
0000
0001
1000
0001
0000
0100
0000
0010
0000
1000
0001
1000
0100
0010
0001
,  // measure 32
0100
0000
0010
1000
0100
0000
0001
0000
0100
1000
0010
1000
0001
0100
0010
1000
,  // measure 33
0001
0010
0000
0010
0000
0010
0100
0000
1000
0001
0100
0010
1000
0100
0010
0001
,  // measure 34
0100
0000
0010
0000
1000
0000
0001
0000
1000
0000
0100
0010
0001
0000
1000
0000
,  // measure 35
0000
0000
0010
0000
0100
0001
0000
0100
0001
0000
0100
0010
0000
0010
1000
0000
,  // measure 36
0001
0000
0010
0000
0100
0000
1000
0001
1000
0000
0010
0100
0010
0000
0001
0000
,  // measure 37
0010
0000
1000
0000
0100
0010
0000
0010
0001
0000
1000
0001
0000
1000
0100
0000
,  // measure 38
0010
0000
0001
0000
1100
0000
0010
0001
0100
0000
0010
1000
0100
0000
0001
0000
,  // measure 39
0010
0000
0100
0000
1000
0001
0000
1000
0001
0000
0100
0010
0000
0010
1000
0000
,  // measure 40
0001
0000
0100
0000
0010
0000
1000
0100
1000
0000
0001
0100
0001
0000
0010
0000
,  // measure 41
0100
0000
1000
0000
0010
0100
0000
0100
0001
0000
0010
0100
0000
0100
1000
0000
,  // measure 42
1001
0000
0010
0100
0001
0000
1000
0000
1000
0000
0010
0000
0100
0000
0001
0000
,  // measure 43
0010
0000
0100
0010
0001
0000
1000
0000
1000
0000
0010
0000
0100
0000
0001
0000
,  // measure 44
1000
0001
0010
0100
1000
0010
0100
0001
,  // measure 45
0010
0001
0000
0001
0100
0000
0010
1000
0100
0000
0010
0001
1000
0000
0010
0000
,  // measure 46
0100
0001
1000
0000
0100
0000
0010
0001
1000
0000
0010
0000
0010
0000
0010
0000
,  // measure 47
1001
0100
0001
0010
0100
1000
0010
0001
,  // measure 48
0100
0000
0001
0000
0010
0000
0001
0000
1000
0000
0010
1000
0100
0000
0001
0000
,  // measure 49
0100
0000
1000
0000
0010
0000
0100
0001
0100
0000
0001
1000
0001
0000
0010
0000
,  // measure 50
0100
0000
1000
0000
0010
0000
0100
0000
0001
0000
0010
0001
1000
0000
0010
0000
,  // measure 51
0100
0001
0010
0000
0100
0000
1000
0001
1000
0000
0010
0000
0100
0000
0001
0000
,  // measure 52
1000
0010
0100
0010
1000
0100
0001
0001
,  // measure 53
0001
0000
0010
0001
1000
0000
0010
0000
0100
0000
0010
1000
0001
0000
0000
0000
,  // measure 54
1010
0000
0100
0001
0010
0000
0100
1000
0001
0000
0010
0000
0010
0000
0010
0000
,  // measure 55
1001
0000
0001
0000
0100
0000
0001
0000
0010
0000
0100
1000
0010
0000
0100
0000
,  // measure 56
0001
0000
0010
0000
1000
0000
0100
0010
0001
0000
1000
0001
1000
0000
0010
0000
,  // measure 57
0100
0001
0010
0001
1000
0100
1000
0010
,  // measure 58
0100
0000
0001
0000
0010
0000
0100
0000
1000
0000
0010
0000
1000
0100
0010
0001
,  // measure 59
0100
0000
0001
0000
0010
0100
1000
0001
0100
0000
0010
1000
0100
0000
0001
0000
,  // measure 60
0010
0000
0100
0000
0010
0000
0001
1000
0100
0000
1000
0010
0100
0000
0100
0000
,  // measure 61
0100
0000
0001
0000
0010
0001
1000
0000
0010
0000
1000
0100
0010
0000
0000
0000
,  // measure 62
0011
0000
0000
0000
1010
0000
0000
0000
0100
0001
0000
0100
0001
0000
1000
0000
,  // measure 63
1001
0000
0010
1000
0100
0000
0010
0000
0010
0000
0001
0000
1000
0000
0001
0000
,  // measure 64
0100
0010
0100
0001
0001
1000
0001
0010
,  // measure 65
0100
0000
0010
0000
0001
0000
0100
0000
0010
0000
1000
0001
1000
0000
0100
0000
,  // measure 66
2000
0000
3002
0000
1003
0010
0010
0100
,  // measure 67
0110
0001
1000
0001
0100
0010
0010
1000
,  // measure 68
0100
1000
0001
0000
0100
0000
0010
0000
1000
0000
0100
0000
0100
0000
0010
0000
,  // measure 69
0001
0000
0100
0000
0010
0000
1000
0001
1000
0000
0100
0000
0010
0000
0001
0000
,  // measure 70
0100
0010
1000
0000
0100
0010
0001
1000
0001
0000
0100
0010
0000
0010
1000
0000
,  // measure 71
1100
0000
0010
0000
0001
0000
0100
0010
1000
0000
0001
0000
1000
0100
1000
0000
,  // measure 72
0001
0100
0010
0000
0010
0000
0010
0000
0010
0000
0010
0000
0010
0000
0010
0000
,  // measure 73
1001
0000
1000
0100
0001
0000
0010
0001
0100
0000
0010
0000
1000
0001
1000
0000
,  // measure 74
0100
0010
0001
0000
0100
0000
0010
0000
1000
0000
0001
0000
0110
0000
1000
0000
,  // measure 75
0001
0000
0100
0000
0001
0000
0010
0000
0100
0000
1000
0010
0001
0000
0100
0000
,  // measure 76
0010
0000
0100
0000
0001
0000
1000
0000
0001
0000
0010
0001
0100
0000
0010
0000
,  // measure 77
1000
0000
0100
0010
0001
0000
1000
0001
0010
0000
0001
0100
1000
0000
0010
0000
,  // measure 78
0100
0000
0001
0000
0010
0000
0001
0100
1000
0000
0010
0100
0001
0000
0001
0000
,  // measure 79
0001
0000
0010
0001
0100
0000
0001
1000
0100
0000
0010
0001
0100
0000
0000
0000
,  // measure 80
0101
0000
1100
0000
0101
0010
0010
0010
,  // measure 81
1001
0100
0001
1000
0100
0001
1000
0010
,  // measure 82
0100
0001
0010
1000
0001
0100
0110
1000
,  // measure 83
0001
0000
0010
0000
0001
0000
0100
0000
1000
0000
0001
0100
0010
0000
1000
0000
,  // measure 84
0100
0000
0010
0000
0001
1000
0010
1000
0001
0000
0100
0010
0000
0010
1000
0000
,  // measure 85
0001
0100
0001
0000
0010
0000
0100
0000
1000
0000
0001
0100
0000
0001
1000
0000
,  // measure 86
0010
0000
1000
0100
0001
0000
0010
0000
0100
0000
0010
0001
1000
0000
0100
0000
,  // measure 87
1000
0000
0001
0010
0100
0000
1000
0000
0010
0000
0100
0001
1000
0000
0010
0000
,  // measure 88
0100
0000
0001
1000
0001
0000
0100
0010
1000
0000
0010
0000
0010
0000
0010
0000
,  // measure 89
0100
0000
0001
0000
1000
0000
0100
0010
,  // measure 90
0000
0010
0000
0001
1000
0000
0202
0000
,  // measure 91
0000
0000
0000
0000
,  // measure 92
0303
0000
0000
0000
;
