#TITLE:LEADING CYBER;
#SUBTITLE:(ANOTHER version);
#ARTIST:dj TAKA;
#BANNER:LEADING CYBER (ANOTHER version)-bn.png;
#BACKGROUND:LEADING CYBER (ANOTHER version)-bg.png;
#JACKET:LEADING CYBER (ANOTHER version)-jacket.png;
#MUSIC:LEADING CYBER (ANOTHER version).ogg;
#SAMPLESTART:1.6;
#SAMPLELENGTH:20;
#DISPLAYBPM:150;
#BPMS:0=150;
#BGCHANGES:;

//---------------dance-single - ----------------
#NOTES:
     dance-single:
     :
     Beginner:
     3:
     :
0000
0000
0000
0000
,
0000
0000
0000
0000
,
0000
0000
0000
0000
,
0010
0000
0001
0000
,
0100
0000
1000
0000
,
0010
0000
0000
1001
,
0000
0000
0000
0000
,
0100
0000
0000
1001
,
0000
0000
0000
0000
,
0001
0000
0010
0000
,
0001
0000
1000
0000
,
0100
0000
0010
0000
,
0100
0000
1000
0000
,
0001
0000
0000
1001
,
0000
0000
0000
0000
,
1000
0000
0000
1001
,
0000
0000
0000
0000
,
0000
0000
0000
0000
,
0010
0000
1000
0000
,
0001
0000
0100
0000
,
0001
0000
0010
0000
,
0100
0000
1000
0000
,
0010
0000
0010
0000
,
1000
0000
1000
0000
,
0100
0000
0100
0000
,
0001
0000
0001
0000
,
0010
0010
0000
0000
,
0001
0000
1000
0000
,
0100
0000
0100
0000
,
1000
0000
0001
0000
,
1000
0000
0010
0000
,
0100
0000
0001
0001
,
0001
0000
0100
0000
,
1000
0000
0010
0010
,
0020
0000
0030
0000
,
1000
0000
0100
0100
,
0200
0000
0300
0000
,
0010
0000
0001
0001
,
0001
0000
0100
0000
,
0001
0000
1000
0000
,
0010
0000
0100
0000
,
0001
0000
1000
0000
,
0010
0000
1000
0000
,
0010
0000
1000
0000
,
0100
0000
0010
0000
,
0001
0000
0100
0000
,
0001
0000
0000
1001
,
0000
0000
0000
0000
,
1000
0000
0000
1001
,
0000
0000
0000
0000
,
1000
0000
0010
0000
,
0100
0000
0001
0000
,
1000
0000
0100
0000
,
0010
0000
0001
0000
,
0100
0000
0000
1001
,
0000
0000
0000
0000
,
0010
0000
0000
1001
,
0000
0000
0000
0000
,
1000
0000
0000
1001
,
0000
0000
0000
1001
;

//---------------dance-single - ----------------
#NOTES:
     dance-single:
     :
     Easy:
     7:
     :
0000
0000
0000
0000
,
0000
0000
0000
0000
,
0000
0000
0000
0000
,
0010
0010
1000
0001
,
0100
0100
0010
1000
,
0001
0001
0001
1001
,
0010
0100
0010
1000
,
0100
0100
0100
1001
,
0010
1000
0001
0100
,
0001
0010
0001
0100
,
0010
1000
0100
1000
,
0001
0010
0001
1000
,
0100
0010
0100
1000
,
0010
0010
0010
1001
,
1000
0001
0010
0001
,
1000
1000
1000
1001
,
0010
1000
0100
0010
,
0002
0000
2000
3003
,
0110
0000
1000
0001
,
0010
0001
0100
1000
,
0001
0010
0001
0100
,
0010
1000
0001
1000
,
0110
0000
1000
0001
,
0010
0001
0010
0100
,
1000
0010
1000
0001
,
0100
0010
1000
0000
,
1001
0110
0000
0001
,
1000
0010
1000
1001
,
0010
0010
1000
0001
,
0010
0001
0100
1001
,
0010
1000
0100
0010
,
0001
0001
0101
1100
,
0010
1000
0001
0100
,
0010
0010
0101
1100
,
0002
0000
2000
3003
,
0010
1000
1100
0101
,
0020
0000
0200
0330
,
0001
1000
1100
0101
,
0010
0001
0100
1000
,
0010
1000
0100
0001
,
0010
0010
0100
0100
,
1000
0001
1000
0001
,
0100
0010
1000
0100
,
0010
0001
0100
0001
,
0010
0001
0100
1000
,
0010
1000
0100
0001
,
0010
0010
0010
1001
,
0001
0100
0010
1000
,
0100
0100
0100
1001
,
0001
0010
0001
0100
,
0010
0100
0010
1000
,
0100
0010
0001
0100
,
0001
0010
1000
0100
,
1000
0010
1000
0100
,
0001
0001
0001
1001
,
0010
0001
0010
0100
,
1000
1000
1000
1001
,
0010
1000
0100
0001
,
0020
0200
0330
0110
,
0002
2000
3003
1001
;

//---------------dance-single - ----------------
#NOTES:
     dance-single:
     :
     Medium:
     9:
     :
0000
0000
0000
0000
,
0000
0000
0000
0000
,
0000
0000
0000
0000
,
0010
0000
0001
0000
1000
0010
0100
0000
,
0001
0010
0001
0000
0100
0010
1000
0001
,
0100
0000
0001
0010
1000
0000
1001
0000
,
0010
1000
0001
0000
0010
0001
1000
0000
,
0010
0000
1000
0100
0001
0000
1001
0000
,
0001
0010
0100
0000
1000
0010
0100
0000
,
0001
0000
0010
0000
0001
1000
0000
0100
,
1000
0000
0010
0000
1000
0001
1000
0000
,
0100
0000
0100
0000
1000
0010
0001
0000
,
0100
0001
0010
0001
1000
0000
1000
0100
,
1000
0000
0010
0100
0001
0000
1001
0000
,
0100
0001
0010
0000
0010
0001
0100
0000
,
0010
0000
1000
0001
0100
0000
1001
0000
,
1000
0100
0010
0000
0001
0100
0010
0000
,
2000
3002
0203
0320
,
1030
1000
0000
0000
0001
0100
0001
0000
,
0010
0001
0100
0000
0010
1000
0100
0000
,
0010
0010
0000
0000
0001
1000
0001
0000
,
0100
0001
0010
0000
0001
0100
1000
0000
,
0001
0001
0000
0000
0010
0100
0010
0000
,
0001
1000
0100
0000
0010
0001
1000
0000
,
0100
0100
0000
0000
1000
0010
1000
0000
,
0001
0100
0010
2000
0002
0000
3003
0000
,
1001
0000
0110
0000
0000
0001
1000
0000
,
0010
0000
0100
0000
0010
1000
0001
0000
,
0010
0000
0001
1000
0000
1000
0100
0000
,
1000
0000
0010
0000
0100
0001
1000
0000
,
0001
0000
0001
0000
0001
0010
1000
0000
,
0100
1000
0001
0000
0101
0000
1100
0000
,
0010
0000
0100
0001
0000
0001
1000
0000
,
0010
1000
0100
0000
1100
0000
0101
0000
,
0001
0001
1000
1000
,
0010
0100
0001
0000
0011
0000
1100
0000
,
0010
0010
0100
0100
,
0010
1000
0100
0000
1010
0000
0101
0000
,
0001
0010
0100
0000
1100
0000
0101
0000
,
0010
1000
0100
0000
1010
0000
0011
0000
,
1000
0001
0100
0000
0001
1000
0010
0000
,
0100
0001
0010
0000
1000
0100
0010
0000
,
0001
0000
1000
0000
0010
1000
0000
0100
,
0010
0000
0010
0000
0001
1000
0100
0000
,
1000
0000
0010
1000
0000
0001
0000
0100
,
0010
1000
0000
0100
1000
0000
0001
0010
,
0001
0000
1000
0100
0010
0000
1001
0000
,
0010
1000
0100
0000
1000
0001
0100
0000
,
0010
0000
0100
0001
1000
0000
1001
0000
,
0001
0010
0100
0000
1000
0010
1000
0000
,
0100
0000
1000
0000
0001
1000
0000
0010
,
0100
0000
0100
0000
0100
0001
0010
0000
,
0001
0000
0001
0000
0010
0001
0000
0100
,
0001
0000
0010
0000
0001
1000
0010
0100
,
0010
0000
1000
0100
0001
0000
1001
0000
,
0001
0010
0001
0000
1000
0100
1000
0000
,
0100
0000
1000
0010
0001
0000
1001
0000
,
0010
1000
0001
0000
0100
1000
0001
0000
,
0020
0200
0330
0110
,
0002
0000
2000
0000
0003
0000
3001
1001
;

//---------------dance-single - ----------------
#NOTES:
     dance-single:
     :
     Hard:
     12:
     :
0000
0000
0000
0000
,
0000
0000
0000
0000
,
0000
0000
0000
0000
,
0010
0000
0000
0010
0000
0000
0001
0000
0000
1000
0000
0000
0001
0000
0000
0000
,
0100
0000
0010
0000
0000
1000
0000
0000
0001
0000
0000
0000
1000
0000
0010
0000
,
0100
0001
0100
0001
1000
0000
1001
0000
,
0010
1000
0010
0100
0001
0010
1000
0000
,
0100
1000
0100
1000
0001
0001
1001
0000
,
0010
1000
0010
0100
0001
0010
0001
1000
,
0100
0000
0000
0010
0000
0000
0001
0000
0000
1000
0000
0000
0000
0001
0100
0000
,
0010
0000
0000
0010
0000
0000
0010
0000
0000
0000
1000
0000
0001
0000
0000
0000
,
0010
0000
0000
0001
0000
0000
1000
0000
0000
1000
0000
0000
0100
0000
0000
0000
,
1000
0010
0100
0010
1000
0001
1000
0100
,
0010
0001
0010
0001
1000
1000
1001
0000
,
0001
0010
0100
0010
0001
0100
1000
0000
,
0010
1000
0010
1000
0001
0001
1001
0000
,
0010
1000
0001
0010
0001
1000
0010
0100
,
1001
0000
0001
0000
0001
0100
1000
0000
,
0010
0010
0100
0000
0001
0010
1000
0000
,
0100
0000
0010
0000
0001
0000
0100
0000
0000
0010
0000
0000
1000
0000
0001
0000
,
0010
0001
0100
0000
0001
0010
1000
0000
,
0100
0000
0010
0000
0000
0000
0001
0000
0100
0000
0010
0000
0000
1000
0000
0000
,
0100
0010
0100
1000
0001
0010
1000
0000
,
0001
0000
0100
0000
0010
0000
1000
0000
0100
0000
0010
0000
0000
0001
0000
0000
,
1000
0001
1000
0100
0001
0010
1000
0000
,
0100
0000
0010
0000
0001
0000
0100
0000
0010
0000
1000
0000
0000
0001
0000
0000
,
0101
0000
1100
0000
0010
1000
0001
0000
,
1000
0100
0010
0000
0001
0001
0100
0000
,
0010
0000
0000
0000
1000
0000
0000
0001
0000
0000
1000
0000
0000
0000
0100
0000
,
0010
0001
0010
0001
1000
1000
0100
0000
,
1000
0000
0000
0010
0000
0000
0100
0000
0000
0001
0000
0000
0010
0000
0100
0000
,
0010
0001
1000
0000
1100
0000
0101
0000
,
0010
0000
0000
0100
0000
0000
0010
0000
0000
1000
0000
0000
0001
0000
0100
0000
,
0001
0010
0100
1000
1100
0000
0101
0000
,
0010
0000
0100
0000
0001
0010
1000
0000
,
0100
1000
0100
0000
1010
0000
0011
0000
,
0100
0001
0010
0100
1000
0001
1000
0000
,
0010
1000
0100
0000
1010
0000
0011
0000
,
0100
0001
0010
0000
0001
0100
1000
0000
,
0010
1000
0100
0000
1000
0001
0010
0000
,
0001
0100
0001
0000
1000
0100
1000
0000
,
0010
0010
0100
0100
1000
0001
1000
0001
,
0010
0000
0001
0000
0100
0000
0000
0010
0000
0000
0010
0000
0000
0000
1000
0000
,
0001
0000
0000
0001
0000
0000
1000
0000
0000
0010
1000
0000
0100
0000
0000
0000
,
0010
0000
0000
0001
0000
0000
0100
0000
0000
0010
0000
0000
1000
0000
0000
0000
,
0001
0100
0010
1000
0100
0010
0001
1000
,
0010
0100
0010
0100
0001
0000
1001
0000
,
1000
0100
1000
0010
1000
0001
0100
0000
,
0100
0010
0100
0010
1000
1000
1001
0000
,
0010
1000
0001
1000
0100
0010
0001
0001
,
0010
0000
0001
0000
1000
0000
0000
0010
0000
0000
0100
0000
0000
0000
0001
0000
,
0010
0000
0000
0001
0000
0000
1000
0000
0000
0010
0000
0000
0100
0000
0000
0000
,
0001
0000
0000
0010
0000
0000
0001
0000
0000
1000
0000
0000
0010
0000
0000
0000
,
0100
0000
0001
0000
0000
1000
0000
0000
0010
0000
1000
0000
0010
0000
0100
0000
,
0001
1000
0001
1000
0100
0100
1001
0000
,
0010
1000
0010
1000
0100
0010
0001
0000
,
1000
0001
1000
0001
0010
0010
1001
0000
,
0010
1000
0100
0010
0001
1000
0001
0100
,
0020
0000
2000
0000
0030
0000
3001
0100
,
0010
0000
0000
1000
0000
0001
0000
0000
0000
0000
0100
0000
0010
0000
1001
0000
;

//---------------dance-single - ----------------
#NOTES:
     dance-single:
     :
     Challenge:
     14:
     :
0000
0000
0000
0000
,
0000
0000
0000
0000
,
0000
0000
0000
0000
,
0010
0000
0000
0010
0000
0000
0001
0000
0000
1000
0000
0000
0001
0100
0000
0010
,
1000
0000
0100
0000
0000
0010
0000
0000
0001
1000
0000
0001
1000
0000
0010
0000
,
0100
0001
0000
0001
0000
1000
0000
0001
0000
0000
0000
0000
1001
0000
0000
0000
,
1000
0100
1000
0000
0001
0100
0000
0010
0000
0010
1000
0000
0001
0000
0000
0000
,
0010
0001
0000
0001
0000
1000
0000
0100
0000
0100
0000
0000
1001
0000
0000
0000
,
0010
1000
0010
0000
0100
0000
0001
1000
0001
0000
0100
0000
0010
1000
0010
0000
,
0100
0001
0000
0010
0001
0000
0000
1000
0000
0000
0100
0000
0000
1000
0001
0000
,
0010
0000
0000
0010
0000
0000
0010
0000
0000
0001
1000
0000
0100
0000
0000
1000
,
0001
0000
0000
0010
0000
0000
0001
0000
0000
1000
0000
0000
0010
0100
0000
0100
,
0001
0000
0010
0000
0100
0000
1000
0000
0010
0100
0000
0010
1000
0000
0001
0000
,
1000
0100
0000
0010
0000
0010
0000
0001
0000
1000
0000
0000
1001
0000
0000
0000
,
0010
0000
0100
0000
0001
0000
1000
0100
1000
0100
1000
0000
0001
0000
0000
0000
,
0010
0001
0000
1000
0000
0001
0000
0100
0000
0100
0000
0010
1000
0000
0001
0000
,
0010
0000
0100
0000
1000
0001
0000
0001
0010
0000
0001
0000
1000
0100
1000
0000
,
1001
0000
0000
0000
0010
0000
0000
0100
0000
0001
0100
0000
0010
0000
1000
0000
,
1100
0000
1100
0000
0001
0000
0000
0000
1000
0100
1000
0000
0001
0000
0000
0000
,
0010
0001
1000
0001
0000
0000
0100
0010
0000
0010
0000
1000
0001
0000
0100
0000
,
0010
0000
0010
0000
1000
0000
0000
0000
0001
0100
0001
0100
0010
0000
0000
0000
,
1000
0100
1000
0001
0000
0000
0100
0010
0000
0010
1000
0000
0001
1000
0000
0000
,
0010
0000
0010
0000
1000
0000
0001
0000
0100
0010
1000
0001
0100
0000
0000
0000
,
0001
0010
0100
1000
0000
0000
0010
1000
0000
0001
0000
1000
0010
0000
0100
0000
,
0001
0000
0010
0000
0001
0000
1000
0000
0010
0100
0010
0100
0010
0000
0000
0000
,
1000
0100
1000
0010
0000
0000
0100
0001
0010
0000
0001
0000
0000
1000
0000
0000
,
1001
0000
0010
0000
0110
0000
0000
0000
0001
0100
0010
0100
0001
0000
0000
0000
,
1000
0000
0100
0000
0010
0000
0001
0000
1000
0010
1000
0010
0100
0000
0000
0000
,
0001
0010
0000
0001
0010
0000
0100
1000
0000
0100
1000
0000
0001
0000
0000
0000
,
0100
0010
0100
0010
0100
0000
0000
0000
0001
1000
0001
1000
0001
0000
0000
0000
,
0010
0001
0000
0001
1000
0000
0010
1000
0000
1000
0001
0000
0100
0000
0000
0000
,
0010
0000
1000
0000
0100
0010
0100
0000
1100
0000
0000
0000
0101
0000
0000
0000
,
0010
1000
0000
0001
0100
0000
0001
0010
0000
0100
1000
0000
0010
0000
1000
0001
,
1000
0001
1000
0000
0010
0000
0100
0000
0101
0000
0000
0000
1100
0000
0000
0000
,
0010
0000
0100
0000
0010
0000
1000
0000
0001
0010
0001
0010
0001
0000
0100
0000
,
0010
1000
0000
0001
0000
0000
0100
0010
1000
0000
0000
0000
1010
0000
0000
0000
,
0001
0000
0010
0000
0001
0000
0100
0000
0010
1000
0010
1000
0001
0000
0010
0000
,
0001
0100
0000
0010
0000
0000
1000
0001
0100
0000
0000
0000
0101
0000
0000
0000
,
0001
0010
0000
0001
0000
0000
1000
0010
0100
0000
0000
0000
0110
0000
0000
0000
,
0010
1000
0000
0100
0000
0000
1000
0001
0010
0000
0000
0000
0011
0000
0001
1000
,
0001
1000
0000
0010
0100
0000
0001
0000
0010
0001
0000
1000
0100
0000
0010
0000
,
0001
0100
0001
0000
1000
0100
1000
0000
0001
0010
0001
0000
1000
0010
1000
0000
,
0100
0010
0000
0100
1000
0000
0001
0010
0000
0001
0100
0000
0000
0010
1000
0000
,
0001
0000
0000
0001
0000
0000
0001
0000
0000
1000
0010
0000
0100
0001
0000
0100
,
0010
0000
0000
1000
0000
0000
0001
0000
0000
0010
0000
0000
0001
1000
0000
0100
,
1000
0000
0000
0010
0000
0000
0100
0000
0001
0010
0000
0010
0001
0000
1000
0000
,
0010
1000
0010
1000
0000
1000
0000
0001
0000
0000
0000
0000
1001
0000
0000
0000
,
0010
0000
0100
0000
1000
0000
0010
0100
0001
0100
0010
0000
1000
0000
0000
0000
,
0001
0100
0001
0100
0000
0100
0000
0010
0000
0010
0000
0000
1001
0000
0000
0000
,
1000
0000
1000
0000
0100
0010
0100
0000
1000
0001
1000
0000
0001
0010
0001
0000
,
0100
0010
0000
0100
0010
0000
1000
0001
0000
1000
0001
0000
0000
1000
0100
0000
,
0010
0000
0000
0010
0000
0000
0001
0000
1000
0010
0100
0000
0100
0000
0000
0000
,
0001
0000
0000
1000
0000
0000
0100
0000
0000
1000
0000
0000
0010
0100
0000
0001
,
1000
0000
0100
0000
0000
0010
0000
0000
0100
0010
0000
0010
0001
0000
1000
0000
,
0001
0010
0001
0010
0000
0001
0000
1000
0000
1000
0000
0000
1001
0000
0000
0000
,
0010
0000
0100
0000
0010
0000
1000
0000
0001
0100
0001
0000
0010
0000
0000
0000
,
0001
1000
0001
1000
0000
0010
0000
0100
0000
0100
0000
0000
1001
0000
0000
0000
,
0001
0000
0010
0000
0001
1000
0000
0010
0000
1000
0100
0000
0010
0001
0100
0001
,
2000
0000
0020
0000
0030
0001
3001
0100
,
0010
1000
0000
0001
1000
0001
0000
0000
0000
0100
0010
0000
0110
0000
1001
0000
;
