#TITLE:LA COPA DE LA VIDA;
#SUBTITLE:;
#ARTIST:PATRICK VICTORIO;
#TITLETRANSLIT:;
#SUBTITLETRANSLIT:;
#ARTISTTRANSLIT:;
#GENRE:;
#CREDIT:;
#BANNER:LA COPA DE LA VIDA-bn.png;
#BACKGROUND:LA COPA DE LA VIDA-bg.png;
#LYRICSPATH:;
#CDTITLE:;
#MUSIC:LA COPA DE LA VIDA.ogg;
#OFFSET:0.000000;
#SAMPLESTART:55.528999;
#SAMPLELENGTH:20.000000;
#SELECTABLE:YES;
#DISPLAYBPM:134.000000;
#BPMS:0.000000=134.007004
;
#STOPS:
;
#BGCHANGES:8.000=LA COPA DE LA VIDA.mp4=1.000=1=0=0=StretchNoLoop==CrossFade==,
99999=-nosongbg-=1.000=0=0=0 // don't automatically add -songbackground-
;
#KEYSOUNDS:;
#ATTACKS:;

//---------------dance-single - ----------------
#NOTES:
     dance-single:
     :
     Beginner:
     3:
     0.157913,0.187460,0.056979,0.000000,0.000000,97.000000,92.000000,5.000000,0.000000,0.000000,0.000000,0.157913,0.187460,0.056979,0.000000,0.000000,97.000000,92.000000,5.000000,0.000000,0.000000,0.000000:
0000
0000
0000
0000
,
0000
0000
0000
0000
,
0000
0000
0000
0000
,
0000
0000
0000
0000
,
0000
0000
0000
0000
,
0010
0000
0100
0000
,
0001
0000
1000
0000
,
0010
0000
0100
0000
,
0010
0010
0010
0000
,
0001
0000
0001
0000
,
1000
0000
1000
0000
,
0010
0000
0010
0000
,
0100
0000
1001
0000
,
0010
0000
0001
0000
,
1000
0000
1000
0000
,
0010
0000
1000
0000
,
0001
0000
0001
0000
,
0100
0000
0100
0000
,
1000
0000
1000
0000
,
0100
0000
0100
0000
,
0001
0000
0001
0000
,
0100
0000
0100
0000
,
0010
0000
0010
0000
,
0001
0000
1000
0000
,
0001
0000
1000
0000
,
0010
0000
0100
0000
,
0010
0000
0100
0000
,
0001
0000
1000
0000
,
0001
0000
1001
0000
,
1000
0000
1001
0000
,
0100
0000
0100
0000
,
0010
0000
0010
0000
,
1000
1000
1000
0000
,
0100
0000
0100
0000
,
0001
0001
0001
0000
,
1000
0000
1000
0000
,
0010
0010
0010
0000
,
0001
0000
0001
0000
,
0100
0100
0100
0000
,
0001
0000
0100
0000
,
0100
0100
0100
0000
,
1000
0000
0010
0000
,
0010
0010
0010
0000
,
1000
0000
0100
0000
,
0001
0000
1001
0000
,
0001
0000
0100
0000
,
1000
0000
1001
0000
,
0100
0000
0000
0000
,
0000
0000
0000
0000
;

//---------------dance-single - ----------------
#NOTES:
     dance-single:
     :
     Easy:
     5:
     0.205124,0.270649,0.079770,0.011396,0.000000,126.000000,119.000000,7.000000,1.000000,0.000000,0.000000,0.205124,0.270649,0.079770,0.011396,0.000000,126.000000,119.000000,7.000000,1.000000,0.000000,0.000000:
0000
0000
0000
0000
,
0000
0000
0000
0000
,
0000
0000
0000
0000
,
0000
0000
0000
0000
,
0000
0000
0000
0000
,
0010
0000
0100
0000
,
0001
0000
1000
0000
,
0010
0010
0100
0100
,
0001
1000
1001
0000
,
0001
0000
0001
0000
,
1000
0000
1000
0000
,
0010
0000
0010
0000
,
0100
0000
1001
0000
,
0010
0000
0001
0000
,
1000
1000
1000
0000
,
0010
0000
1000
0000
,
0001
0001
0001
0000
,
0100
0001
0100
0000
,
1000
1000
1000
0000
,
0100
1000
0100
0000
,
0001
0001
0001
0000
,
0100
0000
0100
0000
,
0010
0000
0010
0000
,
0001
0001
1000
1000
,
0001
0001
1000
1000
,
0010
0000
0100
0000
,
0010
0000
0100
0000
,
0001
0001
1000
1000
,
0010
0000
1001
0000
,
0100
0000
1001
0000
,
0100
0000
0100
1001
,
0010
0010
0010
0000
,
1000
1000
1000
0000
,
0100
0100
0100
0000
,
0001
0001
0001
0000
,
0010
0010
1000
0000
,
0001
0001
0010
0000
,
0100
0100
0001
0000
,
1000
1000
0100
0000
,
0001
1000
0100
0000
,
0100
0100
0100
0000
,
1000
0001
0010
0000
,
0010
0010
0010
0000
,
1000
0001
0100
1000
,
0001
0100
1001
0000
,
0001
1000
0100
0001
,
1000
0100
1001
0000
,
0200
0000
0300
0000
,
0000
0000
0000
0000
;

//---------------dance-single - ----------------
#NOTES:
     dance-single:
     :
     Medium:
     7:
     0.320709,0.380903,0.444434,0.045583,0.022792,197.000000,158.000000,39.000000,4.000000,0.000000,0.000000,0.320709,0.380903,0.444434,0.045583,0.022792,197.000000,158.000000,39.000000,4.000000,0.000000,0.000000:
0000
0000
0000
0000
,
0000
0000
0000
0000
,
0000
0000
0000
0000
,
1000
1000
1000
0000
,
0001
0001
0001
0000
,
0010
0000
1001
0000
,
0100
0000
1001
0000
,
0001
0110
1000
0110
,
1001
0110
1001
0000
,
0001
0001
1000
1000
,
0001
0010
0001
1000
0100
0000
0100
0000
,
1000
1000
0001
0001
,
1000
0010
1000
0001
0100
0000
1001
0000
,
0010
1000
0010
0001
,
1000
0100
1001
0000
,
0100
0001
0100
1000
,
0001
0010
1001
0000
,
0001
1000
0010
0001
,
1000
0100
0101
0101
,
1000
0001
0010
1000
,
0001
0100
1100
1100
,
0001
0000
0000
0001
0000
0000
1000
0000
0000
0000
0000
0000
0010
0000
0000
0000
,
1000
0000
0000
1000
0000
0000
0001
0000
0000
0000
0000
0000
0010
0000
0000
0000
,
1000
0001
0100
1000
,
0010
0001
0100
1001
,
0010
0000
0000
0010
0000
0000
0001
0000
0000
0000
0000
0000
1000
0000
0000
0000
,
0100
0000
0000
0100
0000
0000
1000
0000
0000
0000
0000
0000
0001
0000
0000
0000
,
2000
0000
0002
3003
,
0010
0100
1001
0000
,
0001
1000
1001
0000
,
0001
1000
0010
1001
,
0010
0010
0010
0000
,
1100
1100
1100
0000
,
0010
0010
0010
0000
,
0101
0101
0101
0000
,
0100
0001
0100
1000
,
0100
0010
0001
1000
0100
0000
0000
0000
,
0010
0100
0010
0000
,
1001
0110
1001
0000
,
1000
0010
0001
0000
,
0101
1100
0101
0000
,
0001
0010
1000
0000
,
1100
0101
1100
0000
,
0100
0000
1001
0000
0100
0000
0000
0001
,
1000
0010
0100
0001
1000
0000
0000
0000
,
0001
0110
1000
0000
,
1001
0110
1001
0000
,
0220
0000
0000
0330
,
0000
0000
0000
0000
;

//---------------dance-single - ----------------
#NOTES:
     dance-single:
     :
     Hard:
     10:
     0.431411,0.462525,0.421643,0.045583,0.034187,265.000000,228.000000,37.000000,4.000000,0.000000,0.000000,0.431411,0.462525,0.421643,0.045583,0.034187,265.000000,228.000000,37.000000,4.000000,0.000000,0.000000:
0000
0000
0000
0000
,
0000
0000
0000
0000
,
0000
0000
0000
0000
0000
0000
0000
0100
,
1000
0100
1000
0100
1000
0000
0000
0010
,
0001
0010
0001
0010
0001
0000
0000
0000
,
1000
1000
0101
0100
,
0001
0001
1100
0100
,
0001
1010
1000
0011
,
0101
1001
1100
0000
,
0001
1000
0001
0000
0100
0010
0100
0000
,
0010
1000
0001
1000
0010
0100
0001
0000
,
1000
0001
1000
0000
0010
0100
0010
0000
,
0100
0001
1000
0001
0100
0000
1001
0000
,
0010
0100
0001
0100
0001
0000
1000
0000
,
0010
1000
0100
1000
,
0010
0100
1000
0100
1000
0000
0001
0000
,
0010
0001
0100
0001
,
1000
0100
1000
0001
0010
0000
0100
0000
,
1000
1010
0001
0001
,
0001
0100
0001
1000
0010
0000
0100
0000
,
0001
0101
1000
1000
,
1100
0000
0000
1100
0000
0000
1100
0000
0000
0000
1000
0000
0001
0000
0000
0000
,
0101
0000
0000
0101
0000
0000
0101
0000
0000
0000
0001
0000
1000
0000
0000
0000
,
0010
0100
0010
0000
1000
0001
1000
0000
,
0010
1000
0100
0010
0001
0000
1000
0000
,
1010
0000
0000
1010
0000
0000
1010
0000
0000
0000
0100
0000
0001
0000
0000
0000
,
0011
0000
0000
0011
0000
0000
0011
0000
0000
0000
0100
0000
1000
0000
0000
0000
,
0010
1000
0100
1000
0001
0100
0001
0000
,
1000
0010
0100
0000
0001
0010
0100
0000
,
2000
0000
3000
0001
0020
0000
0030
0100
,
0010
0100
0000
0010
0100
0000
1000
0000
0001
0000
0000
0000
1001
0000
0000
0000
,
0010
0000
0010
0000
0011
0000
0000
1000
,
0100
1000
0100
1000
0100
0000
0000
0000
,
0010
0000
0010
0000
1010
0000
0000
0001
,
0100
0001
0100
0001
0100
0000
0000
0000
,
0001
0000
1000
0000
1001
0000
0100
1000
,
0010
0100
0010
0100
0001
0000
0000
0000
,
0010
0000
0100
0000
0110
0000
0000
0001
,
1000
0001
1000
0001
1000
0000
0000
0000
,
1010
0000
0110
0000
0101
0000
0000
0010
,
0100
0001
1000
0010
0100
0000
0001
0000
,
0011
0000
0110
0000
1100
0000
0000
0010
,
0100
1000
0001
0010
0100
0000
1000
0000
,
0001
0100
1000
0000
0001
0100
1000
0100
,
0001
0100
0010
0100
0001
0000
0100
0000
,
1001
0000
0110
0000
1001
0000
0000
0010
,
0100
0010
0100
0010
0100
0000
0000
0000
,
2002
0000
0000
3003
,
0000
0000
0000
0000
;

//---------------dance-double - ----------------
#NOTES:
     dance-double:
     :
     Easy:
     5:
     0.205124,0.270649,0.113958,0.011396,0.000000,126.000000,116.000000,10.000000,1.000000,0.000000,0.000000,0.205124,0.270649,0.113958,0.011396,0.000000,126.000000,116.000000,10.000000,1.000000,0.000000,0.000000:
00000000
00000000
00000000
00000000
,
00000000
00000000
00000000
00000000
,
00000000
00000000
00000000
00000000
,
00000000
00000000
00000000
00000000
,
00000000
00000000
00000000
00000000
,
00100000
00000000
00011000
00000000
,
00000010
00000000
00011000
00000000
,
00100000
00010000
00100000
00001000
,
00010000
00001000
00011000
00000000
,
00000010
00000000
00001000
00000000
,
00000001
00000000
00000100
00000000
,
00000010
00000000
00010000
00000000
,
00001000
00010000
00011000
00000000
,
00100000
00000000
00010000
00000000
,
10000000
10000000
10000000
00000000
,
01000000
00000000
00100000
00000000
,
00001000
00010000
00001000
00000000
,
00000010
00000000
00001000
00000000
,
00000001
00000001
00000001
00000000
,
00000100
00000000
00000010
00000000
,
00010000
00001000
00010000
00000000
,
01000000
00000000
00010000
00000000
,
00100000
00000000
00010000
00000000
,
10000000
10000000
00010000
00010000
,
00100000
00100000
00001000
00011000
,
00000100
00000000
00001000
00000000
,
00000010
00000000
00001000
00000000
,
00000001
00000001
00001000
00001000
,
00000010
00000000
00000110
00000000
,
00001000
00000000
00011000
00000000
,
01000000
00000000
00100000
10010000
,
00100000
00100000
00100000
00000000
,
10000000
10000000
00010000
00000000
,
01000000
01000000
01000000
00000000
,
00001000
00010000
00011000
00000000
,
00000010
00000010
00000010
00000000
,
00000001
00000001
00001000
00000000
,
00000100
00000100
00000100
00000000
,
00010000
00001000
00011000
00000000
,
00100000
00010000
01000000
00000000
,
10000000
10000000
10000000
00000000
,
01000000
00010000
00100000
00000000
,
00001000
00001000
00001000
00000000
,
00000010
00001000
00000100
00000000
,
00000001
00000001
00000001
00000000
,
00000100
00001000
00000010
00000000
,
00010000
00010000
00010000
00000000
,
00002000
00000000
00003000
00000000
,
00000000
00000000
00000000
00000000
;

//---------------dance-double - ----------------
#NOTES:
     dance-double:
     :
     Medium:
     6:
     0.297918,0.380903,0.398851,0.068375,0.000000,183.000000,148.000000,35.000000,6.000000,0.000000,0.000000,0.297918,0.380903,0.398851,0.068375,0.000000,183.000000,148.000000,35.000000,6.000000,0.000000,0.000000:
00000000
00000000
00000000
00000000
,
00000000
00000000
00000000
00000000
,
00000000
00000000
00000000
00000000
,
00100000
00100000
00100000
00000000
,
01000000
01000000
01000000
00000000
,
10000000
00000000
01100000
00000000
,
00100000
00000000
10010000
00000000
,
00010000
00011000
00000010
00000110
,
00001001
00000110
00011000
00000000
,
00100000
00010000
00100000
00010000
,
10000000
00010000
10000000
00010000
,
10000000
01000000
10000000
01000000
,
00100000
00001000
00010000
00011000
,
00000010
00001000
00000100
00000001
,
00000010
00000100
00001001
00000000
,
00001000
00010000
10000000
00100000
,
01000000
00010000
10010000
00000000
,
00010000
00001000
00000001
00000010
,
00000100
00001000
00000100
00000100
,
00000001
00000100
00001000
00010000
,
00100000
01000000
10010000
00000000
,
10000000
00100000
10000000
01000000
,
00100000
00010000
00100000
01000000
,
00020000
00000000
00032000
00003000
,
00000010
00000001
00001001
00000000
,
00000001
00000010
00000001
00000100
,
00000010
00001000
00000010
00000100
,
00002000
00000000
00023000
00030000
,
00100000
01000000
10010000
00000000
,
00010000
10000000
01100000
00000000
,
01000000
00010000
00001000
00011000
,
00000010
00000010
00000010
00000000
,
00000101
00000101
00000101
00000000
,
00000010
00000010
00000010
00000000
,
00011000
00011000
00011000
00000000
,
01000000
00100000
01000000
00010000
,
10000000
01000000
10000000
00010000
01000000
00000000
00000000
00000000
,
00100000
01000000
00100000
00000000
,
00110000
00011000
00001010
00000000
,
00000010
00001000
00000001
00000000
,
00000101
00001100
00011000
00000000
,
00100000
00010000
10000000
00000000
,
11000000
01010000
00011000
00000000
,
00000010
00001000
00000001
00000100
,
00001000
00010000
01000000
00000000
,
10000000
00010000
10010000
00000000
,
01100000
00011000
00000110
00000000
,
00002002
00000000
00000000
00003003
,
00000000
00000000
00000000
00000000
;

//---------------dance-double - ----------------
#NOTES:
     dance-double:
     :
     Hard:
     9:
     0.385828,0.408110,0.307685,0.022792,0.022792,237.000000,210.000000,27.000000,2.000000,0.000000,0.000000,0.385828,0.408110,0.307685,0.022792,0.022792,237.000000,210.000000,27.000000,2.000000,0.000000,0.000000:
00000000
00000000
00000000
00000000
,
00000000
00000000
00000000
00000000
,
00000000
00000000
00000000
00000000
00000000
00000000
00000000
01000000
,
10000000
01000000
10000000
01000000
10000000
00000000
00000000
00100000
,
00010000
00100000
00010000
00100000
00010000
00000000
00000000
00000000
,
01000000
01000000
01010000
00000000
,
00001000
00001000
00011000
00000000
,
00000010
00000110
00001000
00001001
,
00001010
00011000
01010000
00000000
,
10000000
01000000
10000000
00000000
00010000
01000000
00010000
00000000
,
00100000
00010000
10000000
01000000
00010000
00000000
00011000
00000000
,
00000010
00000100
00000010
00000000
00001000
00000001
00001000
00000000
,
00000010
00001000
00000001
00000100
00001000
00000000
00011000
00000000
,
00100000
01000000
00010000
01000000
00010000
00000000
10000000
00000000
,
00010000
00001000
00000001
00000001
,
00000100
00000010
00001000
00000010
00001000
00000000
00000001
00000000
,
00001000
00010000
10000000
10000000
,
10000000
01000000
10000000
00010000
00100000
00000000
01000000
00000000
,
00010000
00000000
00001000
00000000
00000010
00000001
00000100
00000000
,
00000001
00000100
00000001
00001000
00000010
00000000
00000100
00000000
,
00001000
00000000
00010000
00000000
00100000
10000000
01000000
00000000
,
10000000
00000000
00000000
01000000
00000000
00000000
00010000
00000000
00000000
00000000
01000000
00000000
00010000
00000000
00000000
00000000
,
00001000
00000000
00000000
00000100
00000000
00000000
00000001
00000000
00000000
00000000
00000100
00000000
00000001
00000000
00000000
00000000
,
00000100
00001000
00010000
00100000
,
00010000
00001000
00000010
00000001
,
00000001
00000000
00000000
00000100
00000000
00000000
00001000
00000000
00000000
00000000
00000100
00000000
00001000
00000000
00000000
00000000
,
00010000
00000000
00000000
01000000
00000000
00000000
10000000
00000000
00000000
00000000
01000000
00000000
10000000
00000000
00000000
00000000
,
00100000
10000000
00010000
01000000
,
10000000
00100000
01000000
00000000
01010000
00000000
00000000
00000000
,
00100000
00001000
00010000
00000000
00011000
00000000
00000000
00000000
,
00000010
00001000
00000100
00001000
00000010
00000000
00001001
00000000
,
00000100
00000000
00000100
00000000
00000101
00000000
00000000
00001000
,
00000100
00001000
00000100
00001000
00000100
00000000
00000000
00000000
,
00010000
00000000
00010000
00000000
00011000
00000000
00000000
00100000
,
00001000
00100000
00001000
00100000
00001000
00000000
00000000
00000000
,
00010000
00000000
10000000
00000000
10010000
00000000
00000000
10000000
,
00010000
01000000
00100000
10000000
00010000
00000000
00000000
00000000
,
00100000
00000000
00001000
00000000
00011000
00000000
00000000
00000010
,
00001000
00000010
00010000
00000100
00001000
00000000
00000000
00000000
,
00001010
00000000
00001001
00000000
00000101
00000000
00000000
00000100
,
00001000
00010000
00100000
00010000
00001000
00000000
00000000
00000000
,
00110000
00000000
10010000
00000000
11000000
00000000
00000000
01000000
,
00010000
00001000
00000010
00001000
00010000
00000000
00000000
00000000
,
00000010
00000000
00000010
00000000
00001010
00000000
00000000
00000001
,
00001000
00000010
00000100
00001000
00010000
00000000
00000000
00000000
,
01010000
00000000
11000000
00000000
01010000
00000000
00000000
00001000
,
00010000
00001000
00010000
00001000
00010000
00000000
00000000
00000000
,
00022000
00000000
00000000
00033000
,
00000000
00000000
00000000
00000000
;

//---------------dance-single - ----------------
#NOTES:
     dance-single:
     :
     Challenge:
     15:
     0.791191,0.797275,0.410247,0.045583,0.752120,486.000000,450.000000,36.000000,4.000000,0.000000,0.000000,0.791191,0.797275,0.410247,0.045583,0.752120,486.000000,450.000000,36.000000,4.000000,0.000000,0.000000:
// measure 0
0000
0000
0000
0000
,  // measure 1
0000
0000
0000
0000
,  // measure 2
0000
0000
0000
0000
,  // measure 3
0000
0000
0000
0000
,  // measure 4
0000
0000
0000
0000
,  // measure 5
1001
0000
0010
0000
0100
0001
0100
0001
0100
0010
0000
0010
1000
0000
0000
0000
,  // measure 6
1001
0000
0010
0000
0001
1000
0001
1000
0001
0010
0000
0010
0100
0000
1000
0001
,  // measure 7
1000
0010
0100
0101
1100
0010
0001
0110
,  // measure 8
1000
0010
0000
0100
0001
0000
0110
0000
1001
0000
0100
0010
0100
0001
1000
0010
,  // measure 9
0100
0000
0001
0010
0001
0000
1000
0010
1000
0000
0001
0100
0001
0000
1000
0100
,  // measure 10
1000
0000
0010
0100
0010
0000
1000
0001
1000
0000
0100
0010
0001
0000
0100
0010
,  // measure 11
1000
0000
0001
1000
0010
0000
1000
0001
0100
0000
0001
0010
0001
0000
1000
0010
,  // measure 12
1000
0001
1000
0001
1000
0010
1000
0010
0100
0001
0100
0001
0010
0100
0010
0100
,  // measure 13
1000
0000
0010
0000
0100
0000
0001
0010
0001
0000
1000
0000
0010
0000
0100
0001
,  // measure 14
0100
0000
0010
1000
0010
0000
1000
0001
1000
0000
0100
0010
0100
0000
2000
0000
,  // measure 15
3002
0000
0013
0000
0100
0000
1000
0010
1000
0000
0001
0100
0001
0000
1000
0100
,  // measure 16
0010
0000
0001
1000
0001
0000
0100
0000
0010
0000
1000
0000
0001
0100
0010
1000
,  // measure 17
0001
0000
0010
0100
0010
0000
0001
1000
0100
0000
1000
0010
1000
0000
0001
0100
,  // measure 18
0010
0000
1000
0001
1000
0000
0100
0010
0100
0000
1000
0000
0001
0000
0100
0010
,  // measure 19
0100
0000
0001
0000
0010
0000
0100
1000
0001
0000
0100
0010
1000
0000
0001
0000
,  // measure 20
1000
0000
0100
0010
0001
0000
0100
0000
0001
0000
1000
0010
1000
0010
0100
0001
,  // measure 21
1000
0000
0100
0010
0001
0000
0001
0000
0000
0000
0100
0000
0010
0000
0100
0000
,  // measure 22
0001
0010
0000
0100
1000
0000
0010
0100
0000
0000
0001
1000
0010
0000
1000
0001
,  // measure 23
0100
0010
0000
0100
0010
0000
1000
0000
0001
0000
0000
0000
0010
0001
1000
0100
,  // measure 24
0000
0000
1000
0010
1000
0000
0001
0010
0001
0000
0100
0000
0010
1000
0001
0000
,  // measure 25
0100
0001
0000
0001
1000
0000
0010
0000
0000
0000
0100
0000
0001
0000
1000
0000
,  // measure 26
0001
0000
0010
0100
1000
0000
0010
1000
0000
0001
1000
0000
0100
0000
0000
0000
,  // measure 27
0010
0001
0000
0001
0100
0010
1000
0001
0000
1000
0100
0000
0010
0000
0001
1000
,  // measure 28
0001
0000
0100
0010
0100
0000
0001
0000
1001
0000
0010
0000
1000
0000
1100
0000
,  // measure 29
0101
0000
0010
0000
1000
0000
0101
0000
1100
0000
0010
0001
0100
0000
0010
0000
,  // measure 30
1000
0001
0000
1000
0001
0000
0110
0000
1001
0000
0100
0010
1000
0001
1000
0100
,  // measure 31
0010
0000
0001
0100
0001
0000
1000
0100
1000
0000
0010
0100
0010
0000
1000
0000
,  // measure 32
1100
0000
0100
0000
0110
0000
0010
0000
0011
0000
1000
0001
1000
0000
0010
0100
,  // measure 33
0001
0000
0010
0100
1000
0000
0001
1000
0100
0000
0010
0000
0001
0000
0100
0000
,  // measure 34
0101
0000
0100
0000
0110
0000
0010
1000
0000
0001
1000
0000
0100
0000
0010
0000
,  // measure 35
0001
0000
1000
0010
1000
0000
0010
0100
0001
0000
1000
0100
1000
0000
0001
0000
,  // measure 36
0011
0000
0001
0000
0101
0000
0001
0000
1001
0000
0010
1000
0010
0000
1000
0100
,  // measure 37
1000
0000
0100
0010
0001
0000
0100
0001
0010
0000
0001
1000
0010
0000
0100
0000
,  // measure 38
0110
0000
0010
0000
1010
0000
0001
1000
0000
0001
0010
0100
1000
0010
1000
0010
,  // measure 39
0100
0001
0000
0100
0010
0000
1000
0000
1001
0000
0010
0100
0001
0000
1000
0000
,  // measure 40
1100
0000
1000
0000
1010
0000
1000
0000
1001
0000
0010
0100
0001
0000
0010
0100
,  // measure 41
1000
0000
0001
0100
0001
0000
0010
0100
1000
0000
0001
0100
0001
0000
0010
0000
,  // measure 42
0110
0000
0100
0000
1100
0000
1000
0001
0000
0100
0010
0000
1000
0001
1000
0000
,  // measure 43
0100
0000
0010
0001
0100
0000
0010
1000
0100
0000
1000
0001
1000
0000
0010
0000
,  // measure 44
1010
0000
1001
0000
0011
0000
0110
0000
1100
0000
0001
0010
0100
0000
1000
0001
,  // measure 45
1000
0000
0010
0000
0100
0000
0001
0010
0001
0000
0100
0000
1000
0000
0010
0000
,  // measure 46
0100
0000
0001
0000
1000
0000
0001
0010
0100
0000
1000
0010
1000
0001
0010
0100
,  // measure 47
2000
3000
1001
0000
,  // measure 48
0200
0300
0000
0000
;
