#VERSION:0.83;
#TITLE:L.A.N.;
#SUBTITLE:;
#ARTIST:Kiddy & Sunshine Lovers;
#TITLETRANSLIT:;
#SUBTITLETRANSLIT:;
#ARTISTTRANSLIT:;
#GENRE:;
#ORIGIN:;
#CREDIT:;
#BANNER:L.A.N.-bn.png;
#BACKGROUND:L.A.N.-bg.png;
#PREVIEWVID:;
#JACKET:L.A.N.-jacket.png;
#CDIMAGE:;
#DISCIMAGE:;
#LYRICSPATH:;
#CDTITLE:;
#MUSIC:L.A.N..ogg;
#OFFSET:-0.050000;
#SAMPLESTART:72.050003;
#SAMPLELENGTH:20.000000;
#SELECTABLE:YES;
#DISPLAYBPM:160.000000;
#BPMS:0.000=160.000;
#STOPS:;
#DELAYS:;
#WARPS:;
#TIMESIGNATURES:0.000=4=4;
#TICKCOUNTS:0.000=4;
#COMBOS:0.000=1;
#SPEEDS:0.000=1.000=0.000=0;
#SCROLLS:0.000=1.000;
#FAKES:;
#LABELS:0.000=Song Start;
#BGCHANGES:;
#KEYSOUNDS:;
#ATTACKS:
;

//---------------dance-single - ----------------
#NOTEDATA:;
#CHARTNAME:;
#STEPSTYPE:dance-single;
#DESCRIPTION:;
#CHARTSTYLE:;
#DIFFICULTY:Hard;
#METER:12;
#RADARVALUES:0.566913,0.632408,0.274867,0.137433,0.030064,462.000000,430.000000,32.000000,16.000000,0.000000,0.000000,0.000000,0.000000,0.000000,0.566913,0.632408,0.274867,0.137433,0.030064,462.000000,430.000000,32.000000,16.000000,0.000000,0.000000,0.000000,0.000000,0.000000;
#CREDIT:;
#DISPLAYBPM:160.000000;
#NOTES:
0000
0000
0000
0000
,
0000
0000
0000
0000
,
0000
0000
0000
0000
,
0000
0000
0000
0000
,
1000
0000
0101
0000
0001
0010
1000
0000
,
0100
0000
1010
0000
0001
1000
0100
0000
,
0010
0000
1100
0000
0001
0010
1000
0000
,
0100
0000
0011
0000
1000
0001
0100
0000
,
2001
0100
0001
0100
,
0001
0010
0001
3100
,
1000
0100
0010
0000
0001
0000
1000
0000
,
0001
0100
0010
1000
0100
0000
0001
0000
,
0010
0001
0010
0001
0010
0001
0010
0001
,
0100
0010
0100
0010
0100
0010
0100
0010
,
1000
0010
0100
0001
0010
0001
0010
0100
,
1000
0010
1000
0001
1000
0100
1000
0000
,
0110
0000
0001
0100
,
0020
1000
0100
0001
,
1030
0010
0000
0100
0000
0001
0000
0010
,
0001
0100
0001
1000
0000
0000
0000
0010
,
1000
0100
0001
0000
1000
0001
0000
0100
,
0010
1000
0000
0100
0000
0000
0000
0001
,
1000
0001
0000
0010
0000
0001
0000
0100
,
1000
0010
1000
0001
0100
0000
0010
0000
,
0101
0000
1000
0001
0000
1000
0100
0000
,
1100
0000
0010
0001
0100
0001
0010
0100
,
1000
0010
1000
0001
1000
0100
1000
0000
,
0010
0100
0001
0100
0010
1000
0100
0000
,
0011
0000
1000
0010
0000
1000
0100
0001
,
0010
0100
1000
0010
1000
0010
1000
0010
,
0100
0001
0000
1010
0000
1000
0100
0010
,
0001
0100
0001
1000
0010
0100
0001
0000
,
0110
0000
1001
0000
0100
0001
1000
0000
,
0100
0010
0001
0100
0001
0010
0001
1000
,
1010
0000
0101
0000
1000
0100
0001
0010
,
0100
1000
0010
1000
0001
0010
0001
1000
,
1100
0000
0011
0000
0100
0010
1000
0000
,
0001
0000
0100
0000
0001
0000
0010
0000
1000
0000
0100
0000
0001
0000
1000
0010
,
1000
0101
1100
0101
,
1010
0000
0000
0000
0101
0000
0000
0000
1010
0000
0000
0000
1000
0010
1000
0010
,
1000
0100
0001
0000
0010
0001
0100
0000
,
2000
0010
3000
0100
0002
0000
0013
0000
,
0100
1000
0001
0000
0010
1000
0100
0000
,
0020
0000
0031
0100
0010
1000
0001
0000
,
1001
0000
0100
0001
0010
0001
1000
0100
,
0010
0001
0100
0001
0010
0001
1000
0000
,
0100
1000
0010
1000
0100
1000
0001
0000
,
0110
0000
0000
0000
1001
0000
0000
0000
0110
0000
0000
0000
1000
0000
0001
0100
,
0002
0000
0013
0000
0001
0100
0010
0000
,
2000
0000
3100
0000
1000
0001
0100
0000
,
0020
0000
1030
0000
0010
0100
0001
0000
,
0200
0000
0310
0000
0100
0001
1000
1100
,
2100
0000
0010
0000
3001
0100
1000
0000
,
0020
0000
1000
0000
0130
0010
1000
0000
,
0002
0000
0010
0000
1003
0001
0100
0000
,
0001
0000
0010
0000
0001
0000
0100
0000
0010
0000
1000
0000
0001
0000
1000
0100
,
1000
0000
0010
0100
0010
1000
0100
0010
,
0001
0000
0100
0001
0010
0001
1000
1001
,
1001
0000
0010
1000
0010
0100
0010
1000
,
0001
0010
0001
0100
0001
0010
0100
1000
,
0010
0000
0100
0001
0010
0001
1000
0000
,
0100
0000
0010
0000
0001
0100
1000
1001
,
1001
0000
0010
1000
0100
0010
0001
0100
,
0001
0000
0010
0000
0001
0000
0100
0000
0010
0000
1000
0001
1000
0000
0100
0000
,
0010
0000
0000
0000
0001
0000
1000
0100
,
0001
0000
1000
0000
0001
0000
0000
0100
,
0010
0000
0000
0000
2000
0002
3000
0000
,
0013
0001
0010
0001
0010
0001
0010
0001
,
1000
0001
1000
0001
1000
0001
1000
0001
,
0100
0000
0010
1000
,
0100
0000
0000
0000
0001
0000
0000
0010
,
0001
0000
1000
0001
0000
0100
0000
0010
,
1000
0100
0000
1000
0000
0000
0000
0001
,
1000
0000
0001
1000
0000
0100
0000
0000
,
0010
0001
0100
0010
0000
0000
0000
1000
,
0001
1000
0000
0010
0000
0010
0000
0100
,
0001
0010
0001
0100
0000
0000
0020
2000
,
0000
0000
0000
0000
3030
0000
0001
0100
0001
0000
0000
0000
0000
0000
0000
0000
;

//---------------dance-single - ----------------
#NOTEDATA:;
#CHARTNAME:;
#STEPSTYPE:dance-single;
#DESCRIPTION:;
#CHARTSTYLE:;
#DIFFICULTY:Medium;
#METER:9;
#RADARVALUES:0.449113,0.565839,0.395121,0.137433,0.000000,366.000000,320.000000,46.000000,16.000000,0.000000,0.000000,0.000000,0.000000,0.000000,0.449113,0.565839,0.395121,0.137433,0.000000,366.000000,320.000000,46.000000,16.000000,0.000000,0.000000,0.000000,0.000000,0.000000;
#CREDIT:;
#DISPLAYBPM:160.000000;
#NOTES:
0000
0000
0000
0000
,
0000
0000
0000
0000
,
0000
0000
0000
0000
,
0000
0000
0000
0000
,
1000
0101
0001
0010
,
0100
1100
0001
0000
,
0010
0011
1000
0100
,
0001
1010
0100
0000
,
1001
0000
0110
0000
1000
0100
0001
0000
,
0020
0001
0001
0031
,
1000
0010
0200
0000
0001
0000
0001
0000
,
0301
1000
0001
0100
0000
0000
0000
0000
,
0010
1000
0100
0000
1010
0000
0101
0000
,
0001
0010
0001
0000
1000
0100
1000
0000
,
0010
0100
0001
0000
0010
0100
1000
0000
,
0001
1000
0001
1000
0000
0010
0100
0000
,
0110
0000
1000
0001
,
0010
0001
0100
1000
,
0010
1000
0000
0010
0000
0100
0000
0001
,
1000
0001
1000
0100
0000
0000
0000
0010
,
0001
0000
1100
0000
0000
0000
0000
0010
,
1000
0010
0000
0100
0000
0000
0000
0001
,
1000
0001
0000
0100
0000
0100
0000
0010
,
1000
0100
1000
0001
0000
0000
0000
0000
,
0011
0000
1001
0000
0000
1000
0001
0000
,
0010
0000
0001
0000
0100
0010
1000
0000
,
1100
0000
0101
0000
0010
1000
0001
0000
,
1010
0000
0011
0000
0010
0001
1000
0000
,
0001
0000
0100
0010
0000
0100
0001
0000
,
1000
0000
0001
0000
0010
0001
0100
0000
,
1001
0000
0000
0110
0000
1000
0001
0000
,
0010
0001
0010
0000
0200
0000
0300
0000
,
1100
0000
1010
0000
0100
0001
0010
0000
,
0001
0100
0001
0000
1000
0010
0100
0000
,
0101
0000
0011
0000
1000
0001
0100
0000
,
0001
0010
0001
0000
0010
0001
1000
0000
,
0110
0000
1000
0001
0000
1000
0100
0000
,
0010
0001
0000
0100
0000
0001
1000
0000
,
1001
0110
1001
0110
,
1010
0000
0101
0000
1010
0000
0001
1000
,
0001
0000
0020
0230
,
2300
0000
3000
0001
0100
0000
0000
0000
,
0010
0000
2000
3002
,
1003
0100
1000
0100
0000
0000
0000
0010
,
0001
0000
0100
0000
0001
1000
0100
0000
,
1000
0100
0010
0000
0001
0000
0001
0000
,
1000
0001
1000
0010
,
0100
0001
0100
0001
1000
0100
1000
0100
,
0020
0000
0000
0000
0031
0000
0000
1000
,
0002
0000
0000
0000
0103
0000
0000
0010
,
2000
0000
0000
0000
3001
0000
0000
1000
,
0200
0000
0000
0000
0310
0000
0000
0001
,
1000
0010
1000
0010
,
0100
0001
0100
0001
,
0010
0100
0010
0100
,
1000
0001
1000
0001
1000
0010
0100
0000
,
0101
1100
0101
1100
,
0001
0001
1000
1000
,
1010
0011
1010
0011
,
0100
0100
0010
0010
,
1001
0000
0010
0000
1000
0100
0001
0000
,
0110
0000
0001
0000
0010
0100
1000
0000
,
1100
0011
0101
1001
,
0110
0000
1010
0000
0001
1000
0001
0100
,
0010
0000
0000
0000
1000
0001
0000
0000
,
0000
0000
1000
0100
0010
0000
0001
0000
,
0100
0000
0000
0000
0002
2000
0000
0000
,
0003
0100
0100
0100
,
0100
0100
0100
3100
,
0010
0000
0010
0001
,
0100
0000
0000
0010
0000
0000
0000
1000
,
0001
1000
0000
0100
0000
1000
0000
0000
,
0010
0100
0000
0001
0000
0000
0000
1000
,
0001
0000
0010
0001
0000
0100
0000
0000
,
0010
1000
0010
1000
0000
0000
0000
0001
,
0100
0010
0000
1000
0000
1000
0000
0100
,
1000
0001
0000
1000
0000
0000
0020
0200
,
0000
0030
0301
0000
;

//---------------dance-single - ----------------
#NOTEDATA:;
#CHARTNAME:;
#STEPSTYPE:dance-single;
#DESCRIPTION:;
#CHARTSTYLE:;
#DIFFICULTY:Easy;
#METER:6;
#RADARVALUES:0.268731,0.366131,0.120254,0.103075,0.000000,219.000000,205.000000,14.000000,12.000000,0.000000,0.000000,0.000000,0.000000,0.000000,0.268731,0.366131,0.120254,0.103075,0.000000,219.000000,205.000000,14.000000,12.000000,0.000000,0.000000,0.000000,0.000000,0.000000;
#CREDIT:;
#DISPLAYBPM:160.000000;
#NOTES:
0000
0000
0000
0000
,
0000
0000
0000
0000
,
0000
0000
0000
0000
,
0000
0000
0000
0000
,
1000
0000
0001
0000
,
0001
0000
1000
0000
,
0010
0000
0100
0000
,
0100
0000
0010
0000
,
1001
0000
0010
1000
,
0200
0000
0000
0300
,
0110
0000
0001
1000
,
0020
0000
0030
0100
,
0001
0001
0001
0001
,
1000
1000
1000
1000
,
0001
0001
1000
1000
,
0010
0100
0010
0100
,
0110
0000
0001
0100
,
1000
0001
1000
0001
,
0010
0000
0001
0000
,
0100
0010
0100
0000
,
0001
0000
0000
0000
,
1000
0100
1000
0000
,
0010
0000
0010
0000
,
0100
0001
1000
0000
,
1001
0001
0000
0000
,
0110
0000
1000
0001
,
1000
0100
1000
0000
,
0001
0020
0000
0030
,
0001
0100
0000
0000
,
0010
0110
1000
0001
,
1000
0000
0000
0000
,
0200
0000
0000
0300
,
0010
0001
0010
0100
,
1000
0001
1000
0010
,
0110
1000
0010
0001
,
0100
0001
0010
0100
,
1001
1000
0001
1000
,
0010
0100
0001
1000
,
0100
0100
0100
0100
,
0100
0100
0100
0100
,
1001
0000
0010
1000
,
0002
0000
1003
0000
,
0010
0000
0100
0001
,
2000
0000
3100
0000
,
0110
0000
0001
1000
,
0010
0000
0100
0000
,
0010
0010
1000
1000
,
0001
1000
0001
0100
,
0001
0000
1000
0000
,
1000
0000
0001
0000
,
0100
0000
0010
0000
,
0010
0000
0100
0000
,
0110
0000
1000
0000
,
1001
0000
0001
0000
,
1001
0000
0010
0000
,
0110
0000
1000
0000
,
0001
0010
0001
0100
,
0020
1000
1000
1000
,
1030
0001
1000
0010
,
0200
0001
0001
0001
,
0301
0010
0100
1000
,
0002
0100
0010
0100
,
1003
0001
1000
0100
,
0010
0010
0010
0010
,
0010
0000
0001
0000
,
0000
1000
0001
0000
,
1000
0000
0200
0000
,
0000
0000
0000
0000
,
0010
0010
0010
0010
,
0310
0000
0001
1000
,
0002
0000
0003
0000
,
0100
0000
0010
0000
,
0100
0000
0001
0000
,
1000
0100
1000
0000
,
0010
0000
0100
0000
,
0010
0000
1000
0000
,
0001
1000
0100
0020
,
0000
0000
0031
0000
;

//---------------dance-single - ----------------
#NOTEDATA:;
#CHARTNAME:;
#STEPSTYPE:dance-single;
#DESCRIPTION:;
#CHARTSTYLE:;
#DIFFICULTY:Beginner;
#METER:2;
#RADARVALUES:0.121481,0.166423,0.034358,0.000000,0.000000,99.000000,95.000000,4.000000,0.000000,0.000000,0.000000,0.000000,0.000000,0.000000,0.121481,0.166423,0.034358,0.000000,0.000000,99.000000,95.000000,4.000000,0.000000,0.000000,0.000000,0.000000,0.000000,0.000000;
#CREDIT:;
#DISPLAYBPM:160.000000;
#NOTES:
// measure 0
0000
0000
0000
0000
,  // measure 1
0000
0000
0000
0000
,  // measure 2
0000
0000
0000
0000
,  // measure 3
0000
0000
0000
0000
,  // measure 4
1000
0000
0000
0000
,  // measure 5
0010
0000
0000
0000
,  // measure 6
0100
0000
0000
0000
,  // measure 7
0001
0000
0000
0000
,  // measure 8
1000
0000
0001
0000
,  // measure 9
0100
0000
0000
0000
,  // measure 10
0100
0000
0010
0000
,  // measure 11
1000
0000
0000
0000
,  // measure 12
0001
0000
0000
0000
,  // measure 13
0010
0000
0001
0000
,  // measure 14
0100
0000
0010
0000
,  // measure 15
1000
0000
0000
0000
,  // measure 16
1001
0000
0000
0000
,  // measure 17
0010
0000
0000
0000
,  // measure 18
0100
0000
0000
0000
,  // measure 19
0001
0000
0000
0000
,  // measure 20
1000
0000
0000
0000
,  // measure 21
0100
0000
0000
0000
,  // measure 22
1000
0000
0000
0000
,  // measure 23
0001
0000
0000
0000
,  // measure 24
1001
0000
0000
0000
,  // measure 25
0010
0000
0010
0000
,  // measure 26
1000
0000
0000
0000
,  // measure 27
0001
0000
0001
0000
,  // measure 28
0010
0000
0000
0000
,  // measure 29
0001
0000
1000
0000
,  // measure 30
0001
0000
0000
0000
,  // measure 31
0100
0000
0000
0000
,  // measure 32
0010
0000
0010
0000
,  // measure 33
1000
0000
1000
0000
,  // measure 34
0100
0000
0010
0000
,  // measure 35
0001
0000
0100
0000
,  // measure 36
0010
0000
0000
0000
,  // measure 37
1000
0000
0000
0000
,  // measure 38
0001
0000
0001
0000
,  // measure 39
0001
0000
0001
0000
,  // measure 40
1000
0000
0000
0000
,  // measure 41
0010
0000
0010
0000
,  // measure 42
0100
0000
0000
0000
,  // measure 43
0001
0000
0000
0000
,  // measure 44
1000
0000
0001
0000
,  // measure 45
0100
0000
0010
0000
,  // measure 46
1000
0000
1000
0000
,  // measure 47
0001
0000
0010
0000
,  // measure 48
0001
0000
0000
0000
,  // measure 49
1000
0000
0000
0000
,  // measure 50
0010
0000
0000
0000
,  // measure 51
0100
0000
0000
0000
,  // measure 52
1001
0000
0000
0000
,  // measure 53
0100
0000
0000
0000
,  // measure 54
0010
0000
0000
0000
,  // measure 55
1000
0000
0001
0000
,  // measure 56
1000
0000
0010
0000
,  // measure 57
0100
0000
0000
0000
,  // measure 58
0001
0000
1000
0000
,  // measure 59
0010
0000
0000
0000
,  // measure 60
0100
0000
0001
0000
,  // measure 61
0010
0000
0000
0000
,  // measure 62
1001
0000
0000
0000
,  // measure 63
0100
0000
0000
0000
,  // measure 64
0010
0000
0000
0000
,  // measure 65
0000
0000
0000
0000
,  // measure 66
1000
0000
0001
0000
,  // measure 67
0000
0000
0000
0000
,  // measure 68
0000
0000
0000
0000
,  // measure 69
0100
0000
0000
0000
,  // measure 70
0010
0000
0000
0000
,  // measure 71
0100
0000
0000
0000
,  // measure 72
0001
0000
0000
0000
,  // measure 73
0010
0000
0000
0000
,  // measure 74
0100
0000
0000
0000
,  // measure 75
1000
0000
0000
0000
,  // measure 76
0010
0000
0000
0000
,  // measure 77
0100
0000
0001
0000
;
