#TITLE:Kings & Queens;
#ARTIST:Ava Max;
#BANNER:Kings & Queens-bn.png;
#BACKGROUND:Kings & Queens-bg.png;
#JACKET:Kings & Queens-jacket.png;
#MUSIC:Kings & Queens.ogg;
#OFFSET:1.4;
#SAMPLESTART:44.5;
#SAMPLELENGTH:20;
#LASTBEATHINT:0.849;
#DISPLAYBPM:130;
#BPMS:0=130;
#BGCHANGES:;

//---------------dance-single - ----------------
#NOTES:
     dance-single:
     :
     Beginner:
     2:
     :
0000
0000
0000
0000
,
0000
0000
0000
0000
,
0000
0000
0000
0000
,
0000
0000
0000
0000
,
0000
0000
0000
0000
,
0001
0000
0001
0000
,
0001
0000
0000
0000
,
1000
0000
1000
0000
,
1000
0000
0000
0000
,
0010
0000
1000
0000
,
0001
0000
0000
0000
,
0010
0000
0001
0000
,
0100
0000
0000
0000
,
0010
0000
0010
0000
,
1000
0000
1000
0000
,
0001
0000
1000
0000
,
0100
0000
0000
0110
,
0000
0000
0001
0000
,
0100
0000
1000
0000
,
0000
0000
0010
0000
,
1000
0000
0100
0000
,
0000
0000
1000
0000
,
0001
0000
0010
0000
,
0000
0000
0001
0000
,
0010
0000
0100
0000
,
1000
0000
1000
0000
,
1000
0000
0000
0000
,
0001
0000
0001
0000
,
0001
0000
0000
0000
,
0100
0000
0100
0000
,
0100
0000
0000
0000
,
0010
0000
0010
0000
,
0010
0000
0000
0000
,
1001
0000
0000
0000
,
0000
0000
0000
0000
,
0010
0000
1000
0000
,
0001
0000
0100
0000
,
0000
0000
0001
0000
,
1000
0000
0100
0000
,
0000
0000
0010
0000
,
0100
0000
1000
0000
,
0000
0000
0001
0000
,
0010
0000
1000
0000
,
0000
0000
0100
0000
,
0010
0000
0001
0000
,
0100
0000
0100
0000
,
0100
0000
0000
0000
,
0010
0000
0010
0000
,
0010
0000
0000
0000
,
1000
0000
1000
0000
,
1000
0000
0000
0000
,
0001
0000
0001
0000
,
0001
0000
0000
0000
,
0010
0000
0010
0000
,
0001
0000
0001
0000
,
1000
0000
0001
0000
,
0100
0000
0100
0000
,
0010
0000
0010
0000
,
0100
0000
0100
0000
,
0001
0000
0010
0000
,
1000
0000
0010
0000
;

//---------------dance-single - ----------------
#NOTES:
     dance-single:
     :
     Easy:
     6:
     :
0000
0000
0000
0000
,
0000
0000
0000
0000
,
0000
0000
0000
0000
,
0000
0000
0000
0000
,
0000
0000
0000
0000
,
0001
0000
1000
0000
,
0010
0000
0100
0000
,
0010
0010
1000
1000
,
0001
0000
0100
0000
,
0001
0010
1000
0010
,
0100
0100
0100
0000
,
0001
1000
0100
1000
,
0010
0010
0010
0000
,
0100
0010
0110
0000
,
1000
0001
1001
0000
,
0010
0001
0100
1000
,
0010
0000
0000
0110
,
1001
0000
0010
0010
,
1000
0100
1000
0001
,
0100
0000
0001
0001
,
0010
0100
1000
0010
,
1000
0000
0100
0100
,
1000
0010
0001
1000
,
0001
0000
1000
1000
,
0010
1000
0100
0000
,
0001
0000
0100
0000
,
0010
0000
1000
0000
,
0100
0100
0010
0010
,
0001
0000
1000
0000
,
0001
0000
0100
0000
,
0010
0000
1000
0000
,
0100
0100
1000
1000
,
0010
0000
0100
0000
,
0001
0000
0001
0000
,
0010
0001
1000
0000
,
0010
0000
1000
0000
,
0100
0100
1000
0001
,
0100
0000
0010
0010
,
1000
0001
0010
0100
,
0100
0000
1000
0001
,
1000
0010
1000
0001
,
0010
0000
0100
0010
,
0100
0100
1000
0001
,
0000
0010
0001
0100
,
1000
1000
0001
0100
,
0001
0000
0010
0000
,
1000
0000
0100
0000
,
1000
1000
0001
0001
,
0010
0000
0100
0000
,
0010
0000
0001
0000
,
0100
0000
1000
0000
,
0001
0001
0010
0010
,
0001
0000
0100
0000
,
1000
0010
1000
0010
,
1000
0100
0001
0100
,
0010
0000
0010
0000
,
1000
0001
0100
0000
,
0001
0010
0001
1000
,
0100
0010
0100
1000
,
0010
0000
0100
0000
,
0001
1000
0010
0000
;

//---------------dance-single - ----------------
#NOTES:
     dance-single:
     :
     Medium:
     9:
     :
0000
0000
0000
0000
,
0000
0000
0000
0000
,
0000
0000
0000
0000
,
0000
0000
0000
0000
,
0000
0000
0000
0000
,
0011
0100
1000
0010
,
0101
0000
0001
2000
0000
0000
3010
0100
,
0010
0010
1010
0101
,
1000
0001
0000
0200
0000
0000
0310
0000
,
1000
0001
0000
0010
0001
0100
0000
0010
,
1000
0000
1000
0001
0100
0000
0010
0000
,
0100
0001
0000
1000
0100
0010
0000
0001
,
1000
0000
0010
1000
0100
0000
0001
0000
,
0010
0001
0100
0010
1000
0000
0001
0000
,
1000
0100
0010
0001
0100
0000
0010
0000
,
1000
0100
0010
0000
0001
0000
0100
0000
,
1001
0000
0010
1000
0000
0100
1000
0100
,
0000
0000
0000
0010
0001
0100
0001
0000
,
1000
0100
1000
0000
0020
0000
0230
0000
,
0300
0000
0000
0001
1000
0001
1000
0000
,
0100
0010
0001
0000
2000
0000
3020
0000
,
0030
0000
0000
0100
0001
0100
0001
0000
,
0010
0100
1000
0000
0002
0000
2003
0000
,
3000
0000
0000
0010
1000
0010
1000
0000
,
0110
0000
0001
0100
1000
0000
0000
0000
,
0010
0000
1000
0002
0000
0000
0013
0100
,
1000
0000
0010
0200
0000
0000
0301
1000
,
0001
0001
0011
1100
,
0010
1000
0000
0002
0000
0000
0003
0000
,
0101
0010
1000
0100
,
1100
0000
0001
2000
0000
0000
3100
0010
,
0001
0001
0101
1100
,
0010
1000
0000
0001
0000
0000
0100
0010
,
0100
0000
0000
0001
1000
0000
0000
0000
,
0010
0000
1000
0001
1000
0000
1100
0000
,
0001
0100
0000
0010
1000
0001
0000
0010
,
0100
0000
1000
0001
1000
0000
0101
0000
,
0000
0000
0000
0001
1000
0001
1000
0000
,
0010
1000
0100
0000
0020
0000
0032
0000
,
0003
0000
0000
0100
0001
1000
0001
0000
,
1000
0100
1000
0000
0020
0000
0230
0000
,
0300
0000
0000
0001
0010
0100
1000
0000
,
0010
1000
0001
0000
2000
0000
3200
0000
,
0300
0000
0011
0000
0001
0100
0010
0000
,
1010
0000
1000
0100
0002
0000
2003
0000
,
3010
0000
1000
0200
0000
0000
1300
0001
,
1000
0000
0010
0200
0000
0000
0301
1000
,
0010
0010
1001
0110
,
1000
0100
0000
0002
0000
0000
0003
0000
,
0011
0100
1000
0010
,
1001
0000
0001
0200
0000
0000
0310
1000
,
0001
1000
1100
0011
,
0100
0001
0000
1000
0000
0000
1001
0000
,
0110
0000
1000
0200
0000
0000
0310
0002
,
0000
0000
1003
0002
0000
0000
0103
0020
,
1000
1000
0001
0001
,
1030
0001
0000
0200
0000
0000
0300
0000
,
0110
0000
1000
0200
0000
0000
1300
0020
,
0000
0000
0130
0002
0000
0000
0103
0020
,
1000
1000
0001
0001
,
1030
0100
0000
2200
0000
0000
3300
0000
;

//---------------dance-single - ----------------
#NOTES:
     dance-single:
     :
     Hard:
     12:
     :
0000
0000
0000
0000
,
0000
0000
0000
0000
,
0000
0000
0000
0000
,
0000
0000
0000
0000
,
0000
0000
0000
0000
,
0011
0100
1000
0002
0000
0000
0103
0010
,
1000
0100
1000
0002
0000
0000
0013
0100
,
2100
3001
0101
1100
,
0010
1000
0000
0200
0000
0310
0001
1000
,
0001
0100
0010
0100
0001
1000
0100
1000
,
0001
0010
1000
0010
0001
0000
0100
0010
,
1000
0100
0010
0001
0100
0010
0100
0001
,
1000
0000
0100
0000
0010
0000
0100
0000
1000
0001
1000
0000
0010
0000
0000
0000
,
0100
0000
0001
0000
0010
0000
0001
0000
1000
0010
0000
0100
0000
0000
0001
0000
,
0010
0000
0100
0000
1000
0000
0010
0000
1000
0001
0000
0100
0000
0000
0010
0000
,
1000
0000
0100
0000
1000
0000
0001
0000
0100
0000
0000
0010
0000
0000
1000
0000
,
0101
0000
0010
1000
0001
0100
0100
0010
,
1001
0000
1010
0100
0001
0001
1000
1000
,
0010
1000
0100
0010
0001
0100
0001
1000
,
0010
0000
0101
1000
0010
0010
0100
0100
,
0010
1000
0100
0010
0001
1000
0001
0100
,
0010
0000
0110
0001
1000
1000
0100
0100
,
1000
0010
0001
0100
0020
0000
2030
0000
,
3001
0000
0011
0100
1000
0010
0001
1000
,
0001
0000
0100
0010
0000
0100
0010
0000
1000
0001
1000
0000
0100
0000
0010
0000
,
0001
0100
0001
2000
0000
0000
3010
1000
,
0100
0010
0001
0200
0000
0000
0310
1000
,
2001
3100
1010
0101
,
0010
0001
0100
0020
0000
0000
0000
1000
,
1030
0001
0010
0200
1000
0000
1300
0001
,
0010
0100
1000
0002
0100
0000
0103
0010
,
1010
1100
0011
0101
,
0010
0001
1000
0001
0100
0000
0110
0001
,
1000
0001
0000
0100
0010
1000
0000
0001
,
0010
0000
0010
0001
1000
1100
1100
0001
,
0100
0010
0000
1000
0001
0010
0000
0001
,
0100
0000
0010
0000
1000
0000
0100
0000
1000
0001
1000
0000
0010
0000
0100
0000
,
0001
0000
0011
0100
1000
0010
1000
0001
,
0100
1000
0100
0001
0010
0100
1000
0001
,
0100
0000
1010
0001
1000
1000
0001
0001
,
1000
0010
0001
0010
0100
0010
0001
0010
,
1000
0000
1001
0010
1000
0100
1000
0001
,
0010
1000
0010
0001
0200
0000
0320
0000
,
1030
0000
0001
0010
0001
0100
1000
0010
,
1000
0000
0100
0010
0000
0100
0010
0000
0001
0000
1000
0000
0010
0000
0100
0000
,
0001
0010
0100
2000
0000
0000
3010
1000
,
0100
1000
0001
0020
0000
0000
0031
1000
,
1100
0011
0101
1010
,
0001
1000
0100
0020
0000
0000
0031
1000
,
0001
0100
0010
2000
0001
0000
3001
1000
,
0100
1000
0001
0200
0010
0000
0310
1000
,
1001
0011
1100
0101
,
0010
1000
0100
0010
0001
0000
1001
0000
,
0010
1000
0010
0100
0001
0010
0001
1000
,
0100
0001
0100
1000
0010
0100
0010
1000
,
0100
0010
0100
0001
0100
1000
0010
1000
,
0001
1000
0100
0010
0001
0100
1000
0000
,
0010
1000
0001
0010
1000
0010
0100
0010
,
0001
0100
0001
0010
0001
0100
0010
1000
,
0100
0010
0001
0100
0001
0010
1000
0000
,
0010
0101
0000
2200
0000
0000
3300
0000
;
