#TITLE:Kind Lady;
#SUBTITLE:(Long Version);
#ARTIST:OKUYATOS;
#TITLETRANSLIT:;
#SUBTITLETRANSLIT:;
#ARTISTTRANSLIT:;
#GENRE:;
#CREDIT:;
#BANNER:Kind Lady (Long Version)-bn.png;
#BACKGROUND:Kind Lady (Long Version)-bg.png;
#LYRICSPATH:;
#CDTITLE:;
#MUSIC:Kind Lady (Long Version).ogg;
#OFFSET:0.000000;
#SAMPLESTART:387.546997;
#SAMPLELENGTH:20.000000;
#SELECTABLE:YES;
#DISPLAYBPM:135.000000;
#BPMS:0.000000=135.009995
;
#STOPS:
;
#BGCHANGES:;
#KEYSOUNDS:;
#ATTACKS:;

//---------------dance-single - ----------------
#NOTES:
     dance-single:
     :
     Challenge:
     17:
     0.781162,0.894826,0.240009,0.217367,1.003057,2415.000000,2309.000000,106.000000,96.000000,0.000000,0.000000,0.781162,0.894826,0.240009,0.217367,1.003057,2415.000000,2309.000000,106.000000,96.000000,0.000000,0.000000:
0000
0000
0000
0000
,
0000
0000
0000
0000
,
0000
0000
0000
0000
,
0000
0000
0000
0000
,
0010
0000
0000
0000
0010
0000
0000
0000
0010
0000
0000
0000
0010
0000
0001
1000
,
0200
0300
1100
0101
,
1100
0000
0001
0200
0001
0000
0301
0000
,
1000
0000
1010
0000
0001
0000
0011
0000
1000
0001
1000
0001
1000
0010
0100
0000
,
1001
0000
0000
0010
0000
0000
1000
0000
0100
0000
0000
0010
0000
0000
0001
0000
,
1000
0000
0000
0001
0000
0000
1000
0000
0010
0100
0010
0000
1000
0000
0000
0000
,
0001
0000
0000
1000
0000
0000
0010
0000
0100
0000
0000
0001
0000
0000
0010
0000
,
0100
0000
0000
1000
0000
0000
0001
0000
1000
0010
1000
0000
0001
0000
0000
0000
,
0100
0000
0000
0010
0000
0000
0100
0000
0001
0000
0000
1000
0000
0000
0010
0100
,
0001
0000
0000
0010
0000
0000
0001
0000
1000
0001
1000
0000
0100
0000
0000
0000
,
0010
0000
0000
0001
0000
0000
0110
0000
1000
0000
0000
0001
0000
0000
0100
0000
,
0001
0000
0000
0010
0000
0000
0100
0000
1000
0001
1000
0000
0010
0000
0000
0000
,
0100
0000
0000
0001
0000
0000
1000
0000
0001
0000
0000
0010
0000
0000
0100
0000
,
1000
0000
0000
0001
0000
0000
1000
0000
0010
0100
0010
0000
1000
0000
0000
0000
,
0001
0000
0000
0010
0000
0000
0100
0000
0010
0000
0000
0001
0000
0000
1000
0000
,
0001
0000
0000
1000
0000
0000
0100
0000
0010
0001
0010
0000
0100
0000
0000
0000
,
1000
0000
0000
0010
0000
0000
1000
0000
0100
0000
0000
0010
0000
0000
0001
1000
,
0010
0000
0000
0100
0000
0000
0010
0000
1000
0100
1000
0000
0001
0000
0000
0000
,
0010
0000
0000
0100
0000
0000
0110
0000
0001
0000
0000
0100
0000
0000
1000
0000
,
0001
0100
0001
0000
1000
0100
1000
0000
0001
1000
0010
1000
0001
1000
0100
0000
,
1002
0000
0000
0010
0000
0000
0103
0000
0002
0000
0000
1000
0000
0000
0013
0000
,
0200
0000
0000
1000
0000
0000
0310
0000
0200
0000
0000
0001
0000
0000
1300
0000
,
0020
0000
0000
0001
0000
0000
0130
0000
0020
0000
0000
1000
0000
0000
0130
0000
,
2000
0000
0000
0001
0000
0000
3010
0000
2000
0000
0000
0100
0000
0000
3010
0000
,
1001
0000
0000
0100
0000
0000
0001
0000
0011
0000
0000
0100
0000
0000
1000
0000
,
1100
0000
0000
0001
0000
0000
1000
0000
0110
0000
0000
0010
0000
0000
1000
0000
,
0101
0000
0000
0001
0000
0000
0100
0000
1010
0000
0000
0010
0000
0000
0100
0000
,
0001
0010
0001
0000
1000
0010
1000
0000
0100
0010
0100
1000
0010
0100
0001
0000
,
1001
0000
0010
0000
1000
0000
0001
0100
0001
0000
0000
0010
0100
0000
1000
0000
,
0001
0000
0100
0000
0010
1000
0000
0100
0000
0010
0000
0100
0000
1000
0000
0000
,
0001
0000
1000
0010
0100
0000
0010
1000
0001
0000
0000
0010
0100
0000
1000
0000
,
0010
0000
0000
1000
0000
0000
0001
0000
1000
0100
0010
0100
0010
0100
0000
0000
,
1000
0000
0001
0000
1000
0000
0010
0000
0100
0001
0000
0001
0100
0000
0000
0000
,
0010
1000
0000
0001
0000
1000
0000
0100
0000
0010
0000
0001
0000
0100
0000
0000
,
0010
0000
1000
0000
0001
0000
1000
0000
0100
0010
0000
0010
0001
0000
1000
0000
,
0002
0000
0000
2003
0000
0000
3010
0000
0100
0001
0100
0010
0000
1000
0000
0000
,
1100
0000
0010
0001
0100
0000
0010
1000
0100
0000
0000
0010
0001
0000
1000
0000
,
0001
0000
0100
0000
0010
0000
1000
0000
0100
0010
0000
0010
0001
1000
0000
0001
,
0100
0000
0010
1000
0001
0000
1000
0100
0010
0000
0000
0001
1000
0000
0010
0000
,
0101
0000
0000
1100
0000
0000
0101
0000
1000
0001
0010
0001
1000
0001
0000
0000
,
0100
0000
0001
0000
0010
0000
0100
0000
1000
0001
0000
1000
0001
0000
0100
0000
,
0010
1000
0000
0100
0000
1000
0000
0001
0000
0100
0000
0001
0000
0010
0100
0000
,
1000
0000
0001
0000
1000
0000
0010
0000
0100
0001
0000
0001
1000
0000
0100
0000
,
0010
0000
0110
0000
0100
0000
0110
0000
0001
1000
0001
1000
0010
0100
0001
0000
,
1001
0000
0000
0101
0000
0000
1100
0000
1001
0000
0000
0010
0100
0000
0001
0000
,
1000
0000
0100
0000
1000
0010
0000
0100
0000
0001
0000
0000
0010
0001
0100
0000
,
0120
0000
0000
0000
1030
0001
1000
0000
2010
0000
0000
0000
3001
0100
0001
0000
,
1000
0010
0000
1000
0010
0000
0100
0000
0001
0000
0020
0000
0230
0000
2300
0000
,
3001
0000
1000
0010
0000
1000
0100
0000
0020
0000
0031
0000
0100
0000
0001
0000
,
1000
0000
0000
0001
0000
0000
1000
0000
0100
0010
0001
0000
0100
0000
0010
0000
,
2000
3002
2003
3020
0230
0302
0023
0230
,
2300
3002
2003
3020
0130
0010
0100
0001
,
1001
0000
0100
0000
0010
0000
0100
0001
0000
1000
0100
0000
0010
0000
0001
0000
,
1000
0200
0301
0200
1300
0200
0310
0000
,
0002
2003
3002
0023
0230
2300
3020
0230
,
0301
0000
0100
0010
1000
0000
0001
0000
0010
0100
0020
0000
0032
0000
2003
0000
,
3010
0000
0100
0001
0000
1000
0100
0000
1000
0001
0100
0000
0010
0000
0010
0000
,
1000
0000
0000
0001
0000
0000
1000
0000
0010
0100
0001
0000
0010
0000
0100
0000
,
1100
1100
0110
0110
0011
0011
1001
1001
,
0100
0001
0100
0010
0100
0001
0100
0010
0100
0001
0100
0010
1000
0000
0001
0000
,
0110
0000
0001
0000
1000
0010
0000
0010
0100
0000
0001
0000
0010
0000
0100
0000
,
1000
0000
0001
0000
1000
0010
0000
0100
0000
0001
0000
1000
0000
0100
0000
0000
,
1000
0000
0001
0000
0010
0100
0000
0100
1000
0000
0001
0000
0100
0010
0000
0100
,
0001
0000
1000
0000
0001
0010
0000
0010
0000
0000
0000
0100
1000
0000
0001
0000
,
0100
0000
0001
0000
0010
0100
1000
0000
0001
0000
1000
0000
0010
0100
0000
0100
,
0001
0000
0010
0000
0001
1000
0000
0010
0000
0100
0000
0001
0000
0010
0000
0000
,
0100
0000
0100
0000
1000
0001
0000
1000
0010
0000
0100
0000
0001
0010
0000
0001
,
1000
0000
0010
0100
0001
0000
0010
0100
0000
0100
1000
0000
0001
1000
0010
1000
,
0002
0200
0000
0003
,
0310
1000
0010
1000
0010
1000
0010
1000
0010
1000
0010
0000
0100
0000
0001
1000
,
0001
0010
0100
0000
0100
0000
0100
0000
1000
0001
1000
0010
0000
0010
0100
0001
,
1000
0000
0001
0010
0001
0000
0000
0100
0000
0010
1000
0000
0100
1000
0001
0000
,
0010
0000
0000
0001
0000
0000
0100
0010
0000
0010
1000
0001
1000
0000
0100
0010
,
0100
0000
1000
0001
0000
0100
0000
0010
0100
0000
0001
0000
1000
0000
0100
0010
,
0001
0000
1000
0000
0001
1000
0100
0010
0000
0010
0001
0100
0001
0000
1000
0001
,
0100
0010
0100
0010
0100
0000
0001
1000
0100
0000
0010
0000
0001
0000
0000
0000
,
0100
0001
0100
0001
0000
0000
0010
0100
1000
0000
0000
0001
0000
0000
1000
0000
,
0010
0100
0010
0000
0100
0010
0100
0000
0001
1000
0001
1000
0001
0010
0100
0000
,
1100
0000
1000
0000
0001
0000
0100
0010
0000
0100
0000
0001
1000
0000
0100
0000
,
1000
0000
0000
0010
0100
0001
0100
0010
0100
0001
1000
0001
0010
0000
0100
1000
,
0001
0000
0000
0101
0000
0010
0100
0001
1000
0000
0100
0000
1000
0001
0100
0000
,
0010
0000
0000
0000
1000
0001
1000
0001
1000
0010
0100
0001
0000
0001
0000
0001
,
0000
0000
0010
0001
0010
0100
1000
0001
0000
0100
0000
0100
0000
0010
0100
0000
,
0001
0000
0000
0000
1000
0010
1000
0100
0010
0000
0000
0000
0010
0001
0010
0100
,
2000
0000
0000
0000
3001
0000
0000
1000
0010
0100
0010
0100
0001
0000
1000
0100
,
0000
0010
0000
0001
0100
0000
0010
0000
0100
0000
0000
0001
1000
0001
0000
1000
,
0001
0000
0010
0000
0100
0000
1000
0010
1000
0100
0000
0010
0000
0010
0000
0001
,
1000
0000
0000
0001
0100
0010
0000
0100
0000
0001
1000
0010
0000
0100
0001
0000
,
0010
0000
0000
0000
0001
0100
0010
0100
0001
0000
1000
0000
0100
1000
0010
0000
,
0100
0000
0001
1000
0001
0000
0010
0100
0000
0100
1000
0000
0001
0000
1000
0100
,
0010
0000
0000
0000
0001
1000
0000
0010
0000
0100
0001
0000
0010
0000
0100
1000
,
0001
0000
0100
0000
0001
1000
0000
0000
0010
1000
0000
0100
0000
0010
0000
0001
,
0100
0010
0000
0010
0000
1000
0000
0001
0000
0002
0000
0013
0001
0100
0010
1000
,
0001
0000
0101
0000
1000
0000
1100
0000
0010
1000
0010
0100
0010
1000
0001
0000
,
0110
0000
0000
0000
0001
0010
0100
0010
0001
0000
1000
0001
0000
1000
0000
0100
,
0010
0000
0000
0000
0001
0100
0010
1000
0100
0000
0000
0000
1000
0001
0000
0010
,
0000
0001
0100
0000
0010
1000
0000
0100
0000
0100
0000
1000
0001
0000
0100
0001
,
0010
0000
0100
0000
1000
0001
0000
0100
0000
0001
0010
0100
1000
0000
0001
0000
,
0100
0000
0001
0000
0010
0000
0100
1000
0000
1000
0000
0001
0100
0000
0000
0000
,
0010
1000
0010
0100
0001
0000
1000
0000
0001
0010
0001
1000
0000
0010
0100
0010
,
0100
0000
0001
0100
0010
0000
0000
1000
0100
0010
0001
0000
0100
0010
1000
0000
,
0001
0000
0010
0001
0100
0010
0000
1000
0000
0001
1000
0100
0010
0000
0001
0100
,
0001
0000
0010
0100
1000
0001
0000
0001
0100
0000
0000
1010
0000
0000
0001
1000
,
0100
0000
0020
0000
0031
1000
0001
0100
0000
0100
0010
0100
0001
0010
0100
1000
,
0001
1000
0000
0010
1000
0000
0100
1000
0001
0000
0200
0000
0301
0000
0010
0000
,
0100
1000
0001
0100
0010
0000
0100
0001
1000
0000
0100
0000
0010
0001
0010
0001
,
1000
0010
0100
0001
0000
0010
0100
1000
0100
1000
0100
0010
0001
1000
0001
0100
,
0010
0000
1000
0000
0001
0000
1000
0000
0100
0000
1000
0000
0010
0100
0001
0000
,
1000
0000
0100
0010
0000
0010
0001
0100
0001
1000
0001
0010
0100
0000
1000
0001
,
0100
0000
0010
1000
0000
0010
1000
0001
0010
0000
0100
0000
1000
0001
0100
0000
,
1001
0000
0000
0010
0000
0000
0100
0001
0100
0010
1000
0001
0010
0100
0000
2000
,
0000
0000
3001
0100
0001
0100
0010
1000
0000
1100
0000
1100
0000
0001
0010
0000
,
0100
0000
0000
1000
0000
0001
0100
0001
0020
0000
0000
0031
0000
0000
0100
0010
,
1000
0000
0000
0001
0100
0000
0001
1000
0100
0010
0100
1000
0010
0100
0001
1000
,
0000
0101
0000
0101
0000
0000
0010
0000
0100
0000
0001
1000
0000
0001
0100
0000
,
0010
0000
0000
0100
0000
0000
0010
1000
0001
0010
0000
0110
0000
0110
0000
0100
,
1000
0000
0000
1001
0000
0110
0000
1001
0000
0010
0100
0001
0000
1000
0001
0000
,
0010
0001
0010
0001
1000
0010
1000
0010
1000
0100
1000
0100
0001
0100
0001
0100
,
1000
0000
0000
0001
0000
0000
1000
0000
0010
0000
0100
0000
0001
0000
0000
0000
,
0010
0000
0000
0100
0000
0000
0010
0000
0001
0000
1000
0000
0100
0000
0000
0000
,
1000
0000
0000
0010
0000
0000
1000
0000
0100
0000
0010
0000
0001
0000
0000
0000
,
0100
0000
0000
0001
0000
0000
1000
0000
0001
0000
0100
0010
0200
0000
0000
0000
,
0301
0000
0000
0010
0000
0000
0100
0000
1000
0000
0001
0000
1000
0000
0000
0000
,
0010
0100
0010
1000
0001
0100
1000
0000
,
1010
0000
0100
0001
0010
0100
1000
0001
,
1000
0000
0000
0000
0010
0100
0000
0100
0001
0010
0100
1000
0001
0000
0100
0000
,
0101
0000
0000
0010
1000
0000
0100
1000
0000
1000
0000
0001
0100
0010
1000
0000
,
0001
0000
0100
0010
0000
0000
0000
0100
0001
0010
0100
1000
0002
0100
0000
0000
,
0103
0000
0000
0010
1000
0000
0001
1000
0000
0100
0000
1000
0010
0000
0100
0001
,
0010
0000
0100
1000
0000
0000
0000
0001
0000
0001
0000
0001
0100
0000
0010
0000
,
0000
0000
1000
0000
0001
0000
0000
0000
1000
0100
0010
0001
0000
0100
0000
0010
,
0000
0100
0010
0000
0100
0001
0000
1000
0000
1000
0000
0001
0000
1000
0000
0000
,
0010
0000
0100
0001
0000
0011
0000
0000
0100
1000
0000
1000
0001
0000
0000
0110
,
0000
0001
1000
0000
0100
0010
0000
0001
0000
1000
0010
1000
0000
0001
0100
0000
,
1001
0000
0010
0000
0100
0001
1000
0000
1000
0000
0000
0001
0010
0000
0100
0000
,
1000
0000
0000
0000
0001
0100
0001
0100
0010
0000
1000
0000
0001
1000
0000
0100
,
0010
0000
0010
0000
0001
1000
0001
0100
0000
0100
0010
0000
0000
1000
0000
1000
,
0001
0000
0010
0000
0000
0000
0001
0100
0000
0010
1000
0000
0100
1000
0001
0000
,
0100
0000
0100
0000
0001
0010
0100
1000
0000
0000
0001
0000
0100
0010
0000
0010
,
1000
0000
0001
0000
1000
0100
1000
0010
0100
0000
0001
0000
0010
0000
0000
0001
,
1000
0000
1000
0000
0000
0001
0100
0010
0000
1000
0001
0000
0010
0100
0000
0100
,
2000
0000
3002
0000
1003
0010
0100
0000
0001
0010
0100
0000
1000
0001
0000
0000
,
0100
0001
0100
0010
0100
0001
0100
0010
1000
0001
1000
0001
1000
0010
1000
0010
,
0000
0000
0100
0001
0010
0100
1000
0001
0100
0010
0100
0001
0100
0000
0000
0010
,
1000
0100
0000
0100
0000
0100
0010
0000
0001
1000
0001
1000
0010
0000
0100
0001
,
0000
0010
0100
0010
0001
0000
1000
0100
0000
1000
0010
1000
0010
0100
0001
1000
,
0100
0010
0100
1000
0001
0000
0000
0011
0000
2100
0000
0000
3100
1000
0001
0100
,
0000
0010
0000
0100
0001
0000
0000
1010
0000
0001
0010
0100
1000
0000
0001
0000
,
0100
0010
0000
0100
0001
0000
0000
1001
0000
0201
0000
0310
0100
0001
1000
0000
,
0000
0000
0001
0010
0100
0010
0100
1000
0000
0001
0000
1000
0010
0100
0001
0000
,
0000
0010
0000
0010
0000
0001
0100
0010
0000
1000
0100
1000
0010
0100
0001
0000
,
0000
0000
1000
0100
0010
0100
0010
0100
0001
0100
0010
0100
1000
0000
0001
0100
,
0001
1000
0000
0010
0000
1000
0001
0000
0100
0010
0100
0001
1000
0000
0100
0010
,
0000
0010
0001
1000
0001
0000
0100
0010
0000
0010
1000
0100
1000
0010
0100
0001
,
0010
0100
0010
0100
0000
0000
0000
2000
0000
3002
0000
0000
0103
0001
0100
0010
,
1000
0100
0000
0100
0010
0001
0000
0001
0000
1000
0001
1000
0010
0100
0001
0000
,
0010
0100
1000
0100
1000
0000
0000
0001
0000
0100
0000
0001
0010
0100
1000
0000
,
0001
0100
0010
1000
0100
0010
0001
0000
1000
0001
1000
0010
0100
0010
1000
0001
,
0200
0000
0000
0000
0300
0000
0001
1000
0001
0000
0100
0000
0100
0000
0010
0000
,
2000
0000
0000
0000
3000
0000
0100
1000
0001
0000
0100
0000
0001
0000
0010
0000
,
0200
0000
0000
0000
1300
0010
0100
0010
1000
0000
0001
0000
0010
0000
0100
0000
,
0010
0000
0001
0000
0100
0010
0100
0001
0000
0001
0010
0100
1000
0000
0010
0100
,
0002
0000
0000
0000
0003
0000
0010
0100
0010
0000
0001
0000
1000
0000
0001
0000
,
0200
0000
0000
0000
0300
0000
0001
0010
0001
0000
1000
0000
0010
0000
0100
0000
,
0020
0000
0000
0000
0030
0000
0000
0100
0001
0000
0010
0000
0001
0000
1000
0000
,
0100
0000
0000
0000
0000
1000
0000
0001
0100
0010
0100
0001
0010
0100
1000
0000
,
1001
0000
0000
0000
0000
0000
0102
0000
1003
0000
0010
0100
0000
0010
0200
0000
,
0301
0000
0010
0100
0000
0010
0200
0000
1300
0000
0002
0000
1003
0000
0020
0000
,
0130
0000
0001
0010
0000
0001
2000
0000
3010
0100
0000
0100
0001
0000
1000
0000
,
0100
0000
0010
0001
0000
0001
0000
0001
0000
1000
0000
0001
0100
0000
0010
0000
,
2000
0000
3100
0010
0100
0010
0002
0000
0103
0010
1000
0000
1000
0000
0001
0100
,
0001
0000
1000
0000
0010
0100
0000
0010
0100
0000
0100
0000
0100
0001
0000
0001
,
1000
0000
0001
0000
0000
0000
0020
0000
0031
0100
0020
0000
1030
0001
0100
0000
,
0010
1000
0010
1000
0001
1000
0001
1000
0010
0100
0001
0100
0010
0100
0001
0100
,
0010
1000
0001
0000
0010
0100
1000
0001
0100
0000
0001
0000
0010
0000
0100
0000
,
1000
0001
1000
0000
0010
0100
0010
1000
0001
0000
0100
0000
0010
0000
1000
0000
,
0100
0000
0010
0001
0000
0010
0001
0000
1000
0001
0100
0000
0010
0000
1000
0001
,
1000
0000
0100
0000
0010
0001
1000
0000
0001
0100
0010
0000
1000
0000
0000
0000
,
0100
0010
0001
0000
1000
0001
1000
0010
0100
0000
0001
0000
0010
0000
0000
0000
,
0100
0010
0001
0000
1000
0010
1000
0001
0100
0000
0010
1000
0000
0001
1000
0000
,
0100
0010
0100
1000
0100
0010
0001
0010
0100
1000
0001
0000
0100
0000
0010
0000
,
1000
0000
0001
0000
0010
0100
0000
0100
0010
0000
0001
0000
1000
0010
0000
0000
,
0100
0001
0100
0000
0010
1000
0001
1000
0010
0000
0100
0000
0001
1000
0000
0000
,
0100
0010
0100
0000
1000
0001
0010
0001
0100
0010
1000
0000
0001
0100
0000
0001
,
1000
0000
0010
0000
1000
0001
1000
0000
0100
0000
0100
0000
0100
0010
0000
0000
,
0001
0000
0100
0000
0001
1000
0001
0000
0010
0000
0010
0000
0100
0000
0000
0000
,
1000
0100
0010
0100
0010
0001
0010
0100
1000
0000
0001
0000
0100
0010
0000
0010
,
1000
0000
0000
0000
0001
0100
0010
0100
0001
0000
1000
0010
0000
0100
0000
0000
,
0001
0010
0001
0000
1000
0010
1000
0100
0010
0000
0001
0000
0100
0000
0000
0000
,
1010
0000
0001
1000
0000
0100
0010
0100
0020
0000
0032
0000
1003
0000
0010
0000
,
0101
0000
0010
0000
1000
0001
1000
0000
0100
0000
0010
0000
0001
0000
0100
0010
,
0000
0100
0001
0000
1000
0001
0010
0000
0100
0000
1000
0001
0000
1000
0010
0000
,
1000
0000
0100
0000
0001
0000
0010
0100
0010
0001
0000
1000
0000
0001
0100
0010
,
0000
1000
0010
0000
1000
0001
0010
0100
1000
0000
0000
0000
1100
0000
0101
0000
,
0010
0100
0010
0000
1000
0000
0001
0100
0002
0000
0000
0000
0013
0001
0000
0100
,
0000
0010
1000
0000
0100
1000
0000
0001
0000
0010
0100
0000
0010
0001
0000
1000
,
0001
0000
0000
0100
0001
0000
1000
0000
0200
0000
0000
0000
1300
0001
0100
0000
,
0010
1000
0010
1000
0010
0000
0100
0000
0001
0000
1000
0100
0000
0010
0001
0000
,
0100
0010
0000
0010
1000
0001
0010
0000
0100
1000
0000
0001
0000
1000
0100
0010
,
0000
0001
0000
0100
0001
1000
0001
0000
0010
0100
0000
1000
0000
0010
1000
0001
,
0100
0000
0100
0000
0001
1000
0010
0100
0001
0010
0000
0010
0000
0100
1000
0001
,
1000
0000
0010
0000
0100
0001
0000
0001
0000
0010
0100
1000
0001
0000
1000
0100
,
0000
0010
0000
0001
1000
0001
0100
0010
0100
0000
0000
0000
0001
1000
0000
0100
,
0000
0010
0000
0010
0000
0010
0000
0001
1000
0001
0100
0000
0010
1000
0000
1000
,
0001
0010
0000
0001
0010
0100
1000
0001
0100
0000
0010
0000
0100
0001
0000
1000
,
0001
0000
0000
0010
0100
0000
1001
0000
0100
0010
1000
0000
0001
0010
0100
1000
,
0001
0000
0100
0000
0110
0000
0000
0010
1000
0000
0100
0000
1000
0000
0001
0000
,
0100
0000
0010
0000
0100
0000
0001
1000
0100
0000
0010
0000
0001
0000
0000
0000
,
1000
0000
0010
0000
0100
0000
0001
0000
0010
0000
0000
0100
0000
0000
1000
0000
,
0001
0100
0010
0100
0001
0000
1000
0100
0010
0000
0001
0000
0100
0000
0010
1000
,
0001
0000
0000
1000
0001
0000
0010
0000
0100
0000
1000
0000
0001
0000
1000
0010
,
1000
0000
0001
0000
0010
0000
0001
0100
0010
1000
0100
0000
0010
0000
0001
0100
,
0001
0000
0000
0000
1000
0000
0011
0000
0000
1100
0000
0000
0001
0100
0010
0000
,
1000
0001
1000
0010
1000
0001
1000
0010
0100
0001
0010
0100
0010
0100
0001
0100
,
1000
0001
0000
1000
0001
0000
0110
0000
1000
0001
0000
1000
0001
0000
0110
0000
,
0001
0001
1000
1000
0100
0100
0010
0010
,
0001
0100
0001
0100
0001
0100
0001
0100
0001
0100
0001
0100
0001
0100
0001
0100
,
0001
0000
0000
1000
0001
0000
0100
0000
0010
0000
0000
1000
0100
0000
0010
0000
,
0001
0000
0100
0000
0010
1000
0000
1010
0000
1010
0000
0000
0001
1000
0001
0000
,
0010
0000
0001
0100
0001
0000
1000
0000
0010
0000
0100
0001
0100
0000
0010
0000
,
1000
0100
0000
0100
0001
0000
0010
0000
0100
1000
0001
0000
0101
0000
1100
0000
,
0010
0000
0001
1000
0000
0001
1000
0000
0010
0100
0001
0010
0100
0000
1000
0000
,
0001
0100
0000
0001
1000
0000
0010
0000
0100
0001
0010
0000
0100
0000
1000
0000
,
0020
2030
3002
0023
0230
2300
3020
0230
,
0320
2030
3002
0203
0301
0010
0100
1000
,
1001
0000
0010
0000
0100
0000
0010
1000
0000
0001
0010
0000
0100
0000
1000
0000
,
0001
0200
1300
0200
0310
0200
0301
0000
,
0010
0000
0010
0000
0001
0000
0001
0000
0100
0010
1000
0000
0001
0000
0100
0000
,
0010
0000
1000
0001
1000
0000
0100
0000
0010
0001
0100
0000
0110
0000
1001
0000
,
0100
0000
0001
0000
1000
0100
0010
0000
0001
1000
0001
0000
0100
0000
0010
0000
,
1010
0000
0000
0101
0000
0000
0011
0000
0100
1000
0001
0000
0100
0000
0010
0000
,
1010
1010
1001
1001
0011
0011
0110
0110
,
1000
0001
0100
0001
1000
0001
0010
0001
1000
0010
0100
0010
1000
0000
0001
0000
,
1001
0000
0110
0000
1000
0010
0000
0010
0100
0000
0001
0000
1000
0000
0001
0000
,
0010
0000
0100
0000
1000
0010
0000
0101
0000
0110
0000
1010
0000
1100
0000
0000
,
0001
0000
0001
0000
0010
0100
0000
0010
0001
0000
1000
0000
0010
1000
0000
0100
,
0010
0000
0001
0000
0100
0010
0000
1000
0001
0100
0010
0100
0001
1000
0100
0010
,
0001
0000
1000
0000
0010
0100
0001
0000
1010
0000
1100
0000
0001
1000
0000
1000
,
0100
0000
0010
0000
0001
0100
0000
0110
0000
0101
0000
1001
0000
0011
0000
0100
,
1000
0000
0001
0000
1000
0010
0100
0010
1000
0000
0001
0000
0010
0100
0000
0100
,
1000
0001
0010
0001
0100
0010
0100
0001
1000
0100
1000
0010
0100
0001
1000
0010
,
0200
0000
0000
0000
,
0000
0000
0000
0000
,
0300
0000
0000
0000
;

//---------------dance-single - ----------------
#NOTES:
     dance-single:
     :
     Hard:
     14:
     0.646601,0.699083,0.153968,0.199253,0.737009,1999.000000,1931.000000,68.000000,88.000000,0.000000,0.000000,0.646601,0.699083,0.153968,0.199253,0.737009,1999.000000,1931.000000,68.000000,88.000000,0.000000,0.000000:
0000
0000
0000
0000
,
0000
0000
0000
0000
,
0000
0000
0000
0000
,
0000
0000
0000
0000
,
0010
0000
0000
0000
0001
0000
0000
0000
0100
0000
0000
0000
1000
0000
0001
0100
,
0002
0003
0010
0100
,
1000
0000
0010
1001
0000
0100
0000
0001
,
1000
0000
1000
0000
0001
0000
1000
0001
1000
0000
0010
0000
0100
0000
0001
0000
,
1001
0000
0000
0010
0000
0000
0100
0000
1000
0000
0000
0001
0000
0000
1000
0000
,
0010
0000
0000
0100
0000
0000
0001
0000
0020
0000
0000
0000
0230
0000
0000
0000
,
1300
0000
0000
0010
0000
0000
1000
0000
0001
0000
0000
0010
0000
0000
0100
0000
,
0010
0000
0000
0001
0000
0000
0100
0000
0020
0000
0000
0000
2030
0000
0000
0000
,
3001
0000
0000
1000
0000
0000
0010
0000
0100
0000
0000
0001
0000
0000
1000
0100
,
1000
0000
0000
0010
0000
0000
1000
0000
0002
0000
0000
0000
0023
0000
0000
0000
,
0130
0000
0000
1000
0000
0000
1100
0000
0001
0000
0000
1000
0000
0000
0010
0000
,
0100
0000
0000
0001
0000
0000
0010
0000
0200
0000
0000
0000
2300
0000
0000
0000
,
3001
0000
0000
0100
0000
0000
0010
0000
1000
0000
0000
0001
0000
0000
0010
0000
,
0100
0000
0000
1000
0000
0000
0010
0000
1000
0000
0100
0000
0001
0000
0000
0000
,
0010
0000
0000
0001
0000
0000
0100
0000
0010
0000
0000
1000
0000
0000
0001
0000
,
1000
0000
0000
0100
0000
0000
0010
0000
0001
0000
1000
0000
0010
0000
0000
0000
,
0100
0000
0000
0001
0000
0000
0010
0000
0100
0000
0000
1000
0000
0000
0001
0010
,
0001
0000
0000
0100
0000
0000
0010
0000
1000
0000
0001
0000
1000
0000
0000
0000
,
0100
0000
0000
0010
0000
0000
0011
0000
0000
0000
2000
0000
0000
3002
0000
0000
,
0103
0000
0001
0000
0100
0000
0010
0000
1000
0001
1000
0001
1000
0000
0100
0000
,
0110
0000
0000
0000
0000
0000
0001
0000
0001
0000
0000
0100
0000
0000
0010
0000
,
1000
0000
0000
0100
0000
0000
1000
0000
0001
0000
0000
0100
0000
0000
0001
0000
,
0010
0000
0000
0010
0000
0000
0010
0000
0100
0000
0000
0100
0000
0000
0100
0000
,
1000
0000
0000
1000
0000
0000
1000
0000
0001
0000
0000
0001
0000
0000
0001
0000
,
0101
0000
0000
0100
0000
0000
0010
0000
1010
0000
0000
1000
0000
0000
0001
0000
,
0011
0000
0000
0001
0000
0000
1000
0000
1100
0000
0000
0100
0000
0000
0010
0000
,
0110
0000
0000
1000
0000
0000
0001
0000
1001
0000
0000
0010
0000
0000
0100
0000
,
0001
0000
0200
0000
1300
0000
0200
0000
0301
0000
0200
0000
0310
0100
0010
0000
,
0110
0000
1000
0000
0001
0000
1000
0100
0000
0010
0000
0010
0001
0000
0000
0000
,
0100
0000
0001
0000
0100
0010
0000
1000
0000
0001
0000
1000
0000
0100
0000
0000
,
0010
0000
0001
1000
0001
0000
0100
0000
0010
0000
0000
1000
0000
0000
0001
0000
,
0020
0000
0000
0230
0000
0000
2300
0000
0000
0000
3000
0001
0100
0001
0000
0000
,
0010
0000
0100
0000
1000
0000
0010
0000
1000
0001
0000
0100
0000
0000
0000
0000
,
0010
1000
0000
0100
0000
1000
0000
0001
0000
0010
0000
0100
0000
1000
0000
0000
,
0010
0000
1000
0000
0001
0000
0010
0000
0100
0010
0000
0001
0000
0000
1000
0000
,
0002
0000
0000
0203
0000
0000
0320
0000
0000
1000
0000
1030
0000
0100
0000
0000
,
0110
0000
0001
1000
0001
0000
0010
0000
0100
1000
0000
1000
0010
0000
0000
0000
,
0100
0000
0001
0000
0010
0100
0000
1000
0000
0010
0000
0100
0000
0001
0000
0000
,
1000
0000
0001
0100
0001
0000
0010
0000
0100
0000
0000
1000
0000
0000
0001
0000
,
0020
0000
0000
0032
0000
0000
2003
0000
0000
0000
0000
3010
0100
0010
0000
1000
,
0001
0000
0010
0000
0001
0000
0100
0000
0010
1000
0000
1000
0000
0000
0001
0000
,
1000
0100
0000
0010
0000
0001
0000
0100
0000
0010
0000
0100
0000
0001
0000
0000
,
1000
0000
0001
0000
0010
0000
0001
0000
0100
0010
0000
1000
0000
0000
0001
0000
,
0010
0000
0001
0000
0100
0000
0001
0000
1000
0010
1000
0010
1000
0000
0001
0000
,
0011
0000
0000
0110
0000
0000
1100
0000
0001
0000
0000
1000
0001
0000
0100
0000
,
0010
0000
1000
0000
0100
0010
0000
0001
0000
0001
0000
0000
1000
0000
0001
0000
,
0200
0000
0301
0010
0001
0100
0001
1000
,
0100
0000
0000
1000
0000
0000
0001
0000
0000
0000
0100
0000
0010
0000
0100
0000
,
0000
1001
0010
1000
0001
1000
0100
0010
,
0001
0100
0000
0001
0100
0000
0010
1000
0000
0010
1000
0000
0000
0000
0100
0000
,
1000
0010
0100
0010
0001
0010
0100
0010
,
1000
0100
0010
0001
0000
0100
0010
1000
,
1001
0000
0010
0000
0100
0000
0001
1000
0000
0001
1000
0000
0100
0000
0010
0000
,
0001
0200
1300
0200
0301
0200
0310
0000
,
1000
1000
0001
0001
1000
1000
0100
0100
,
0020
0000
0000
0032
0000
0000
0203
0000
0000
0000
0310
0000
1000
0000
1000
0000
,
0000
0110
0001
0100
0001
1000
0100
0010
,
0001
1000
0000
0001
1000
0000
0010
0100
0000
0010
0100
0000
0000
0000
0001
0000
,
0010
1000
0010
0100
0010
0001
0100
0010
,
1000
0000
0000
0100
0000
0000
0001
0000
0010
0000
0100
0000
1000
0000
0001
0000
,
0100
0000
0010
0000
0000
1000
0000
1000
0100
0000
0010
0000
0000
0000
0001
0000
,
1000
0000
0010
0000
1000
0001
0000
0010
0000
0100
0000
1000
0000
0001
0000
0000
,
0100
0000
0010
0000
0000
1000
0000
1000
0001
0000
0010
0000
0000
0100
0000
0100
,
1000
0000
0010
0000
0100
0001
0000
0011
0000
0000
0000
0001
1000
0000
0100
0000
,
0010
0000
0001
0000
1000
0010
1000
0000
0100
0000
0010
0000
0000
0001
0000
0001
,
0100
0000
0010
0000
0100
0001
0000
1000
0000
0100
0000
0010
0000
0010
0000
0000
,
0001
0000
1000
0000
0000
0010
0000
1000
0100
0000
0010
0000
0000
0001
0000
1000
,
0001
0000
0100
0000
0010
1000
0000
0100
0000
0010
0001
0000
1000
0000
0001
0000
,
2010
0002
0000
3000
,
0013
0000
0001
0000
0100
0001
0100
0000
0010
1000
0010
0000
1000
0000
0100
0000
,
1000
0001
1000
0000
0010
0000
0010
0000
1000
0000
0001
0100
0000
0001
0100
0000
,
0010
0000
1000
0100
1000
0000
0000
0001
0000
0010
0100
0000
1000
0000
0001
0000
,
0100
0000
0000
0010
0000
0000
1000
0001
0000
1000
0001
0000
0010
0000
0100
0000
,
1000
0000
0010
0100
0000
0100
0000
0100
0001
0000
1000
0000
0001
0000
0000
0000
,
0010
0000
0001
0000
0100
0000
0010
1000
0000
1000
0100
0000
1000
0000
0001
0000
,
0010
0000
0001
0000
0100
0000
0010
1000
0010
0000
0100
0000
0001
0000
0000
0000
,
0101
0000
0000
1000
0000
0000
0001
0100
0001
0000
0000
0010
0000
0000
0100
0000
,
1000
0000
1000
0000
0001
0000
0001
0000
1000
0010
1000
0010
1000
0000
0001
0000
,
0001
0000
0100
0000
0010
0000
1000
0000
0200
0000
0000
0320
0000
0000
0031
0000
,
1000
0000
0000
0001
0000
0100
0010
0000
1000
0000
0100
0000
0010
0000
0001
1000
,
0000
0000
0000
0010
0000
1000
0001
1000
0001
0000
0010
0000
0001
0100
0001
0000
,
1000
0000
0000
0000
0000
0010
0100
0000
0001
0000
1000
0001
0000
0010
0000
0100
,
0000
0000
1000
0000
0010
0100
0010
0100
0000
0001
0000
0001
0000
1000
0100
0000
,
0010
0000
0000
0000
0001
1000
0001
1000
0002
0000
0000
0203
0000
0000
0310
2000
,
0000
0000
0100
0000
3100
0000
0000
1000
0001
0000
0100
0000
0001
0000
0010
0100
,
0000
1000
0000
0002
0000
0000
0010
0000
0013
0000
0000
0001
1000
0001
0000
0000
,
0110
0000
0000
0000
0001
0000
0100
0010
1000
0010
0000
1000
0000
0001
0000
0000
,
0010
0000
0000
0001
1000
0001
0000
0100
0000
0010
0000
0100
0000
0001
0000
1000
,
0000
0100
0000
0000
0000
1000
0010
0100
0001
0000
1000
0000
0001
0010
0001
0000
,
0100
0000
0010
0000
1000
0000
0001
0010
0000
0100
0000
0010
0001
0000
1000
0010
,
0000
0000
0000
0100
0001
1000
0000
0010
0000
0100
0000
0000
0001
0000
0010
0100
,
0010
0000
0000
0000
0001
1000
0000
0001
0100
0010
0000
1000
0000
0100
0000
0100
,
0010
0001
0000
1000
0000
0001
0000
0100
0000
0010
1000
0000
0100
0000
0010
0001
,
1000
0000
1000
0000
0001
0000
1000
0010
0100
0000
0001
0010
0100
0000
1000
0001
,
0100
0000
0000
0000
0010
1000
0010
0100
0001
0000
0000
0011
0000
0011
0000
0011
,
0000
0000
0100
0000
0000
1000
0001
1000
0001
0000
0000
0010
0000
0100
0000
1000
,
0000
0001
1000
0000
0010
0100
0010
0100
0000
0001
0000
1000
0001
0000
0100
0000
,
0001
0000
0010
0000
0100
1000
0010
1000
0000
0001
0000
0001
0000
1000
0100
0000
,
0010
0001
0001
0100
0010
1000
0001
1000
,
0100
0010
0001
0010
0001
0000
1000
0000
0001
0000
0100
0010
0000
0010
1000
0000
,
0100
0000
1000
0000
0001
0000
0000
0100
0000
0100
0010
0000
1000
0000
0001
0000
,
0010
0000
0000
0001
0000
0000
1000
0010
0000
0010
1000
0000
0100
0000
1000
0001
,
1000
0000
0010
0000
0100
0001
0000
0010
0000
0000
0001
1000
0000
0010
0100
0000
,
0001
0000
0010
0000
0100
0000
1000
0001
0000
1000
0001
0000
0100
0000
0010
1000
,
0001
0000
0000
0010
0100
0000
1000
0001
0000
0000
0100
0000
0010
0000
1000
0000
,
0001
0100
0001
0100
0000
0010
0000
1000
0000
0000
0000
0000
0100
1000
0001
1000
,
0010
0000
0100
0000
0001
0000
1000
0000
0100
0000
0010
0001
1000
0001
0000
0100
,
0010
1000
0100
0001
0100
1000
0100
0010
,
0001
0000
0000
0000
0100
0010
0100
0010
1000
0000
0001
0000
1000
0000
0100
0010
,
0001
0000
0000
1000
0000
1000
0010
0100
0010
0000
1000
0000
0001
0100
0001
0000
,
1001
0000
0000
0000
0000
0010
0100
0010
1000
0000
0001
0010
0000
0100
0000
2000
,
0000
0000
0010
0000
3010
0000
0100
0001
0000
0010
0000
0001
0000
1000
0100
0000
,
0010
0000
0000
0001
0000
0001
0100
0020
0000
0000
0000
1030
0000
0000
0001
0100
,
0010
0000
0000
0000
1000
0000
0001
0100
0001
0000
1000
0010
1000
0000
0100
0010
,
0000
0010
0000
0010
0000
0000
0001
0000
1000
0000
0000
0001
0000
0000
0100
0000
,
0010
0000
0000
1000
0000
0000
0001
0000
1000
0100
0000
1000
0000
0010
0000
0000
,
0100
0000
0000
0001
0000
0001
0000
1000
0000
1000
0000
0001
0000
0010
0100
0000
,
1000
0000
0010
0000
1000
0000
0001
0000
1000
0010
0100
0010
0100
0001
1000
0000
,
1100
0000
0000
0010
0000
0000
0001
0000
1000
0000
0000
0000
0001
0000
0000
0000
,
0100
0000
0000
0010
0000
0000
1000
0000
0001
0000
0000
0000
1000
0000
0000
0000
,
1000
0000
0000
0010
0000
0000
1000
0000
0100
0000
0000
0000
0001
0000
0000
0000
,
0010
0000
0000
0100
0000
0000
1000
0000
0001
0000
1000
0000
0100
0000
0000
0000
,
0010
0000
0000
0001
0000
0000
1000
0000
0010
0000
1000
0000
0100
0000
0000
0000
,
1000
0000
0000
0010
0000
0000
0100
0000
0010
0000
1000
0000
0001
0000
0000
0000
,
0100
0000
0010
0000
0100
0001
1000
0000
,
0001
1000
0010
1000
0100
0010
0001
0000
,
0110
0000
0000
0000
0001
0000
1000
0010
0000
1000
0000
0100
0010
0000
0001
0000
,
0100
0000
0001
1000
0000
0000
0000
0000
0010
0100
0010
2000
0000
0000
0000
3000
,
0001
0000
0000
1000
0100
0000
1000
0010
0000
0010
0000
0100
0001
0000
1000
0000
,
0001
0000
0010
0100
0000
0000
0000
1100
0000
1100
0000
1100
0000
0000
0001
0000
,
0000
0000
0100
0000
0100
0000
0001
1000
0001
0000
0010
0100
0000
1000
0000
0001
,
0000
1000
0010
0000
0100
0001
0000
0010
0000
0100
0000
1000
0000
1000
0000
0000
,
0001
0000
0000
1010
0000
0010
0000
0000
0100
0001
0000
1000
0001
0000
0000
0101
,
0000
1000
0001
0000
0000
0010
0000
0100
0000
1000
0000
0001
0000
1000
0100
0000
,
1001
0000
0100
0000
0001
1000
0001
0000
0010
0000
0000
0100
0000
0000
1000
0000
,
0001
0000
0000
0000
0000
0100
0010
0100
0010
0000
1000
0000
0000
0001
0000
0001
,
1000
0000
0001
0000
0000
1000
0100
0010
0000
0010
0100
0000
0000
2000
0000
3001
,
0100
0000
0100
0000
0000
0000
0010
1000
0000
0001
0010
0000
0100
0000
1000
0000
,
0001
0000
0100
0000
0000
0001
1000
0100
0000
0000
0010
0000
0000
0001
1000
0001
,
0100
0000
0010
0000
0000
0010
1000
0001
0000
0000
0000
0000
1001
0000
0000
0100
,
0001
0000
1000
0000
0000
0001
0010
0100
0000
0100
1000
0000
0000
0001
0100
0010
,
0100
0000
0001
0000
1000
0100
1000
0000
0010
0000
0100
0000
0001
1000
0001
0000
,
0010
0000
0100
0000
1000
0001
1000
0000
0010
0100
0010
0000
0100
0000
0001
1000
,
0000
0000
0100
0010
0001
0000
1000
0001
0100
0000
0010
1000
0100
0000
0000
0000
,
0011
0000
0000
1000
0000
1000
0100
0000
1000
0001
0100
0010
0100
0000
0001
1000
,
0000
0001
0010
0000
0100
0000
1000
0001
0000
0100
0010
0100
0001
0000
1000
0000
,
0100
0000
0010
0001
0000
0000
0000
0102
0000
2003
0000
0000
3010
0100
0001
1000
,
0000
0100
0000
0000
0010
0000
0000
0001
0000
0001
0000
1000
0001
0000
0100
0000
,
0010
1000
0000
1000
0010
0000
0000
0110
0000
0110
0000
0001
0100
0010
1000
0000
,
0000
0000
0100
1000
0001
0000
1000
0010
0000
0010
0000
0100
0001
0000
1000
0000
,
0000
0100
0000
0010
0000
0100
0000
1000
0000
0001
1000
0010
0100
0000
0001
0000
,
0000
0000
0010
0001
0100
0000
0010
0000
1000
0001
1000
0001
1000
0000
0000
0000
,
1100
0000
0000
0010
0000
0010
0001
0000
1000
0000
0001
0100
0001
0000
0010
0100
,
0000
1000
0010
1000
0001
0000
0100
0010
0000
0000
0100
0001
1000
0000
0001
0000
,
0010
0100
0010
0100
0000
0000
0000
2000
0000
3002
0000
0000
1003
0010
0100
0001
,
0000
0010
0000
0010
0100
0000
0000
1000
0000
0001
0100
0002
0000
0000
0013
0000
,
0100
1000
0001
1000
0100
0000
0000
0010
0000
0020
0000
0031
1000
0001
0100
0000
,
0010
0000
1000
0001
1000
0100
0010
0000
0001
1000
0001
0000
1000
0010
0100
0001
,
0020
0000
0000
0000
0030
0000
0001
1000
0001
0000
0100
0000
0010
0000
1000
0000
,
0200
0000
0300
1000
0001
1000
0010
0100
,
0002
0000
0000
0000
0003
0000
0010
0100
0010
0000
0001
0000
1000
0000
0010
0000
,
0100
0000
0000
0000
0001
0000
1000
0100
0000
0010
0001
0010
0001
0000
1000
0010
,
0200
0000
0000
0000
0300
0000
0001
1000
0001
0000
0100
0000
0010
0000
1000
0000
,
0100
0000
1000
0010
1000
0001
0010
0100
,
2000
0000
0000
0000
3000
0000
0000
0001
1000
0000
0010
0000
0100
0001
0100
0000
,
0001
0000
0000
0000
0010
0100
0000
0000
1000
0001
1000
0001
1000
0000
0010
0000
,
0101
0000
0000
0000
0000
0000
2000
0000
3001
0000
0010
0100
0000
0010
0100
0000
,
1000
0000
0010
0100
0000
0010
0100
0000
0002
0000
0023
0000
0032
0000
2003
0000
,
3100
0000
1000
0001
0000
1000
0001
0000
0000
0100
0000
0100
0010
0000
1000
0000
,
0001
0000
0010
0100
0000
1000
0000
0001
0000
0001
0000
1000
0010
0000
0100
0000
,
0002
0000
0013
0000
0001
1000
0200
0000
1300
0010
0200
0000
0302
0000
1003
0000
,
0100
0000
1000
0000
0001
0100
0000
0100
0010
0000
1000
0000
0100
0010
0000
0010
,
0001
0000
1000
0000
0000
0000
0020
0000
1030
0001
2000
0000
3100
0010
0001
0000
,
0011
0000
0000
0001
1000
0000
1010
0000
0000
0100
0001
0000
0001
0000
1000
0001
,
0100
0000
0010
0000
1000
0001
1000
0100
0010
0000
0001
0000
0100
0000
0000
0000
,
0001
0000
1000
0000
0010
1000
0100
0010
0001
0000
1000
0000
0010
0000
0000
0000
,
0100
0000
0001
0000
0100
0000
0001
0000
1000
0100
0010
0000
0001
0000
0000
0000
,
1000
0000
0010
0000
1000
0000
0010
0000
0100
0001
1000
0000
0100
0000
0000
0000
,
0010
0000
0001
0000
1000
0001
0010
0100
1000
0000
0010
0000
0100
0000
0000
0000
,
0001
0000
0010
0000
0100
0000
1000
0001
1000
0000
0010
0100
0000
0001
0000
0000
,
1000
0100
1000
0000
0001
0000
0100
0010
1000
0000
0001
0000
0010
0000
0000
0000
,
0100
1000
0001
1000
0010
0100
0001
0010
,
0100
0000
1000
0000
0001
0000
1000
0010
0100
0000
0001
0000
0010
0100
0000
0000
,
1000
0001
1000
0000
0001
0010
0100
0010
0001
0000
1000
0000
0010
0000
0100
0000
,
0001
0000
0010
0000
0001
0000
0010
0000
0001
0000
1000
0000
0001
0100
0000
0000
,
0010
1000
0010
1000
0001
1000
0100
0000
,
1000
0010
0100
0010
1000
0000
0001
0100
0001
0000
0010
0000
0001
1000
0000
0000
,
0010
1000
0000
0000
0100
0000
0010
0001
0010
0000
0001
1000
0000
0010
0100
0000
,
0001
0000
0010
0000
0100
0000
1000
0001
1000
0000
0010
0000
0100
0000
0000
0000
,
0001
0000
0000
1000
0000
0010
0100
0010
1000
0000
0001
0000
1000
0000
0100
0000
,
0110
0000
0001
0000
1000
0010
1000
0000
0200
0000
0000
0320
0000
0000
0031
1000
,
0000
0001
0000
0000
0100
0010
1000
0000
0002
0000
0000
0023
0000
0000
0130
0000
,
0000
0000
1000
0000
1000
0000
0001
0000
1000
0010
0000
0100
0000
0000
0001
1000
,
0000
0000
0001
0000
0010
0100
0000
0010
0200
0000
0000
0000
1300
0000
1001
0000
,
0010
0000
0000
0000
0100
0000
0001
1000
0200
0000
0000
0000
0310
0000
0000
0001
,
0000
1000
0001
0000
0100
0010
0000
0010
1000
0100
0000
0000
1000
0001
0000
0100
,
0010
0000
0000
0100
0001
0000
0000
0000
0011
0000
0100
0000
1000
0001
1000
0001
,
0000
0000
0100
0000
0010
1000
0000
0001
1000
0000
0100
0010
0000
0001
0100
0000
,
0010
0000
0000
1000
0100
0010
0001
0100
0001
0000
0000
1000
0000
0001
0100
0010
,
0000
0000
0000
0000
1000
0001
1000
0100
0020
0000
0000
0031
0000
1000
0001
0100
,
0000
0000
0101
0000
1000
0001
1000
0000
0200
0000
0000
0310
0000
0000
0001
1000
,
0001
0000
0100
0000
0010
1000
0000
0100
0000
0000
0010
0000
0001
0000
1000
0001
,
0000
0000
0000
1000
0100
0000
0010
0000
0001
0000
0000
0000
0100
0010
0000
0010
,
0000
1000
0000
0001
0000
1000
0000
0100
0010
0001
0010
0000
0001
1000
0000
1000
,
0100
0000
0000
0000
1000
0001
0100
0000
0010
0000
1000
0000
1000
0000
0001
0000
,
1100
0000
0000
1000
0001
0000
0101
0000
0000
0010
0100
0000
0001
1000
0000
0001
,
0100
0000
0000
0000
0001
0010
0001
0000
1000
0000
0000
0000
0010
0000
0000
0000
,
0001
0000
0000
0100
0010
0000
0000
0000
2000
0000
0000
0000
3002
0000
0000
0000
,
0013
0000
0000
0100
0000
0000
0010
0000
0001
0000
0000
0000
1000
0000
0000
0000
,
0010
1000
0010
0100
0002
0000
2003
0000
,
3001
0000
0000
0010
0000
0000
0100
0000
1000
0000
0000
0010
0000
0000
1000
0001
,
0100
0010
0100
0001
2000
0000
3020
0000
,
0130
0000
0000
0001
0000
0000
0011
0000
0000
1100
0000
0000
0001
0000
1000
0000
,
0001
0000
0100
0000
0010
0000
1000
0000
0100
0010
0100
0010
0001
1000
0010
0000
,
0110
0000
0000
0001
0000
0000
1000
0000
1100
0000
0000
0100
0000
0000
0010
0000
,
0001
0001
1000
1000
0001
0001
1000
1000
,
0020
0100
0100
0100
0100
0100
0100
0130
,
0101
0000
0000
1100
0000
0000
0011
0000
0100
0000
0000
1000
0001
0000
1000
0000
,
0010
0000
0100
0000
0010
1000
0000
0100
0000
0010
0000
0000
0001
0000
1000
0000
,
0002
0000
0013
0100
1000
0010
1000
0001
,
1010
0000
0000
1001
0000
0000
1100
0000
0000
0000
0001
0000
1000
0010
0100
0000
,
0000
1001
0010
1000
0100
0010
0001
0100
,
0010
1000
0000
0010
1000
0000
0001
0100
0000
0001
0100
0000
0000
0000
0010
0000
,
1000
0100
0001
0100
0010
0100
1000
0010
,
0001
0010
1000
0001
0000
1000
0100
0010
,
0110
0000
0001
0000
1000
0000
0001
0100
0000
0100
0010
0000
1000
0000
0001
0000
,
1000
0200
0310
0200
0301
0200
1300
0000
,
0001
0001
1000
1000
0100
0100
0010
0010
,
0002
0000
0000
2003
0000
0000
3020
0000
0000
0000
0130
0000
0010
0000
1000
0000
,
0000
0110
0001
1000
0100
0010
0001
0100
,
0001
0010
0000
0001
0010
0000
0100
1000
0000
0100
1000
0000
0000
0000
0001
0000
,
1000
1000
0001
0001
0010
0010
0100
0100
,
1100
0000
0000
0110
0000
0000
0011
0000
1000
0010
0100
0010
1000
0000
0001
0000
,
0010
0000
0100
0000
0000
1000
0000
0001
0100
0000
0010
0000
1000
0000
0001
0000
,
1000
0000
0100
0000
0010
0001
0000
0100
0000
0010
0000
1000
0000
0001
0000
0000
,
0010
0000
0001
0000
0100
0010
0000
0010
1000
0000
0001
0000
1000
0100
0000
0100
,
0010
0000
0001
0000
0100
0010
0000
1010
0000
0000
0001
1000
0001
0000
0010
0000
,
0100
0000
1000
0000
0010
0100
0001
0000
1000
0000
0001
0000
0000
0010
0000
0010
,
0100
0000
1000
0000
0010
1000
0000
0001
0000
0100
0000
0010
0000
1000
0000
0000
,
0101
0000
0010
0000
0000
1000
0000
0001
1000
0000
0100
0000
0000
0010
0000
0001
,
0100
0000
0001
1000
0001
0000
0010
0100
1000
0100
0010
0000
0001
0000
1000
0020
,
0200
0000
0000
0000
,
0000
0000
0000
0000
,
0330
0000
0000
0000
;

//---------------dance-single - ----------------
#NOTES:
     dance-single:
     :
     Medium:
     11:
     0.471285,0.475376,0.126797,0.199253,0.107551,1457.000000,1401.000000,56.000000,88.000000,0.000000,0.000000,0.471285,0.475376,0.126797,0.199253,0.107551,1457.000000,1401.000000,56.000000,88.000000,0.000000,0.000000:
0000
0000
0000
0000
,
0000
0000
0000
0000
,
0000
0000
0000
0000
,
0000
0000
0000
0000
,
0010
0000
0001
0000
0100
0000
1000
0010
,
0200
0300
0001
1000
,
0001
0000
0000
1001
0000
0000
0100
0010
,
1000
0001
1000
0001
1000
0100
0010
0001
,
0001
0100
0010
1000
,
0100
0000
0000
0010
0000
0000
0001
0000
2000
0000
0000
0000
3020
0000
0000
0000
,
0130
0001
0010
0100
,
1000
0000
0000
0001
0000
0000
1000
0000
0020
0000
0000
0000
0230
0000
0000
0000
,
0301
0000
0010
0000
0100
0000
1000
0010
,
2000
3001
0011
0110
,
1100
0000
0001
0100
0001
0000
0010
0100
,
1000
0000
0000
0001
0000
0000
1000
0000
0020
0000
0000
0000
0230
0000
0000
0000
,
0301
0000
0010
0001
1000
0000
0010
0000
,
0100
0000
0000
0010
0000
0000
1000
0000
0002
0000
0000
0000
0023
0000
0000
0000
,
0031
0000
0100
0000
0010
0000
1000
0100
,
1000
0000
0000
0001
0000
0000
1000
0000
0020
0000
0000
0000
0230
0000
0000
0000
,
0310
0000
1000
0000
0001
0000
1000
0100
,
0010
0000
0000
0001
0000
0000
1000
0000
0002
0000
0000
0000
2003
0000
0000
0000
,
3010
0000
0000
0101
0000
1100
0000
0001
,
1000
0010
1000
0010
0100
0001
1000
0001
,
0020
0000
0030
0001
2000
0000
3000
0001
,
0200
0000
0300
0010
2000
0000
3000
0100
,
0010
0010
0001
0001
,
0100
0100
1000
1000
,
1010
0001
0011
1000
,
1100
0001
0101
1000
,
1001
0010
0110
1000
,
0001
0100
0010
0100
0001
0100
0010
1000
,
1000
0000
0100
0010
0001
0000
1000
0000
,
0001
0100
0010
1000
0100
0010
0001
0000
,
1000
0000
0001
0100
0001
0000
0010
0100
,
1000
0000
0000
1000
0000
0000
2000
0000
0000
0000
0000
0000
3001
0000
0000
0000
,
0010
0001
0100
0000
0010
1000
0100
0000
,
1000
0001
1000
0010
0100
0001
1000
0000
,
0001
0010
0100
0000
1000
0001
0100
0000
,
0010
0000
0000
0010
0000
0000
0020
0000
0000
0000
0000
0000
0130
0000
0000
0000
,
1001
0000
0010
1000
0100
0000
0001
0000
,
0010
0001
1000
0001
0100
0010
1000
0001
,
0010
0000
0001
0100
1000
0000
0010
1000
,
0100
0000
0000
0100
0000
0000
0200
0000
0000
0000
0000
0000
0310
0000
0000
0000
,
0001
0100
0001
0010
0100
1000
0001
0000
,
1000
0001
0010
0001
0100
0010
1000
0100
,
0010
0001
1000
0000
0001
0100
0010
0000
,
1000
0000
0000
0001
0000
0000
2000
0000
0000
0000
0100
0000
0000
0000
0001
0000
,
3001
0000
0000
0010
0000
0000
0100
0000
0000
0000
0000
0000
1000
0000
0010
0000
,
1000
0000
0100
0010
0001
0000
0100
0010
,
2000
0000
3001
1000
0200
0000
0310
0001
,
0100
0000
0000
0100
0000
0000
0100
0000
0000
0000
0001
0000
1000
0000
0001
0000
,
0000
1001
0000
0100
0010
0000
1000
0001
,
1000
0000
0000
0100
0000
0000
0020
0000
0000
0000
0032
0000
0000
0000
0103
0000
,
0001
1000
0100
0010
0001
0000
0001
0000
,
1000
0001
0010
0100
0000
1000
0010
1000
,
0000
0000
0100
0000
0010
0000
0000
0001
0000
0000
1000
0000
0001
0000
0100
0000
,
0000
0110
0000
1001
0000
0110
0000
0000
,
0001
0010
0001
0100
1000
0010
1000
0000
,
0100
0000
0000
0010
0000
0000
0001
0000
0000
0000
1000
0000
0001
0000
0100
0000
,
0000
0000
0210
0000
0000
0320
0000
0000
1030
0000
0000
0000
0001
0000
1000
0000
,
0100
0000
0000
1000
0000
0000
0010
0000
0000
0000
0100
0000
0000
0000
0001
0000
,
0010
0100
0010
0100
1000
0000
1000
0001
,
0100
0000
0000
0100
0000
0000
0100
0000
0000
0000
0010
0000
1000
0000
0001
0000
,
0010
0100
1000
0000
0001
0100
0010
0000
,
1000
0001
1000
0100
0010
0001
0100
0000
,
0001
0010
0100
0000
1000
0001
0100
0000
,
0010
1000
0100
0010
0002
0000
0003
0000
,
1000
0001
0000
0010
0001
0100
0000
0010
,
1000
0100
0010
0001
0100
0010
1000
0000
,
0001
1000
0100
0000
1000
0001
0100
0000
,
0001
0010
0001
0100
0010
1000
0001
1000
,
0100
0020
0000
0000
,
0031
1000
0001
1000
0001
0010
0100
0000
,
1000
0010
1000
0001
0010
0100
1000
0000
,
0001
0100
0001
0000
0010
0100
1000
0001
,
0000
0000
0000
0000
0000
0000
0000
0110
0000
0000
0001
0000
1000
0000
0100
0000
,
0010
0000
0001
0100
0001
0000
1010
0000
,
0000
0001
1000
0001
0010
0100
1000
0010
,
1000
0000
0100
0000
0010
0000
0000
0001
0000
0000
0000
0000
0101
0000
0000
0000
,
1100
0000
0001
1000
0100
0000
1000
0010
,
0100
0001
0100
0010
0100
0001
1000
0100
,
0100
0000
0000
0000
0010
0000
0001
0000
1000
0000
0000
0010
0000
0000
1000
0000
,
0001
0000
0000
0010
0000
0000
0100
0000
1000
0000
0010
0000
1000
0000
0100
0000
,
0010
0000
0000
0001
0000
0000
1000
0000
0001
0000
0100
0000
0010
0000
0100
0000
,
0001
0000
0000
1000
0100
1000
0010
0100
,
0001
0000
0010
0100
1000
1000
1000
0001
,
0100
0000
0000
0000
0000
0000
0001
2000
0000
0000
0000
3000
0000
0000
0010
0200
,
0000
0000
0301
0000
1000
0001
0010
0001
,
0100
0000
0010
0000
2000
0000
0000
0000
0000
0000
0000
0001
0000
3001
0000
0000
,
1001
0000
0100
0000
0001
0010
0001
1000
,
0010
0000
0100
0001
1000
0010
0100
0001
,
0010
0000
0000
0001
1000
0001
0010
0100
,
1000
0010
0100
0010
1000
0001
1000
0100
,
0010
0000
0001
1000
0001
1000
0100
0000
,
0010
0001
0100
0000
0010
1000
0001
0000
,
1000
0100
0010
0001
0010
0100
0010
0001
,
0100
0010
1000
0000
0001
0010
0100
0000
,
1100
0000
0001
1000
0010
0000
1000
0100
,
0010
0000
0001
0100
0002
0000
0013
0100
,
1000
0001
1000
0010
0100
0001
0010
0000
,
0100
1000
0010
1000
0002
0000
0203
0000
,
0310
0000
1000
0001
1000
0100
0010
0000
,
0001
0100
0001
0000
0010
0100
1000
0000
,
0001
1000
0010
0000
1000
0100
0010
0001
,
0100
0000
0010
0000
1000
0001
1000
0010
,
0100
0000
0001
0010
1000
0000
0000
0100
,
0000
1000
0001
1000
0100
0010
0001
0000
,
0100
0001
0010
0001
1000
0000
0000
0001
,
0100
0010
1000
0000
0100
0010
0001
0000
,
0010
0001
1000
0001
0010
0100
1000
0001
,
1000
1010
0101
1010
,
0101
0000
0001
1000
0001
0010
0100
1000
,
0010
0000
0100
0001
1000
0100
0010
0001
,
0100
0000
0000
0100
0001
1000
0001
0010
,
0100
0000
1000
0001
1000
0001
0010
0100
,
1000
0000
0000
0000
0000
0000
0001
0200
0000
0000
0000
0300
0000
0000
0010
2000
,
0000
0000
3001
1000
0100
0010
0001
0100
,
0001
1000
0200
0000
0010
0000
1300
0000
,
0100
0000
0000
0010
0000
0000
0001
0000
1000
0000
0001
0000
0100
0000
0010
0000
,
1000
0000
0001
0100
0001
0010
0001
1000
,
0010
0100
0010
1000
0010
0100
0010
1000
,
0001
0000
0000
0010
0000
0000
0100
0000
0000
0000
0000
0000
0000
0000
0000
0000
,
1000
0000
0000
0001
0000
0000
1000
0000
0000
0000
0000
0000
0000
0000
0000
0000
,
0010
0000
0000
0100
0000
0000
0001
0000
0000
0000
0000
0000
0000
0000
0000
0000
,
0010
0000
0000
0100
0000
0000
1000
0000
0001
0000
1000
0000
0200
0000
0000
0000
,
0310
0000
0000
0001
0000
0000
0200
0000
0000
0000
0310
0000
0000
0000
0000
0000
,
1000
0001
1000
0010
0000
0100
0001
0000
,
0021
0001
1000
0130
,
0120
0000
0031
0000
1000
0001
0100
0000
,
1001
0000
1000
0010
1000
0001
0010
0100
,
2000
0000
0000
3001
0000
0000
0000
0000
0010
0000
0001
0000
0100
0000
0000
0000
,
0110
0000
0000
0000
0001
0000
0000
0010
0000
0100
0000
0000
1000
0000
0001
0000
,
1000
0010
0100
0000
0001
0010
1000
0000
,
0000
0000
0100
0000
1000
0000
0001
0000
0100
0000
0000
0010
0000
0000
1000
0000
,
0000
0000
0100
0000
0000
1000
0000
0000
0001
0000
1000
0000
0100
0000
0010
0000
,
0000
0000
0000
0001
0000
1000
0000
0000
0000
0002
0000
0000
0103
0000
0000
0020
,
0000
0000
1030
0000
0000
0100
0000
0010
0000
0100
0000
0000
1000
0000
0001
0000
,
0100
0000
0000
0000
0000
0000
0001
0000
1000
0000
0000
0100
0000
0000
0010
0000
,
0000
0000
0000
0000
0000
0000
0001
0000
1000
0000
0001
0000
0000
0100
0000
0000
,
0010
1000
0000
0100
0010
0001
0000
1000
,
0001
0000
0100
0000
0000
0000
0010
0000
0000
0010
0000
0000
1000
0000
0001
0000
,
1000
0000
0100
0000
0000
0000
0010
0000
0001
0000
0100
0000
0000
0010
0000
0000
,
1000
0000
1000
0000
0000
0000
0001
0100
0000
0000
0000
0000
0000
0000
0000
0000
,
0001
0000
1000
0000
0000
0000
0010
0000
1000
0000
0100
0000
0000
0010
0000
0000
,
0001
1000
0001
1000
0001
1000
0100
0000
,
0110
0000
0001
0000
1000
0000
0000
0000
0010
0000
1000
0000
0001
0000
0000
0010
,
0000
0100
1000
0001
1000
0010
0100
0000
,
0101
0000
0000
0001
0000
0000
1000
0000
0001
0000
0010
0000
0100
0000
0000
0000
,
1000
0010
0100
0001
0010
0100
1000
0001
,
0100
0000
0010
0000
1000
0000
0000
0001
0000
0001
0000
0000
0010
0000
0100
0000
,
1000
0000
1010
0000
0001
0100
0001
1000
,
0010
0010
0010
0000
0110
0001
1000
0100
,
0000
0000
0010
0000
0001
0000
0000
0100
0000
0100
0000
0000
0001
0000
1000
0000
,
0000
0010
1000
0100
0010
0001
0100
0000
,
0000
0001
0010
0001
0100
0010
1000
0000
,
0100
0000
0000
0100
0000
0000
1000
0000
0001
0000
1000
0000
0010
0000
0000
0000
,
0100
0001
0010
0100
1000
0001
1000
0010
,
0000
0000
0100
0000
0001
0000
0000
0010
0000
0010
0000
0000
0001
0000
1000
0000
,
0000
0000
1001
0000
0110
0001
1000
0000
,
0100
0000
0100
0000
0100
0000
0000
1000
0000
0001
0000
0000
0100
0000
0010
0000
,
1000
0010
1000
0001
0010
0100
1000
0010
,
0200
0000
0300
0000
0001
1000
0001
0010
,
0200
0000
0300
0000
1000
0001
1000
0010
,
0200
0000
0302
0000
1003
0001
0010
0100
,
1000
0000
0010
0100
0001
1000
0001
0010
,
0200
0000
0300
0000
1000
0010
0100
0001
,
0020
0000
0032
0000
0103
0010
1000
0001
,
2000
0000
3000
0000
0001
0100
0001
0100
,
0002
0000
0023
0000
0031
0100
1000
0010
,
1001
0000
0000
0000
0000
0000
0100
0000
0001
0000
0000
0010
0000
0000
0100
0000
,
1000
0000
0000
0010
0000
0000
0100
0000
0001
0000
1000
0000
0001
0000
1000
0000
,
0100
0000
0000
0010
0000
0000
0001
0000
0000
0100
0000
0000
1000
0000
0001
0000
,
1000
0000
0010
0100
0010
0100
0001
1000
,
1100
0000
0010
0001
0000
1000
0001
0000
,
0100
0000
0001
0000
0000
0001
0000
0000
1000
0000
0001
0000
0100
0000
0000
0000
,
0010
0100
0000
0010
1000
0100
1000
0001
,
0100
0000
0001
0001
0000
1000
1000
0001
,
0010
0001
0010
0100
1000
0002
0000
0000
,
0103
0001
0010
0001
1000
0001
0100
0000
,
0010
1000
0010
1000
0010
1000
0200
0000
,
0310
0001
0010
0001
0010
0001
0200
0000
,
0301
1000
0001
0010
0100
2000
0000
0000
,
3010
0000
1000
0000
0001
0000
1000
0000
0100
0000
0000
0010
0000
0002
0000
0000
,
0103
0001
1000
0001
0010
0200
0000
0000
,
1300
0001
1000
0000
0010
0100
0001
0000
,
0010
0001
0010
0100
1000
0002
0000
0000
,
0103
0001
0010
0100
1000
0020
0000
0000
,
0130
0001
0100
0001
0100
0001
2000
0000
,
3100
1000
0100
1000
0100
1000
0002
0000
,
0103
0010
0100
0001
1000
0020
0000
0000
,
0230
0000
0000
0000
0300
0000
0001
0000
1000
0000
0000
0010
0000
0100
0000
0000
,
0001
0010
0100
0010
0100
2000
0000
0000
,
3020
0000
0000
1030
0000
0000
0000
0000
0001
0000
0001
0000
1000
0000
0100
0000
,
0110
0000
0000
0000
0010
0000
0001
0000
0100
0000
0000
0010
0000
0000
1000
0000
,
0000
0000
0000
0000
0001
0000
1000
0000
0001
0000
0000
0010
0000
0000
0100
0000
,
0000
0000
1000
0000
1000
0000
0000
0000
0001
0000
0000
0010
0000
0000
0001
0000
,
0000
0100
0010
0100
0001
0000
1000
1001
,
0000
0000
0010
0100
0002
0000
2003
0000
,
3100
0010
0001
0100
0010
1000
0001
0000
,
0010
0000
0001
0100
1000
0001
0100
0000
,
0010
0000
1000
0000
0000
0100
0000
0000
0010
0000
0001
0000
0000
0100
0000
0000
,
0000
0000
0000
0000
0001
0000
1000
0000
0001
0000
0000
0010
0000
0000
0100
0000
,
0000
0000
0000
0000
1000
0000
0010
0000
1000
0000
0000
0001
0000
0000
0100
0000
,
0010
0000
0100
0000
0001
0000
0000
0000
1000
0000
0000
1000
0000
0000
0001
0000
,
0010
0100
1000
0000
0010
0100
0001
0000
,
1000
0000
0000
0000
1000
0000
0100
0000
0001
0000
0000
0010
0000
0100
0000
1000
,
0000
0001
0000
0000
0100
0000
0010
0000
0100
0000
0001
0000
1000
0000
0000
0000
,
0110
0000
1000
0001
1000
0100
0100
0000
,
0110
0000
0001
1000
0000
0010
0100
0000
,
0101
0000
0010
1000
0100
0000
0001
0000
,
0010
0001
0011
0110
,
1100
0000
0001
0100
0001
0000
1000
0000
,
0010
0000
0100
0001
2000
0000
3200
0000
,
0310
0000
0001
1000
0001
0000
0100
0010
,
1000
0000
0001
0100
0010
0000
0010
0000
,
0010
0000
0000
0000
1000
0000
2000
0000
0000
3002
0000
0000
0013
0000
0100
0000
,
1000
0010
1000
0010
0100
0001
0100
0001
,
1001
0100
1001
0100
,
0010
0100
0001
0100
0010
1000
0100
0010
,
0002
1000
1000
1003
,
1001
0000
0000
0100
0000
0000
0001
0000
1000
0000
0000
0000
0100
0000
0010
0000
,
0001
0000
0100
0001
1000
0000
0010
0100
,
0002
0000
0013
0100
2000
0000
3010
1000
,
0100
0000
0000
0100
0000
0000
0200
0000
0000
0000
0310
0000
0001
0000
1000
0000
,
0000
1010
0000
0001
1000
0000
0100
0010
,
0001
0000
0000
1000
0000
0000
0002
0000
0000
0000
0203
0000
0000
0000
0310
0000
,
1000
0100
0010
0001
0100
0000
0100
0010
,
0100
0001
1000
0100
0000
0010
0001
0100
,
0000
0000
0010
0000
1000
0000
0000
1000
0000
0000
0100
0000
0010
0000
0001
0000
,
0000
0110
0000
1001
0000
0110
0000
0000
,
0001
0010
0001
0000
0100
0010
1000
0000
,
0001
0000
0000
0001
0000
0000
0001
0000
0000
0000
1000
0000
0100
0000
0010
0000
,
0000
0000
0012
0000
0000
0023
0000
0000
0130
0000
1000
0000
0001
0000
1000
0000
,
0010
0000
0000
0100
0000
0000
0002
0000
0000
0000
2003
0000
0000
0000
3100
0000
,
1000
0010
1000
0010
0100
0000
0001
1000
,
0100
0000
0000
0010
0000
0000
0001
0000
0000
0000
1000
0000
0001
0000
0100
0000
,
0010
1000
0100
0000
0010
0001
0100
0000
,
0001
1000
0001
0010
0100
1000
0010
0000
,
0100
0001
0010
0000
0100
1000
0001
0000
,
1000
0010
1000
0001
0200
0000
0300
0000
,
0010
1000
0000
0001
1000
0100
0000
0010
,
0001
0100
0001
0010
0100
1000
0001
0000
,
0100
0010
1000
0000
0100
0010
0001
0000
,
1000
0001
1000
0010
0100
0001
1000
0010
,
0200
0000
0000
0000
,
0000
0000
0000
0000
,
0300
0000
0000
0000
;

//---------------dance-single - ----------------
#NOTES:
     dance-single:
     :
     Easy:
     7:
     0.285941,0.388317,0.172082,0.040756,0.000000,884.000000,808.000000,76.000000,18.000000,0.000000,0.000000,0.285941,0.388317,0.172082,0.040756,0.000000,884.000000,808.000000,76.000000,18.000000,0.000000,0.000000:
0000
0000
0000
0000
,
0000
0000
0000
0000
,
0000
0000
0000
0000
,
0000
0000
0000
0000
,
0010
0010
0010
0010
,
0002
0003
0100
0010
,
0100
0000
0001
0000
,
1000
0001
1000
0100
,
0010
0000
0001
0000
,
0100
0010
0100
0001
,
1000
0000
0100
0000
,
1000
0010
1000
0001
,
0100
0000
0010
0000
,
1000
0001
1000
0010
,
0100
0000
0001
0000
,
0010
0100
0010
0001
,
1000
0000
0010
0000
,
1000
0001
1000
0100
,
0010
0000
0001
0000
,
0100
0010
0100
0001
,
1000
0000
0001
0000
,
0010
0000
0001
0100
,
0010
0000
1000
0000
,
0100
0100
0010
0001
,
1001
0000
0100
0000
,
0100
0000
0100
0000
,
0010
0000
0100
0000
,
0001
0000
1000
0000
,
1100
0000
1100
0000
,
0101
0000
0101
0000
,
1100
0000
0101
0000
,
0100
0010
1000
0001
,
1001
0010
0100
0000
,
0001
0010
0001
0100
,
1000
0010
1000
0000
,
0100
0010
0002
0000
,
0003
1000
0001
1000
,
0010
1000
0100
0010
,
0000
0001
0100
0010
,
1000
0100
2000
0000
,
3010
1000
0100
0000
,
0010
0001
0100
0010
,
1000
0100
0001
0000
,
0010
0100
2000
0000
,
3000
0001
1000
0010
,
1000
0100
0010
0001
,
0000
0100
0010
0100
,
0001
0001
1000
1000
,
0010
1000
0100
0001
,
0010
0100
1000
0001
,
0100
0100
0010
0010
,
0100
0001
1000
0100
,
0000
1001
0010
1000
,
0100
0010
0001
0000
,
0100
0001
0100
0010
,
1000
0100
1000
0001
,
0000
0110
0001
1000
,
0100
0010
0001
0100
,
0001
0010
0001
0100
,
1000
0010
1000
0001
,
0000
0110
0100
0010
,
1000
1000
0001
0000
,
0010
0001
0010
0100
,
1000
1000
0001
0001
,
0101
0000
1100
0000
,
0001
0001
1000
0010
,
1010
0000
0011
0000
,
0001
0100
0110
0000
,
1010
0000
0101
0000
,
0001
0010
0100
1000
,
1100
0000
0011
0000
,
0100
0010
0100
0001
,
2000
0002
0000
3000
,
0010
0010
0010
0013
,
0001
0100
1000
0010
,
0100
0001
0010
1000
,
0000
0000
0100
0100
,
1000
0001
1000
0010
,
0100
0001
0010
0100
,
1000
0001
1000
0010
,
0100
0000
0001
0000
,
0010
0010
0001
1000
,
1001
0000
1000
0001
,
0010
0001
0100
1000
,
0010
0100
0010
1000
,
0001
0000
0010
0010
,
0001
0100
1000
0001
,
1000
0000
1010
0000
,
0001
0001
0100
0001
,
1000
0020
0000
0130
,
0110
0001
0100
0010
,
1000
1000
1000
0001
,
0000
0000
0010
0001
,
0100
0100
0100
0010
,
1000
0000
0001
0000
,
1000
0100
0010
0001
,
0100
0010
0100
0001
,
1000
0001
1000
0010
,
1001
0100
0010
0100
,
0001
0000
0020
0030
,
0001
0100
0001
1000
,
0010
1000
0100
0001
,
1000
0010
1000
0100
,
0001
0010
0001
0100
,
1000
1000
0001
1000
,
0010
0100
0001
0010
,
0011
0100
1000
0000
,
0001
1000
0001
0100
,
0010
0010
0010
0100
,
0010
1000
0100
1000
,
0001
0100
0001
0010
,
0001
2000
3002
2003
,
3010
0100
0001
0010
,
0110
1000
0100
0001
,
1001
0000
0100
0001
,
0100
0010
1000
1000
,
0001
0000
0101
0000
,
1000
0001
1000
0010
,
0100
0002
0000
0003
,
0010
0001
0010
0100
,
1000
0001
1000
0010
,
0110
1001
0110
1001
,
0110
0000
0001
0000
,
0010
0000
0100
0000
,
1000
0000
0001
0000
,
1000
0010
0100
0100
,
0001
0000
0010
0000
,
0001
0000
0100
1000
,
0002
0000
0000
0003
,
0200
0300
0010
0100
,
1010
0001
1000
0100
,
0010
0000
0001
1000
,
0000
0001
0100
1000
,
0100
0010
0001
0001
,
0000
1000
0001
1000
,
0000
0010
0100
0001
,
0000
0010
0000
0010
,
0001
1000
0001
0100
,
0101
1000
0100
0001
,
0000
0000
0010
0010
,
0100
0000
1000
0000
,
0010
0000
0100
0001
,
0100
0000
1000
0000
,
0001
0000
1000
0000
,
0010
0000
0100
0000
,
0001
0001
1000
1100
,
0001
0100
0001
0010
,
0100
1000
0001
1000
,
0010
0010
1000
0001
,
1000
0100
0001
0010
,
0100
0010
0001
0001
,
0100
0010
1000
1000
,
0101
1100
0001
0100
,
0010
1000
0100
0001
,
0000
0010
0100
1000
,
0000
0001
0100
1000
,
1010
0011
0100
1000
,
0010
0100
0001
0010
,
0100
1000
1001
1100
,
0000
0001
0001
0100
,
0110
1001
0100
0100
,
0001
0010
0001
0100
,
2020
0030
0001
3001
,
0100
0000
0010
0100
,
0001
0000
1000
1000
,
0001
0010
0001
1000
,
0100
0000
0010
0010
,
0001
0000
0100
0001
,
0010
0000
1000
1000
,
0001
0010
0001
0100
,
1001
0000
0100
0000
,
0010
0000
1000
0100
,
0001
0010
0001
0100
,
0010
0010
1000
0001
,
1000
0000
0001
0100
,
0001
0010
1000
0001
,
0100
0000
0010
0010
,
0101
1100
0010
1100
,
0101
1000
0100
0000
,
0001
0010
1000
0100
,
0010
0010
0001
0100
,
0010
0010
1000
0100
,
1000
0001
1000
0001
,
0010
0100
0010
0100
,
1000
1000
0001
0000
,
0100
0010
0100
0001
,
0010
0001
0100
1000
,
0010
0010
1000
0100
,
0010
0001
0010
0001
,
1000
0010
1000
0010
,
0100
0001
0010
0001
,
1000
0000
0001
0100
,
0010
1000
0100
0000
,
1001
0000
0010
0100
,
0110
0001
0100
0010
,
1000
0100
0001
0100
,
0010
1000
1000
0001
,
1000
0001
1000
0100
,
0110
0001
0100
0010
,
1000
0001
0010
0100
,
0010
0001
0100
1000
,
0001
0010
0001
0100
,
1000
1010
0001
1000
,
0100
0010
0001
0001
,
0100
0001
1000
0001
,
0010
0010
0010
0010
,
0001
0100
1000
0000
,
0010
1000
0100
0001
,
1000
0010
0001
0100
,
0110
1001
0110
1001
,
0110
0000
0001
0100
,
1000
0000
0010
0100
,
0010
0000
1000
0000
,
0001
0010
0001
0100
,
1000
0010
0010
0000
,
0200
0300
0001
1000
,
0001
0000
0011
0001
,
1000
1000
0001
0001
,
1001
0000
0110
0000
,
1000
0010
0001
0100
,
0020
0000
0000
0030
,
0110
0001
0010
0100
,
1000
1000
1000
0001
,
0100
0010
0100
0001
,
0010
0100
1000
0001
,
0000
0101
1000
0001
,
0010
0010
0010
0000
,
0001
0100
0001
1000
,
0100
0010
0001
0100
,
1010
1000
1000
0001
,
0100
0010
1000
0001
,
1000
0001
0010
0100
,
1000
1000
0001
0100
,
0000
1001
0100
0001
,
0010
0010
0100
0000
,
1000
1000
0001
0001
,
0100
0001
0010
0100
,
1100
0000
0101
0000
,
1000
0010
0100
0001
,
0011
0000
1010
0000
,
0100
0001
1001
0000
,
1010
0000
0101
0000
,
0010
0100
1000
0001
,
1100
0000
0011
0000
,
0100
0001
1000
0100
,
0110
0000
0000
0000
;

//---------------dance-single - ----------------
#NOTES:
     dance-single:
     :
     Beginner:
     3:
     0.165936,0.249632,0.072456,0.004528,0.000000,513.000000,481.000000,32.000000,2.000000,0.000000,0.000000,0.165936,0.249632,0.072456,0.004528,0.000000,513.000000,481.000000,32.000000,2.000000,0.000000,0.000000:
// measure 0
0000
0000
0000
0000
,  // measure 1
0000
0000
0000
0000
,  // measure 2
0000
0000
0000
0000
,  // measure 3
0000
0000
0000
0000
,  // measure 4
0010
0000
0000
0000
,  // measure 5
0001
0000
0100
0000
,  // measure 6
0001
0000
0000
0000
,  // measure 7
1000
0000
0100
0000
,  // measure 8
0010
0000
0000
0000
,  // measure 9
0001
0000
1000
0000
,  // measure 10
0001
0000
0000
0000
,  // measure 11
0100
0000
0010
0000
,  // measure 12
1000
0000
0000
0000
,  // measure 13
0100
0000
0010
0000
,  // measure 14
0001
0000
0000
0000
,  // measure 15
0100
0000
0001
0000
,  // measure 16
1000
0000
0000
0000
,  // measure 17
0001
0000
0010
0000
,  // measure 18
0001
0000
0000
0000
,  // measure 19
0100
0000
0010
0000
,  // measure 20
1000
0000
0000
0000
,  // measure 21
0100
0000
1000
0000
,  // measure 22
0001
0000
0000
0000
,  // measure 23
0100
0000
0010
0000
,  // measure 24
1001
0000
0000
0000
,  // measure 25
0000
0000
0000
0000
,  // measure 26
0001
0000
0000
0000
,  // measure 27
1000
0000
0000
0000
,  // measure 28
0010
0000
0010
0000
,  // measure 29
0100
0000
0100
0000
,  // measure 30
0010
0000
0100
0000
,  // measure 31
0001
0000
1000
0000
,  // measure 32
1001
0000
0100
0000
,  // measure 33
1000
1000
1000
0000
,  // measure 34
0001
0000
0100
0000
,  // measure 35
0020
0000
0000
0030
,  // measure 36
0000
0100
0000
0001
,  // measure 37
0000
0010
0000
0100
,  // measure 38
0000
1000
0000
0001
,  // measure 39
0000
0100
0000
0000
,  // measure 40
0110
0000
0001
0000
,  // measure 41
0100
0100
0100
0000
,  // measure 42
0010
0000
1000
0000
,  // measure 43
0002
0000
0000
0003
,  // measure 44
0000
0010
0000
0001
,  // measure 45
0000
0100
0000
0010
,  // measure 46
0000
1000
0000
0100
,  // measure 47
0000
1000
0000
0000
,  // measure 48
0001
0001
0001
0000
,  // measure 49
0010
0010
0010
0000
,  // measure 50
0001
0000
0100
0000
,  // measure 51
0010
0000
1000
0000
,  // measure 52
0000
0000
0110
0000
,  // measure 53
1000
1000
1000
0000
,  // measure 54
0001
0000
0010
0000
,  // measure 55
0001
0000
0100
0000
,  // measure 56
0010
0000
1000
0000
,  // measure 57
0100
0100
0100
0000
,  // measure 58
0010
0000
0001
0000
,  // measure 59
0100
0000
0010
0000
,  // measure 60
0000
0000
1001
0000
,  // measure 61
1000
0000
0100
0000
,  // measure 62
0010
0000
0001
0000
,  // measure 63
1000
1000
1000
0000
,  // measure 64
0001
0000
0001
0000
,  // measure 65
1000
0000
1000
0000
,  // measure 66
0010
0000
0010
0000
,  // measure 67
0100
0000
0001
0000
,  // measure 68
0010
0000
0100
0000
,  // measure 69
1000
0000
1000
0000
,  // measure 70
0010
0000
1000
0000
,  // measure 71
0001
0000
0100
0000
,  // measure 72
0110
0000
0000
0000
,  // measure 73
0001
0001
0001
0000
,  // measure 74
1000
0000
0001
0000
,  // measure 75
1000
0000
0010
0010
,  // measure 76
0010
0000
0100
0000
,  // measure 77
0001
0000
1000
1000
,  // measure 78
1000
0000
0001
0000
,  // measure 79
0010
0010
0010
0000
,  // measure 80
0100
0000
0000
0000
,  // measure 81
1000
1000
1000
0000
,  // measure 82
1001
0000
0100
0000
,  // measure 83
0001
0000
0010
0000
,  // measure 84
0100
0000
1000
0000
,  // measure 85
0001
0000
1000
0000
,  // measure 86
0010
0000
0100
0100
,  // measure 87
0100
0000
0001
0000
,  // measure 88
0010
0000
0001
0000
,  // measure 89
1000
1000
0000
0000
,  // measure 90
0110
0000
0100
0000
,  // measure 91
0001
0000
0010
0010
,  // measure 92
0010
0000
0001
0000
,  // measure 93
0100
0100
0100
0000
,  // measure 94
0010
0000
0000
0000
,  // measure 95
0000
0000
1000
1000
,  // measure 96
1000
0000
0100
0000
,  // measure 97
0010
0000
0001
0000
,  // measure 98
1001
0000
0100
0000
,  // measure 99
0010
0000
1000
0000
,  // measure 100
0001
0001
0001
0000
,  // measure 101
0010
0000
0100
0000
,  // measure 102
1000
0000
0001
0001
,  // measure 103
0001
0000
0100
0000
,  // measure 104
0001
0000
0010
0000
,  // measure 105
0100
0000
1000
0000
,  // measure 106
0110
0000
0001
0000
,  // measure 107
1000
0000
0010
0010
,  // measure 108
0010
0000
0100
0000
,  // measure 109
0010
0000
1000
0000
,  // measure 110
0001
0000
0010
0000
,  // measure 111
0001
0000
0000
0000
,  // measure 112
0100
0000
0010
0000
,  // measure 113
0100
0000
0001
0000
,  // measure 114
1000
0000
0100
0100
,  // measure 115
0100
0000
1000
1000
,  // measure 116
1000
0000
0001
0000
,  // measure 117
0010
0000
0001
0000
,  // measure 118
0100
0100
0000
0000
,  // measure 119
0000
0000
0010
0000
,  // measure 120
1000
1000
1000
0000
,  // measure 121
0001
0000
0100
0000
,  // measure 122
1001
0000
0000
0000
,  // measure 123
0010
0000
0000
0000
,  // measure 124
0100
0000
0000
0000
,  // measure 125
0001
0000
1000
0000
,  // measure 126
0001
0000
0000
0000
,  // measure 127
0010
0000
0000
0000
,  // measure 128
0100
0000
0000
0000
,  // measure 129
1000
0000
0000
0000
,  // measure 130
1001
0000
0100
0000
,  // measure 131
0001
0000
1000
0000
,  // measure 132
0000
0010
0010
0000
,  // measure 133
1000
0000
0000
0000
,  // measure 134
0000
0100
0000
0100
,  // measure 135
0000
0010
0000
0001
,  // measure 136
0000
1000
0000
1000
,  // measure 137
0000
0010
0000
0000
,  // measure 138
0110
0000
0000
0000
,  // measure 139
0000
0000
0001
0001
,  // measure 140
0001
0000
1000
0000
,  // measure 141
0001
0000
0010
0000
,  // measure 142
0100
0000
1000
0000
,  // measure 143
0010
0000
0100
0000
,  // measure 144
0010
0000
0010
0000
,  // measure 145
1000
1000
1000
0000
,  // measure 146
0001
0001
0001
0000
,  // measure 147
0010
0000
0100
0000
,  // measure 148
1000
1000
1000
0000
,  // measure 149
0000
0001
0000
0100
,  // measure 150
0000
0010
0000
0000
,  // measure 151
1000
0000
0100
0000
,  // measure 152
0010
0010
0010
0000
,  // measure 153
0001
0000
1000
0000
,  // measure 154
0001
0000
0010
0000
,  // measure 155
0001
0000
0100
0000
,  // measure 156
0010
0010
0010
0000
,  // measure 157
1000
0000
0001
0000
,  // measure 158
1000
0000
1000
0000
,  // measure 159
0010
0000
0100
0000
,  // measure 160
0001
0001
0001
0000
,  // measure 161
1000
0000
0010
0000
,  // measure 162
0110
0000
0001
0000
,  // measure 163
0100
0000
0010
0000
,  // measure 164
1000
0000
0001
0000
,  // measure 165
1000
0000
0010
0000
,  // measure 166
0100
0000
0001
0000
,  // measure 167
0001
0000
0010
0000
,  // measure 168
0001
0000
1000
0000
,  // measure 169
0010
0000
0100
0000
,  // measure 170
0010
0000
1000
0000
,  // measure 171
1000
0000
1000
0000
,  // measure 172
0001
0000
0100
0000
,  // measure 173
0001
0001
0001
0000
,  // measure 174
1001
0000
0110
0000
,  // measure 175
1000
1000
1000
0000
,  // measure 176
0100
0000
0010
0000
,  // measure 177
1001
0000
0110
0000
,  // measure 178
0001
0000
1000
0000
,  // measure 179
0010
0010
0010
0000
,  // measure 180
0100
0000
0100
0000
,  // measure 181
0001
0000
1000
0000
,  // measure 182
0001
0000
0010
0000
,  // measure 183
0100
0100
0100
0000
,  // measure 184
1000
0000
0001
0000
,  // measure 185
0000
0000
0000
0000
,  // measure 186
0100
0100
0100
0000
,  // measure 187
0010
0010
0010
0000
,  // measure 188
1000
0000
0000
0000
,  // measure 189
0010
0000
0000
0000
,  // measure 190
1000
0000
0001
0000
,  // measure 191
0010
0000
0100
0100
,  // measure 192
0100
0000
0010
0000
,  // measure 193
0001
0000
1000
0000
,  // measure 194
1001
0000
0010
0000
,  // measure 195
0100
0000
0001
0000
,  // measure 196
1000
0000
1000
0000
,  // measure 197
0010
0010
0010
0000
,  // measure 198
0110
0000
0001
0000
,  // measure 199
0100
0000
0001
0000
,  // measure 200
1000
0000
0010
0000
,  // measure 201
0100
0000
0000
0001
,  // measure 202
0000
1000
1000
1000
,  // measure 203
0000
0001
0001
0001
,  // measure 204
0000
0010
0010
0000
,  // measure 205
0100
0000
1000
0000
,  // measure 206
0010
0000
0100
0000
,  // measure 207
0010
0000
1000
0000
,  // measure 208
0001
0001
0001
0000
,  // measure 209
1001
0000
0110
0000
,  // measure 210
1001
0000
0000
0000
,  // measure 211
0000
0000
0100
0100
,  // measure 212
0100
0000
0000
0000
,  // measure 213
0000
0000
0001
0001
,  // measure 214
0001
0000
0000
0000
,  // measure 215
0110
0000
1000
1000
,  // measure 216
1000
0000
0010
0000
,  // measure 217
0100
0000
0001
0000
,  // measure 218
1001
0000
1001
0000
,  // measure 219
0110
0000
0110
0000
,  // measure 220
1000
0000
0000
0000
,  // measure 221
0001
0000
0010
0000
,  // measure 222
0001
0001
0001
0000
,  // measure 223
0100
0000
0010
0000
,  // measure 224
1000
1000
1000
0000
,  // measure 225
0000
0000
1001
0000
,  // measure 226
0100
0100
0100
0000
,  // measure 227
0010
0010
0010
0000
,  // measure 228
0100
0000
0001
0000
,  // measure 229
0110
0000
0100
0000
,  // measure 230
0001
0001
0001
0000
,  // measure 231
1000
0000
0010
0000
,  // measure 232
1000
0000
0100
0000
,  // measure 233
0000
0000
1001
0000
,  // measure 234
0010
0000
1000
0000
,  // measure 235
0100
0100
0100
0000
,  // measure 236
0010
0000
0100
0000
,  // measure 237
1000
0000
1000
0000
,  // measure 238
0001
0000
0001
0000
,  // measure 239
1000
0000
0010
0000
,  // measure 240
0100
0000
0001
0000
,  // measure 241
0010
0000
0010
0000
,  // measure 242
0001
0000
0100
0000
,  // measure 243
0010
0000
0010
0000
,  // measure 244
1000
0000
0001
0000
,  // measure 245
0110
0000
0000
0000
;
