#VERSION:0.83;
#TITLE:Kind Lady;
#SUBTITLE:(25th Anniversary Special);
#ARTIST:OKUYATOS;
#TITLETRANSLIT:;
#SUBTITLETRANSLIT:;
#ARTISTTRANSLIT:;
#GENRE:;
#ORIGIN:;
#CREDIT:;
#BANNER:Kind Lady (25th Anniversary Special)-bn.png;
#BACKGROUND:Kind Lady (25th Anniversary Special)-bg.png;
#PREVIEWVID:;
#JACKET:Kind Lady (25th Anniversary Special)-jacket.png;
#CDIMAGE:;
#DISCIMAGE:;
#LYRICSPATH:;
#CDTITLE:;
#MUSIC:Kind Lady (25th Anniversary Special).ogg;
#OFFSET:0.000000;
#SAMPLESTART:42.664001;
#SAMPLELENGTH:20.000000;
#SELECTABLE:YES;
#DISPLAYBPM:135.000000;
#BPMS:0.000=135.010;
#STOPS:;
#DELAYS:;
#WARPS:;
#TIMESIGNATURES:0.000=4=4;
#TICKCOUNTS:0.000=4;
#COMBOS:0.000=1;
#SPEEDS:0.000=1.000=0.000=0;
#SCROLLS:0.000=1.000;
#FAKES:;
#LABELS:0.000=Song Start;
#BGCHANGES:;
#KEYSOUNDS:;
#ATTACKS:
;

//---------------dance-single - ----------------
#NOTEDATA:;
#CHARTNAME:;
#STEPSTYPE:dance-single;
#DESCRIPTION:;
#CHARTSTYLE:;
#DIFFICULTY:Challenge;
#METER:15;
#RADARVALUES:0.815378,0.907330,0.789595,0.180479,0.936235,506.000000,436.000000,70.000000,16.000000,0.000000,0.000000,0.000000,0.000000,0.000000,0.815378,0.907330,0.789595,0.180479,0.936235,506.000000,436.000000,70.000000,16.000000,0.000000,0.000000,0.000000,0.000000,0.000000;
#CREDIT:;
#DISPLAYBPM:135.000000;
#NOTES:
// measure 0
0000
0000
0000
0000
,  // measure 1
0000
0000
0000
0000
,  // measure 2
0000
0000
0000
0000
,  // measure 3
0000
0000
0000
0000
,  // measure 4
1000
0000
0000
0001
0000
0000
1000
0000
0010
0000
0000
0100
0000
0000
0001
1000
,  // measure 5
0100
0000
0000
0010
0000
0000
0001
0000
0101
0000
0000
0000
1100
0000
0000
0000
,  // measure 6
0101
0000
0000
0010
0000
0000
1001
0000
0100
0000
0000
0001
0000
0000
1000
0000
,  // measure 7
0001
0100
0010
0100
0001
0100
0010
0100
0001
0100
0010
0100
0001
0100
0010
0000
,  // measure 8
1001
0000
1000
0000
0100
0000
0010
0001
0100
0010
0000
0100
0010
0000
1000
0000
,  // measure 9
0001
0010
0000
0000
0001
1000
0000
1100
0000
0101
0000
1100
0000
0101
0000
0000
,  // measure 10
0010
0000
1000
0100
1000
0000
0001
0010
0100
1000
0000
1000
0010
0000
0100
0000
,  // measure 11
0110
0000
0000
1001
0000
0000
0110
0000
1000
0001
0000
0010
0100
0010
0000
0000
,  // measure 12
0001
0000
0100
0000
0010
0000
1000
0000
0100
0010
0000
0010
0001
0000
1000
0000
,  // measure 13
0001
0100
0000
0110
0000
1010
0000
1001
0000
0101
0000
0011
0000
1100
0000
0000
,  // measure 14
0001
0000
1000
0000
0001
0000
0010
0000
0100
1000
0000
0010
0100
0000
0001
0000
,  // measure 15
0011
0000
0000
0110
0000
0000
1100
0000
0001
1000
0001
0100
0000
0100
0000
0000
,  // measure 16
0110
0000
0001
1000
0001
0000
0010
0100
1000
0001
0000
1000
0001
0000
0100
0000
,  // measure 17
0010
1000
0000
1010
0000
0110
0000
0101
0000
0011
0000
0110
0000
1100
0000
0000
,  // measure 18
0001
0000
0010
0001
0100
0000
0010
1000
0100
0010
0000
0100
1000
0000
0001
0000
,  // measure 19
1000
0000
0000
0001
0000
0000
0010
0001
0100
0010
0000
0010
1000
0001
0000
0000
,  // measure 20
0100
0000
0010
0000
1000
0000
0100
0000
0010
0001
0000
0001
1000
0000
0010
0000
,  // measure 21
0100
0001
0000
0011
0000
0110
0000
1100
0000
1010
0000
1001
0000
0110
0000
0000
,  // measure 22
0100
0000
0001
0000
0010
0000
0100
0000
1000
0001
0000
1000
0010
0000
0100
0000
,  // measure 23
0001
1000
0100
1000
0001
1000
0100
1000
0001
1000
0100
1000
0001
1000
0100
1000
,  // measure 24
0001
0010
0000
0010
0100
0000
1000
0010
0100
0000
0000
0001
1000
0000
0100
0000
,  // measure 25
0010
0000
0001
0000
1000
0001
0000
0010
0001
0100
0000
0010
1000
0000
1000
0000
,  // measure 26
1100
0000
0100
0010
0001
0000
1000
0000
0101
0000
0010
1000
0001
0000
0100
0000
,  // measure 27
0110
0000
0000
1001
0000
0000
0110
0000
1000
0001
0100
0000
0101
0000
0011
0000
,  // measure 28
0100
0000
1000
0010
0100
0001
0010
0000
0100
1000
0000
0001
0100
0000
0010
0000
,  // measure 29
1010
0000
0100
0001
1000
0000
0001
0000
0010
0001
0100
0010
1000
0000
0001
0000
,  // measure 30
0020
0230
2300
3002
0203
0320
2030
3002
,  // measure 31
2003
0000
3200
0000
0320
0000
0032
0000
0103
0010
1000
0000
0001
0000
1000
0000
,  // measure 32
0110
0000
0001
0100
0001
0000
0010
0100
0000
0100
1000
0000
0001
0000
0100
0000
,  // measure 33
0010
1000
0200
0000
0310
0001
0200
0000
0310
1000
0200
0000
0310
0000
0000
0000
,  // measure 34
0001
0000
0001
0000
1000
0000
1000
0000
0010
1000
0001
0000
0100
0000
0010
0000
,  // measure 35
1000
0100
0000
0100
0010
0000
0001
0100
0001
0000
0011
0000
0110
0000
1100
0000
,  // measure 36
0001
0000
1000
0010
0100
0001
1000
0000
0100
0010
0001
0000
1000
0000
0001
0000
,  // measure 37
0100
0010
0000
0100
0001
0000
1000
0100
0010
0001
1000
0000
0010
0000
0100
0000
,  // measure 38
0101
0101
0110
0110
1010
1010
1001
1001
,  // measure 39
1000
0100
0010
0100
1000
0010
0100
0010
1000
0100
0010
0001
0010
0100
1000
0000
,  // measure 40
1001
0000
0110
0000
1000
0001
0000
0001
0010
0000
0100
0000
1000
0001
0100
0000
,  // measure 41
0010
0000
1000
0000
0100
0010
0000
0011
0000
0110
0000
1100
0000
0101
0000
0000
,  // measure 42
0110
0000
1001
0000
0010
1000
0000
1000
0100
0000
0010
0000
0001
1000
0001
0100
,  // measure 43
0010
0000
0010
0000
0010
1000
0000
0001
0010
0100
1000
0100
0010
0100
1000
0000
,  // measure 44
1001
0000
0110
0000
0010
0100
0001
0000
0011
0000
1100
0000
0001
0100
0010
1000
,  // measure 45
0100
0000
0010
0000
0001
1000
0000
0101
0000
1010
0000
1100
0000
0011
0000
0100
,  // measure 46
1000
0000
1000
0000
0001
0100
0010
0100
0001
0000
1000
0000
0100
0010
0100
1000
,  // measure 47
0001
0100
0010
0100
0001
1000
0100
1000
0100
0010
0001
0100
0001
1000
0010
0100
,  // measure 48
0002
0000
0000
0003
;
