#VERSION:0.83;
#TITLE:Kentucky Woman;
#SUBTITLE:;
#ARTIST:Deep Purple;
#TITLETRANSLIT:;
#SUBTITLETRANSLIT:;
#ARTISTTRANSLIT:;
#GENRE:;
#ORIGIN:;
#CREDIT:;
#BANNER:Kentucky Woman-bn.png;
#BACKGROUND:Kentucky Woman-bg.png;
#PREVIEWVID:;
#JACKET:Kentucky Woman-jacket.png;
#CDIMAGE:;
#DISCIMAGE:;
#LYRICSPATH:;
#CDTITLE:;
#MUSIC:Kentucky Woman.ogg;
#OFFSET:0.250000;
#SAMPLESTART:35.196999;
#SAMPLELENGTH:20.000000;
#SELECTABLE:YES;
#DISPLAYBPM:169.000000:176.000000;
#BPMS:0.000=169.000,
3.000=171.200,
8.000=172.000,
16.000=171.333,
24.000=173.400,
40.000=172.719,
46.000=174.500,
52.000=173.950,
54.000=176.145,
56.000=172.000,
72.000=170.000,
83.000=171.322,
84.000=172.690,
96.000=172.400,
112.000=172.000,
124.000=171.400,
128.000=174.000,
134.000=175.160,
136.000=172.146,
140.000=170.981,
144.000=175.000,
148.000=172.133,
152.000=170.015,
158.000=171.500,
160.000=173.400,
163.000=175.900,
170.000=174.019,
172.000=172.390,
176.000=174.333,
181.500=172.340,
186.000=171.365,
192.000=170.000,
200.000=171.171,
210.000=170.573,
216.000=172.590,
218.000=170.495,
224.000=169.580,
248.000=172.200;
#STOPS:;
#DELAYS:;
#WARPS:;
#TIMESIGNATURES:0.000=4=4;
#TICKCOUNTS:0.000=4;
#COMBOS:0.000=1;
#SPEEDS:0.000=1.000=0.000=0;
#SCROLLS:0.000=1.000;
#FAKES:;
#LABELS:0.000=Song Start;
#BGCHANGES:;
#KEYSOUNDS:;
#ATTACKS:
;

//---------------dance-single - x scale 13----------------
#NOTEDATA:;
#CHARTNAME:;
#STEPSTYPE:dance-single;
#DESCRIPTION:x scale 13;
#CHARTSTYLE:;
#DIFFICULTY:Hard;
#METER:13;
#RADARVALUES:0.753142,0.716582,0.624450,0.040948,0.040948,515.000000,454.000000,61.000000,4.000000,0.000000,0.000000,0.000000,0.000000,0.000000,0.753142,0.716582,0.624450,0.040948,0.040948,515.000000,454.000000,61.000000,4.000000,0.000000,0.000000,0.000000,0.000000,0.000000;
#CREDIT:;
#DISPLAYBPM:169.000000:176.000000;
#NOTES:
// measure 0
0000
0000
0000
0000
,  // measure 1
0000
0000
0000
0000
,  // measure 2
1001
0000
0000
0110
,  // measure 3
0000
0101
1100
0000
,  // measure 4
1001
0000
0000
0110
,  // measure 5
0000
1010
0011
0000
,  // measure 6
1001
0000
0010
1000
0100
0010
0001
0100
,  // measure 7
1000
0100
0001
0010
1000
0010
0001
0000
,  // measure 8
1001
0000
0010
1000
0001
1000
0010
0100
,  // measure 9
1000
0010
0001
0010
1000
0100
0001
0000
,  // measure 10
1001
0100
0010
1000
0100
1000
0001
0010
,  // measure 11
0001
0100
1000
0100
0010
1000
0010
0001
,  // measure 12
0100
0010
0001
0100
1000
0001
1000
0010
,  // measure 13
0100
0000
0110
0000
0101
2200
0000
3300
,  // measure 14
1001
0000
0110
0000
1000
0100
0010
0001
,  // measure 15
0100
0001
0100
1000
0010
0001
0010
1000
,  // measure 16
0001
0010
0100
1000
0100
0010
0001
0000
,  // measure 17
1000
0000
0001
0000
0010
0000
0001
0000
0100
0000
0010
0000
1000
0100
1000
0100
,  // measure 18
1000
0000
0001
1000
0010
0100
0010
1000
,  // measure 19
0001
0100
0010
0001
0100
1000
0010
1000
,  // measure 20
0100
1000
0100
0010
0100
0001
0100
0000
,  // measure 21
0010
1000
0010
0100
0010
0001
0010
0000
,  // measure 22
0101
0000
1010
0000
0100
0001
0010
0001
,  // measure 23
0100
1000
0010
1000
0001
0010
0100
1000
,  // measure 24
1100
0000
0011
0000
0100
0001
0100
0010
,  // measure 25
1000
0000
0001
0010
0001
0000
1000
0000
0100
0000
0100
0000
0010
0000
0000
0000
,  // measure 26
1010
0000
1001
0000
0100
0010
0100
0010
,  // measure 27
1000
0010
0001
1000
0100
0001
0010
0100
,  // measure 28
0110
0000
1010
0000
0001
0100
0001
0100
,  // measure 29
0010
0100
1000
0010
0100
0001
1000
0001
,  // measure 30
0011
0000
0110
0000
1000
0001
1000
0001
,  // measure 31
0010
1000
0010
0100
0001
0100
1000
0001
,  // measure 32
0101
0000
1001
0000
0100
0010
0100
0010
,  // measure 33
1000
0000
1001
0000
1010
0022
0000
0033
,  // measure 34
1001
0000
0110
0000
1000
0001
0010
0100
,  // measure 35
0001
1000
0100
0010
0100
1000
0001
0010
,  // measure 36
1000
0100
0010
0001
0010
0100
1000
0000
,  // measure 37
0010
0000
1000
0000
0001
0000
0100
0000
0010
1000
0000
0010
1000
0000
0001
0100
,  // measure 38
0001
1000
0010
0001
0100
0010
0100
1000
,  // measure 39
0100
0001
0100
0010
1000
0001
1000
0010
,  // measure 40
0100
0010
1000
0001
0010
1000
0100
0000
,  // measure 41
0001
0010
1000
0100
0010
1000
0001
0000
,  // measure 42
0011
0000
0101
0000
0010
1000
0100
0001
,  // measure 43
1000
0010
0001
0010
1000
0100
0001
0100
,  // measure 44
1100
0000
1000
1010
0001
0100
0001
1000
,  // measure 45
0010
0100
0001
0100
0010
0000
1000
0000
1000
0000
0001
0000
1000
0000
0000
0000
,  // measure 46
0011
0000
0110
0000
1000
0100
1000
0001
,  // measure 47
0010
0100
0010
0001
0010
0100
0010
1000
,  // measure 48
1100
0000
1001
0000
0010
0001
0100
0001
,  // measure 49
1000
0100
1000
0001
1000
0010
1000
0001
,  // measure 50
0101
0000
1100
0000
0001
0010
0001
1000
,  // measure 51
0100
1000
0100
0001
0100
1000
0100
0010
,  // measure 52
0110
0000
0101
0000
0010
1000
0001
0010
,  // measure 53
0100
1000
0100
0010
0001
0010
1000
0001
,  // measure 54
0011
0000
0011
0000
0100
0001
1000
0010
,  // measure 55
0001
1000
0001
0100
1000
0010
0100
0010
,  // measure 56
1010
0000
1010
0000
0100
1000
0001
0100
,  // measure 57
0010
1000
0010
1000
0001
0100
0001
0100
,  // measure 58
0101
0000
0101
0000
0010
0001
0100
1000
,  // measure 59
0010
1000
0001
0100
0010
0100
0001
1000
,  // measure 60
1100
0000
1100
0000
0010
0001
0010
0001
,  // measure 61
0100
1000
0001
0100
0010
1000
0001
0010
,  // measure 62
1001
0000
0000
0110
,  // measure 63
0000
1010
0101
0000
,  // measure 64
1001
0000
0100
0001
0100
0010
0100
1000
,  // measure 65
0100
1000
0100
0010
0100
0001
0100
0000
,  // measure 66
1001
0000
0010
1000
0010
0100
0010
0001
,  // measure 67
0010
0001
0010
0100
0010
1000
0010
0000
,  // measure 68
1001
0000
1000
0010
0001
1000
0100
0001
,  // measure 69
1000
0010
0100
0010
1000
0001
0010
0000
,  // measure 70
1001
0000
0000
0000
;

//---------------dance-single - x scale 11----------------
#NOTEDATA:;
#CHARTNAME:;
#STEPSTYPE:dance-single;
#DESCRIPTION:x scale 11;
#CHARTSTYLE:;
#DIFFICULTY:Medium;
#METER:11;
#RADARVALUES:0.637612,0.609094,0.644924,0.163790,0.000000,436.000000,373.000000,63.000000,16.000000,0.000000,0.000000,0.000000,0.000000,0.000000,0.637612,0.609094,0.644924,0.163790,0.000000,436.000000,373.000000,63.000000,16.000000,0.000000,0.000000,0.000000,0.000000,0.000000;
#CREDIT:;
#DISPLAYBPM:169.000000:177.000000;
#NOTES:
0000
0000
0000
0000
,
0000
0000
0000
0000
,
1001
0000
0000
0110
,
0000
0101
1100
0000
,
1001
0000
0000
0110
,
0000
1010
0011
0000
,
1001
0000
0100
0001
1000
0001
0100
0000
,
0010
1000
0100
0000
0100
0010
0001
0000
,
1001
0000
1000
0001
0010
0001
1000
0000
,
0100
0010
1000
0000
1000
0001
0010
0000
,
1001
0000
0100
0010
1000
0010
0100
0000
,
0011
0000
0001
0010
0100
0010
0001
0000
,
1100
0000
0010
1000
0001
1000
0100
0000
,
0110
0000
1001
0000
2000
0002
0000
3003
,
1001
0000
0100
0000
0010
1000
0010
0200
,
0000
0301
0100
0020
0000
0130
0001
0000
,
1000
0001
0100
0000
0100
0010
0000
0000
,
0010
1000
0001
0000
0001
0100
0000
0000
,
0110
0000
0010
0000
1000
0001
1000
0020
,
0000
0130
0001
2000
0000
3001
0100
0000
,
0100
0001
0010
0000
0010
1000
0000
0000
,
0100
0010
1000
0000
1000
0001
0010
0000
,
1010
0000
0101
0000
0010
1000
0100
0000
,
0001
0100
1000
0200
0000
0302
0000
1003
,
1100
0000
0011
0000
1000
0001
0100
0000
,
0001
1000
0001
1000
0010
0100
0010
0000
,
1001
0000
1001
0000
0100
0010
0100
0000
,
0001
1000
0001
0000
1000
0010
0000
1000
,
1010
0000
1010
0000
0001
0100
0001
0000
,
0010
1000
0010
0000
1000
0100
0000
1000
,
1100
0000
1100
0000
0010
0001
0010
0000
,
0100
1000
0100
0010
0100
1000
0001
0000
,
0011
0000
0011
0000
1000
0001
1000
0001
,
1000
0000
0110
0000
0020
0200
0000
0330
,
1001
0000
1000
0000
0001
0100
0001
2000
,
0000
3010
1000
0002
0000
1003
0010
0000
,
0100
0001
1000
0000
0010
0110
0000
0000
,
1000
0010
0100
0000
0001
0011
0000
0000
,
0110
0000
0001
0000
0010
0100
0001
2000
,
0000
3010
1000
0200
0000
1300
0001
0000
,
0001
1000
0010
0000
0100
0101
0000
0000
,
1000
0001
0010
0000
0010
0001
1000
0000
,
1010
0000
0101
0000
0010
1000
0001
0000
,
1000
0100
1000
0002
0000
0023
0000
0031
,
0011
0000
0000
1100
0000
0010
0100
0000
,
0001
0010
0001
0010
1000
0100
1000
0000
,
0101
0000
0101
0000
0010
0100
1000
0000
,
0010
0100
0001
0000
1000
0001
0100
0010
,
0110
0000
0110
0000
1000
0001
0010
0000
,
0100
0001
1000
0000
0010
1000
0001
0100
,
0101
0000
0101
0000
0010
0001
0100
0000
,
1000
0001
0100
0010
1000
0001
0100
0000
,
1100
0000
1100
0000
0010
0001
1000
0000
,
0100
0001
0100
0001
1000
0010
0100
0000
,
0110
0000
0110
0000
1000
0100
1000
0000
,
0001
0010
0001
0010
0100
1000
0100
1000
,
1001
0000
1001
0000
0010
0001
0010
0000
,
1000
0001
1000
0001
0100
0010
0100
0010
,
1010
0000
1010
0000
0001
1000
0001
0000
,
1000
0010
0100
0001
1000
0010
0100
0001
,
0011
0000
0011
0000
0100
0010
0100
0000
,
1000
0001
1000
0001
0010
0100
0010
0100
,
1001
0000
0000
0110
,
0000
1010
0101
0000
,
1001
0000
0010
1000
0010
0001
0010
0000
,
1000
0100
0010
0001
0010
0100
1000
0000
,
1001
0000
0100
0001
0100
1000
0100
0000
,
0001
0010
0100
1000
0100
0010
0001
0000
,
1001
0000
0001
0010
1000
0010
0001
0000
,
0100
0010
0100
0010
0100
0010
0100
0000
,
1001
0000
0000
0000
;

//---------------dance-single - x scale 7----------------
#NOTEDATA:;
#CHARTNAME:;
#STEPSTYPE:dance-single;
#DESCRIPTION:x scale 7;
#CHARTSTYLE:;
#DIFFICULTY:Easy;
#METER:7;
#RADARVALUES:0.450423,0.465778,0.522081,0.163790,0.000000,308.000000,257.000000,51.000000,16.000000,0.000000,0.000000,0.000000,0.000000,0.000000,0.450423,0.465778,0.522081,0.163790,0.000000,308.000000,257.000000,51.000000,16.000000,0.000000,0.000000,0.000000,0.000000,0.000000;
#CREDIT:;
#DISPLAYBPM:169.000000:177.000000;
#NOTES:
0000
0000
0000
0000
,
0000
0000
0000
0000
,
1001
0000
0000
0110
,
0000
1000
0001
0000
,
1001
0000
0000
0110
,
0000
0100
0010
0000
,
1001
1000
0010
0100
,
0010
1000
0001
0100
,
1001
0001
0010
0001
,
0100
0010
1000
0100
,
1001
0000
0000
1000
0000
0001
0100
0000
,
0110
0000
0000
0100
0000
0010
1000
0000
,
1001
0000
0000
0010
0000
0100
0001
0000
,
0100
0000
1001
0000
0002
2000
0000
3003
,
1001
0100
0010
0100
,
0001
0010
1000
0001
,
0100
0000
0010
0000
1000
0001
0000
0000
,
0001
0000
0100
0000
0010
1000
0000
0000
,
0010
0100
0001
1000
,
0010
0001
1000
0100
,
1000
0000
0010
0000
0100
0001
0000
0000
,
1000
0000
0100
0000
0010
0001
0000
0000
,
0101
0101
0010
0010
,
1000
0001
0100
0100
,
1100
1100
0001
0001
,
0100
0010
2000
3000
,
1001
1001
0100
0010
,
1000
0001
0200
0300
,
0110
0110
1000
0010
,
0100
0001
0020
0030
,
0101
0101
0100
0001
,
0010
1000
0002
0003
,
1100
1100
0010
1000
,
0001
0000
0110
0000
0200
0020
0000
0330
,
1001
0001
0010
1000
,
0100
0010
1000
0001
,
0100
0000
1000
0000
0010
0001
0000
0000
,
0001
0000
1000
0000
0010
0100
0000
0000
,
0100
0010
0001
0010
,
1000
0100
1000
0001
,
0010
0000
0100
0000
0001
1000
0000
0000
,
0010
0000
1000
0000
0100
0001
0000
0000
,
1100
1100
0100
0100
,
0001
0010
1000
1000
,
0101
0101
0010
0010
,
1000
0100
0002
0103
,
0110
0110
1000
0100
,
1000
0001
0200
0310
,
0101
0101
0001
0010
,
0001
0100
2000
3010
,
1100
1100
0010
1000
,
0100
0001
0020
0031
,
1001
1001
0100
0001
,
0100
0010
2000
3010
,
1100
1100
1000
0010
,
1000
0001
0200
0301
,
0110
0110
0010
0001
,
0100
0001
0020
1030
,
1001
1001
1000
0100
,
0001
1000
0002
0013
,
0101
0101
0001
0010
,
0001
0100
0010
1000
,
1001
0000
0000
0110
,
0000
0010
0100
0000
,
1001
1000
0001
1000
,
0010
0001
0100
0010
,
1001
0001
0010
0100
,
1000
0100
0010
0001
,
1001
1000
0100
0010
,
0001
0010
0100
1000
,
1001
0000
0000
0000
;

//---------------dance-single - x scale 2----------------
#NOTEDATA:;
#CHARTNAME:;
#STEPSTYPE:dance-single;
#DESCRIPTION:x scale 2;
#CHARTSTYLE:;
#DIFFICULTY:Beginner;
#METER:2;
#RADARVALUES:0.163790,0.214974,0.122843,0.000000,0.000000,112.000000,100.000000,12.000000,0.000000,0.000000,0.000000,0.000000,0.000000,0.000000,0.163790,0.214974,0.122843,0.000000,0.000000,112.000000,100.000000,12.000000,0.000000,0.000000,0.000000,0.000000,0.000000,0.000000;
#CREDIT:;
#DISPLAYBPM:169.000000:177.000000;
#NOTES:
0000
0000
0000
0000
,
0000
0000
0000
0000
,
1001
0000
0000
0000
,
0000
0001
0001
0000
,
1001
0000
0000
0000
,
0000
1000
1000
0000
,
1001
0000
0000
0000
,
0000
0010
0010
0000
,
1001
0000
0000
0000
,
0000
0100
0100
0000
,
1001
0000
0000
0000
,
0000
0000
0000
0000
,
0000
0000
0000
0000
,
0000
0010
0010
0000
,
1001
0000
0001
0000
,
1000
0000
0100
0000
,
0010
0000
0000
0000
,
0010
0000
0000
0000
,
1000
0000
1000
0000
,
0001
0000
0100
0000
,
0010
0000
0000
0000
,
0010
0000
0000
0000
,
0100
0100
0000
0000
,
0000
0000
0001
0000
,
0100
0100
0000
0000
,
0000
0000
0010
0000
,
1000
1000
0000
0000
,
0000
0000
1000
0000
,
0010
0010
0000
0000
,
0000
0000
0010
0000
,
0100
0100
0000
0000
,
0000
0000
0100
0000
,
0001
0001
0000
0000
,
0000
1000
1000
0000
,
1001
0000
0100
0000
,
0010
0000
1000
0000
,
0001
0000
0000
0000
,
0001
0000
0000
0000
,
0010
0000
1000
0000
,
0001
0000
1000
0000
,
0100
0000
0000
0000
,
0100
0000
0000
0000
,
0010
0010
0000
0000
,
0000
0000
0100
0000
,
0010
0010
0000
0000
,
0000
0000
1000
0000
,
0001
0001
0000
0000
,
0000
0000
0001
0000
,
0100
0100
0000
0000
,
0000
0000
0100
0000
,
0010
0010
0000
0000
,
0000
0000
0010
0000
,
1000
1000
0000
0000
,
0000
0000
1000
0000
,
0010
0010
0000
0000
,
0000
0000
0010
0000
,
0100
0100
0000
0000
,
0000
0000
0100
0000
,
0001
0001
0000
0000
,
0000
0000
0001
0000
,
1000
1000
0000
0000
,
0000
0000
0000
0000
,
1001
0000
0000
0000
,
0000
0100
0100
0000
,
1001
0000
0000
0000
,
0000
0010
0010
0000
,
1001
0000
0000
0000
,
0000
1000
1000
0000
,
1001
0000
0000
0000
,
0000
0001
0001
0000
,
1001
0000
0000
0000
;
