#TITLE:KUNG FU FIGHTING (MIAMI BOOTY MIX);
#ARTIST:BUS STOP feat. CARL DOUGLAS;
#BANNER:KUNG FU FIGHTING (MIAMI BOOTY MIX).png;
#BACKGROUND:KUNG FU FIGHTING (MIAMI BOOTY MIX)-bg.png;
#JACKET:KUNG FU FIGHTING (MIAMI BOOTY MIX)-jacket.png;
#MUSIC:KUNG FU FIGHTING (MIAMI BOOTY MIX).ogg;
#SAMPLESTART:16.539;
#SAMPLELENGTH:20;
#DISPLAYBPM:116;
#BPMS:0=116.09;
#BGCHANGES:;

//---------------dance-single - ----------------
#NOTES:
     dance-single:
     :
     Beginner:
     2:
     :
0000
0000
0000
0000
,
0000
0000
0000
0000
,
0000
0000
0000
0000
,
0000
0000
0000
0000
,
0100
0000
0000
0000
,
0100
0000
0000
0000
,
0010
0000
0000
0000
,
0001
0001
0001
0000
,
1000
0000
0001
0000
,
1000
0000
0000
0000
,
0100
0000
0010
0000
,
0100
0000
0000
0000
,
1000
0000
0001
0000
,
0100
0000
0000
0000
,
0001
0000
1000
0000
,
0100
0000
0000
0000
,
0010
0000
0000
0000
,
0010
0000
0000
0000
,
0001
0000
0001
0000
,
1000
0000
1000
0000
,
0100
0000
0000
0000
,
0100
0000
0000
0000
,
1000
0000
1000
0000
,
0001
0000
0001
0000
,
2000
0000
0000
0000
,
3000
0000
0000
0000
,
0002
0000
0000
0000
,
0003
0000
0000
0000
,
0200
0000
0000
0000
,
0300
0000
0000
0000
,
0020
0000
0000
0000
,
0030
0000
0000
0000
,
1000
0000
0100
0000
,
0010
0000
0000
0000
,
0001
0000
0100
0000
,
0010
0000
0000
0000
,
1000
0000
0100
0000
,
0001
0000
0000
0000
,
0010
0000
0001
0000
,
1000
0000
0000
0000
,
0010
0000
0000
0000
,
1000
1000
1000
0000
,
0100
0000
0000
0000
,
1000
0000
1001
0000
;

//---------------dance-single - ----------------
#NOTES:
     dance-single:
     :
     Easy:
     5:
     :
0000
0000
0000
0000
,
0000
0000
0000
0000
,
0000
0000
0000
0000
,
0000
0000
0000
0000
,
0000
0010
0000
0001
,
0000
0010
0000
1000
,
0000
0010
0000
1001
,
0010
0000
1001
0000
,
0000
0000
0010
0100
,
1001
0000
0000
0000
,
0000
0000
0010
0100
,
1001
0000
0000
0000
,
0000
0000
0010
0100
,
1001
0000
0000
0000
,
0000
0000
0010
0100
,
1001
0000
0000
0000
,
0010
0010
0001
0000
,
1000
1000
0100
0000
,
0010
1000
0100
0000
,
0010
0001
0100
0000
,
1000
0010
0001
0000
,
0001
1000
0001
0000
,
0001
0010
1000
0000
,
1000
0001
0100
0000
,
0010
1000
0100
0001
,
0001
0100
1000
0010
,
0010
1000
0100
0001
,
0001
0100
1000
0010
,
0010
1000
0100
0001
,
0001
0100
1000
0010
,
0000
0000
0000
0000
,
1001
1001
0100
0010
,
0000
0000
0001
1000
,
1001
0010
0001
0000
,
0000
0000
1000
0001
,
1001
0010
1000
0000
,
0000
0010
0100
0001
,
1001
0100
0100
0000
,
0000
0010
0100
1000
,
1001
0100
0100
1001
,
0000
0010
0000
1000
,
0000
0001
0000
1000
,
0000
1001
0000
0010
,
1001
0000
0000
0000
;

//---------------dance-single - ----------------
#NOTES:
     dance-single:
     :
     Medium:
     8:
     :
0000
0000
0000
0000
,
0000
0000
0000
0000
,
0000
0000
0000
0000
,
0000
0000
0000
0000
,
0100
0100
1001
0000
0100
0100
1001
0000
,
0100
0100
1001
0000
0100
0100
1001
0000
,
1000
0001
1000
0001
1000
0001
1000
0000
,
1000
0001
1000
0000
0001
0100
0001
0000
,
1000
0000
0010
1000
0001
0000
0010
0001
,
1000
0000
1001
0000
,
0001
0000
0010
0001
1000
0000
0010
1000
,
0001
0000
1001
0000
,
0110
1000
0110
1000
,
1001
0000
1001
0000
,
0110
0001
0110
0001
,
1001
0000
0000
0000
,
0100
0000
0100
0001
0100
0001
0010
0000
,
0100
0000
0100
1000
0100
1000
0010
0000
,
0100
0001
0100
0001
0100
0100
0100
0000
,
0010
1000
0010
1000
0100
0100
0100
0000
,
1000
0000
1000
0001
1000
0100
0100
0000
,
1000
0000
1000
0001
1000
0100
0100
0000
,
0010
0100
0010
0001
0010
0001
0100
0000
,
0010
0100
0010
1000
0010
1000
0100
0000
,
0010
0001
0000
0100
0010
0000
1000
0000
,
1000
0100
0001
0000
0100
0000
0100
0000
,
0010
0001
0100
0000
0001
0010
0001
0000
,
0010
0001
0100
0000
0010
1000
0010
0000
,
0010
1000
0100
0000
1000
0000
1000
0000
,
0001
0100
1000
0000
0010
0000
0010
0000
,
0010
0100
0010
0000
1000
0001
1000
0000
,
1001
0000
1001
0000
0100
0100
0100
0000
,
0010
0100
0001
0000
0010
0100
0010
0000
,
1001
0000
0110
0000
,
0010
0100
0001
0000
0010
0100
0010
0000
,
1001
0000
0110
0000
,
0100
0001
0100
0001
0100
0001
0100
0001
,
0001
0000
1001
0000
,
0100
1000
0100
1000
0100
1000
0100
1000
,
1000
0000
0000
0000
,
0100
1000
0010
0000
0100
0001
0010
0000
,
0100
0000
0010
0000
0001
0100
1000
0000
,
1000
0100
0001
0000
0101
0000
1100
0000
,
1001
0000
0000
0000
;

//---------------dance-single - ----------------
#NOTES:
     dance-single:
     :
     Hard:
     10:
     :
0000
0000
0000
0000
,
0000
0000
0000
0000
,
0000
0000
0000
0000
,
0000
0000
0000
0000
,
0001
1000
0110
0000
0001
1000
0110
0000
,
0001
1000
0110
0000
0001
1000
0110
0000
,
0001
1000
0110
0000
0001
1000
1100
0000
,
0011
0110
1001
0000
,
0010
0001
0010
1000
,
0110
0000
0000
0101
1100
0000
0000
0000
,
0010
1000
0010
0001
,
0110
0000
0000
1100
0101
0000
0000
0000
,
0010
0001
1000
0001
1000
0001
1000
0010
,
1001
0000
0000
0110
0101
0000
0000
0000
,
0010
1000
0001
1000
0001
1000
0001
0010
,
1001
0000
0000
0100
0100
0000
0000
0000
,
1000
0001
0010
0000
0001
1000
0010
0000
,
1000
0001
0100
0000
0001
1000
0100
0000
,
0100
1000
0100
1000
0100
0000
0100
0000
0100
0000
1000
0000
0010
0000
0000
0000
,
0100
0001
0100
0001
0100
0000
0100
0000
0100
0000
0001
0000
0100
0000
0000
0000
,
0010
0100
0001
0001
,
0010
0100
1000
1000
,
0100
1000
0100
1000
0100
0000
0100
0000
0100
0000
1000
0000
0010
0000
0000
0000
,
0100
0001
0100
0001
0100
0000
0100
0000
0100
0000
0001
0000
0010
0000
0000
0000
,
0100
0010
0001
1000
0100
0010
0001
1000
,
0100
0010
0001
1000
0100
0010
0001
1000
,
0010
0100
0001
1000
0010
0100
0001
1000
,
0010
0100
0001
1000
0010
0100
0001
0010
,
0100
1000
1010
0000
1000
0001
1000
0001
,
0001
0100
0110
0000
0001
1000
0001
1000
,
0001
1000
0100
0010
0001
1000
0100
0010
,
1001
0000
1001
0001
0001
0001
0001
1000
,
0001
1000
0011
0110
,
1001
0000
0000
0100
0100
0000
0000
0000
,
0001
1000
0101
0110
,
1001
0000
0000
0010
0010
0000
0000
0000
,
1100
1001
0110
1001
,
1001
0000
0100
0001
1000
0000
0000
0000
,
0011
1100
0110
1000
,
1001
0000
0001
0100
1000
0000
1001
0000
,
0100
0010
0001
1000
0100
0010
0001
1000
,
0100
0010
0001
1000
0100
0010
0001
0100
,
1000
0000
0100
0001
0001
0000
1001
0000
,
1001
0000
0000
0000
;

//---------------dance-single - ----------------
#NOTES:
     dance-single:
     :
     Challenge:
     14:
     :
0000
0000
0000
0000
,
0000
0000
0000
0000
,
0000
0000
0000
0000
,
0000
0000
0000
0000
,
1100
0000
1100
0000
1001
0000
0100
0001
0100
0001
0100
0001
0010
0000
0000
0000
,
0011
0000
0011
0000
1001
0000
0100
1000
0100
1000
0100
1000
0010
0000
0000
0000
,
1010
0000
1010
0000
1001
0000
0100
0001
0100
0001
0100
0001
0010
0000
0000
0000
,
1000
1000
0000
1000
0000
1000
1000
0000
1100
0000
0101
0000
1000
0001
0100
0000
,
0020
0000
0000
0230
0000
0000
0302
0000
0000
0000
1003
0000
0010
1000
0001
0000
,
1000
0100
0001
0100
1000
0000
1000
0000
1100
0000
0101
0000
1100
0000
0000
0000
,
0002
0000
0000
0023
0000
0000
0230
0000
0000
0000
1300
0000
0010
0000
1000
0100
,
1000
0000
0001
0100
0001
0000
0010
0100
1000
0000
1001
0000
0110
0000
0000
0000
,
0100
0001
0000
0010
0000
0000
0002
0000
0000
0000
1003
0000
0010
0100
0001
0000
,
1000
0010
0001
0010
1000
0000
0001
0000
0011
0000
1010
0000
0011
0000
0000
0000
,
2000
0000
0000
3200
0000
0000
0320
0000
0000
0000
0031
1000
0001
0100
0010
1000
,
0001
0000
0010
0100
1000
0000
0001
0100
0001
0000
1001
0000
0000
0000
0110
0000
,
1000
0000
0010
0000
1000
0001
0000
0010
0000
0100
0000
0000
1000
0000
1100
0000
,
0011
0000
0000
0100
0001
0000
0010
0001
0000
1000
0010
1000
0100
0000
0000
0010
,
0000
0000
0000
0000
0000
0001
1000
0001
0100
0010
0000
1000
0000
0100
1000
0001
,
1000
0010
0001
0010
1000
0000
0100
0010
0001
0000
1000
0001
0000
1000
0100
0010
,
0001
0000
0000
0000
0000
0100
0010
1000
0001
0000
0101
0000
0101
0000
0000
0000
,
1100
0000
0110
0000
0011
0000
0100
0010
1000
0000
0001
1000
0000
0010
0100
0000
,
0000
0000
0000
0000
0000
0001
0010
0100
1000
0000
0010
1000
0000
0001
0000
0100
,
0000
0000
0000
0010
1000
0001
0000
1000
0000
0100
0010
0001
0000
0000
1000
0100
,
0010
0000
0000
0001
1000
0000
0010
1000
0000
1010
0000
1010
0000
0000
0000
0000
,
0000
0000
0100
0001
0010
0100
1000
0000
0001
0000
1000
0010
0100
0000
0001
0000
,
0110
0000
1001
0000
0010
1000
0010
0100
0001
0000
1000
0001
0000
0010
0100
0000
,
1000
0000
0001
0100
0000
0110
0000
0110
0000
0010
1000
0001
1000
0000
0100
0000
,
0011
0000
0000
0001
0100
0010
1000
0001
0000
1000
0000
0100
0010
0000
0000
0000
,
0000
0000
0000
0001
1000
0001
0010
0100
1000
0000
0001
0000
0000
0000
1010
0000
,
0000
0000
0000
0100
0001
0010
0100
1000
0001
0000
1000
0000
1100
0000
0011
0000
,
1001
0000
0100
0000
0100
0000
0010
1000
0001
0000
0001
0000
0001
0010
0100
0000
,
2000
0000
0000
3020
0000
0000
0230
0000
0000
0000
0301
0000
0010
0100
1000
0000
,
0001
0100
1000
0100
0001
0000
1000
0000
1001
0000
1010
0000
1100
0000
0000
0000
,
0020
0000
0000
0032
0000
0000
2003
0000
0000
0000
3010
0000
0100
0000
0001
0010
,
0001
0000
1000
0010
1000
0000
0001
0010
0100
0000
1100
0000
0101
0000
0000
0000
,
1000
0010
0000
0100
0000
0000
0002
0000
0000
0000
1003
0000
0100
0010
0001
0000
,
1000
0010
0001
0010
1000
0000
0001
0000
0011
0000
0110
0000
1100
0000
0000
0000
,
0020
0000
0000
2030
0000
0000
3002
0000
0000
0000
0013
0001
0010
0100
1000
0001
,
0100
0000
0010
1000
0001
0000
0010
0100
1000
0000
0001
0000
1000
0100
0000
0000
,
0120
0000
0000
0000
0031
0000
0000
0000
1000
0010
0100
0000
0001
0000
0000
0000
,
1000
0000
0010
0100
0000
0100
0001
0000
0020
0000
0001
0000
0031
1000
0000
0000
,
2010
0000
0000
0000
3100
0000
0000
1000
0001
0000
0100
0000
0010
0000
1000
0002
,
0000
0000
0103
0000
0000
0010
0000
1000
1001
0000
0000
0000
0000
0000
0000
0000
;

//---------------dance-double - ----------------
#NOTES:
     dance-double:
     :
     Easy:
     5:
     :
00000000
00000000
00000000
00000000
,
00000000
00000000
00000000
00000000
,
00000000
00000000
00000000
00000000
,
00020020
00000000
00000000
00030030
,
00010000
00000000
00001000
00001000
,
00010000
00000000
00000100
00000100
,
00010000
00000000
00000010
00000010
,
00001010
00000101
00001100
00000000
,
00000001
00000010
00001000
00000000
,
00001100
00000000
01010000
00000000
,
10000000
00100000
00010000
00000000
,
01000000
01000000
01000000
00000000
,
00001000
00010000
00000010
00000000
,
00000101
00000000
00001100
00000000
,
00010000
00001000
01000000
00000000
,
00100000
00100000
00100000
00000000
,
10000000
01000000
00010000
01000000
,
00100000
10000000
10000000
00010000
,
01000000
00000000
00001000
00010000
,
00000010
00000010
00001000
00000001
,
00001001
00000000
00000010
00000010
,
00001000
00000100
00010000
00000010
,
00000100
00000000
00000001
00000010
,
00000001
00001000
00000100
00010000
,
00022000
00030000
01000000
00000000
,
00103000
00010000
10000000
01000000
,
02200000
00300000
10000000
00000000
,
03100000
00010000
00001000
00000100
,
00000022
00000030
00001000
00000000
,
00000103
00000001
00001000
00000010
,
00020200
00000300
00001000
00000000
,
00030010
00010000
00001000
01000000
,
00100000
10000000
01000000
00000000
,
00110000
00000000
00001010
00000000
,
00000001
00000100
00000010
00000000
,
00001000
00001000
00001000
00000000
,
00000100
00010000
00100000
00000000
,
10100000
00000000
00110000
00000000
,
01000000
00010000
00100000
00000000
,
00001000
00001000
00001000
00000000
,
00202000
00000000
00000000
00003000
,
00010000
10000000
00010000
00301000
,
00020020
00000000
00000000
00000030
,
00001000
00030100
00011000
00000000
;

//---------------dance-double - ----------------
#NOTES:
     dance-double:
     :
     Medium:
     8:
     :
00000000
00000000
00000000
00000000
,
00000000
00000000
00000000
00000000
,
00000000
00000000
00000000
00000000
,
00020020
00000000
00000000
00030030
,
00010000
00001000
00000000
00001000
01000000
00000000
01100000
00000000
,
10000000
00010000
00000000
00010000
00100000
00000000
01100000
00000000
,
00100000
00001000
00000000
00001000
00010000
00000000
00011000
00000000
,
00000010
00000000
00000010
00000000
00000010
00001000
00000100
00000000
,
00000011
00000000
00001100
00000000
00000001
00000010
00001000
00000000
,
00000200
00000000
00020300
00000000
00001000
00001000
00031000
00000000
,
01001000
00000000
10010000
00000000
00100000
10000000
00010000
00000000
,
10000000
00000000
10000000
00000000
10000000
01000000
00100000
00000000
,
00101000
00000000
00010100
00000000
00001000
00000001
00000100
00000000
,
00000020
00000000
00002030
00000000
00000001
00000001
00003001
00000000
,
00000101
00000000
00001100
00000000
00001000
00000100
00010000
00000000
,
00001000
00000000
00001000
00000000
00001000
01000000
00000000
00000000
,
00001000
00010000
01000000
00000000
11000000
00000000
01010000
00000000
,
00100000
00000000
10000000
01000000
00100000
00010000
01000000
00000000
,
00001000
00000000
00000000
00010000
00010000
00000010
00000100
00000000
,
00000001
00000010
00000100
00000000
00001000
00000001
00000100
00000000
,
00001001
00000000
00000000
00000000
00000010
00000010
00000010
00000000
,
00001000
00000100
00010000
00000000
00011000
00000000
01001000
00000000
,
00100000
00000000
00000000
10000000
00100000
01000000
00010000
10000000
,
01000000
00000000
10000000
00000000
00010000
10000000
00100000
00000000
,
02010000
00100000
00001000
00100000
,
00010000
00000000
10000000
00000000
00100000
00100000
03100000
00000000
,
00021000
00000010
00100000
00000100
,
00001000
00000000
00000010
00000000
00001000
00001000
00031000
00000000
,
00010020
00000000
00000100
00000000
00000001
00000001
00000001
00000000
,
00001000
00000000
00010000
00000000
00000100
00000100
00000130
00000000
,
00001002
00000000
00000010
00000000
00000100
00000100
00000103
00000000
,
00000120
00000000
00010000
00000000
00000100
00000100
00000130
00000000
,
00001010
00000000
00001100
00000000
00000100
00010000
00001000
00000000
,
00200000
00000000
00320000
00000000
01000000
01000000
01030000
00000000
,
01100000
00000000
10010000
00000000
10000000
01000000
00010000
00000000
,
00100000
00000000
00100000
00000000
00100000
00001000
00010000
00000000
,
00010100
00000000
00001010
00000000
00000100
00000001
00001000
00000000
,
00000002
00000000
00002003
00000000
00000010
00000010
00003010
00000000
,
00010010
00000000
00101000
00000000
00010000
00001000
00100000
00000000
,
01000000
00000000
01000000
00000000
01000000
10000000
00010000
00000000
,
21000000
00000000
00100000
00000000
00010000
00010000
00010000
00000000
,
01000000
00100000
01000000
30010000
,
00201000
00000000
01000000
00000000
00010000
00000000
00001000
00001000
,
00301000
01001000
00011000
00000000
;

//---------------dance-double - ----------------
#NOTES:
     dance-double:
     :
     Hard:
     10:
     :
00000000
00000000
00000000
00000000
,
00000000
00000000
00000000
00000000
,
00000000
00000000
00000000
00000000
,
00020020
00000000
00000000
00030030
,
00010000
00010000
00001000
00010000
00010000
00001000
00011000
00000000
,
00010000
00010000
00000100
00010000
00010000
00000100
00010100
00000000
,
00010000
00010000
00000010
00010000
00010000
00000010
00010010
00000000
,
00001000
00000010
00001000
00000010
00001000
00001000
00000100
00000000
,
00001001
00000000
00000000
00001010
00000000
00000000
00001100
00000000
00000000
00000000
00010000
00000000
00001000
00000000
00000000
00000000
,
01000000
01000000
01000000
00100000
10010000
01100000
10010000
00000000
,
11000000
00000000
00000000
01100000
00000000
00000000
00110000
00000000
00000000
00000000
01000000
00000000
00100000
00000000
10000000
00000000
,
00010000
01000000
00001000
01000000
00010000
00100000
00100000
00000000
,
00011000
00000000
00000000
00010100
00000000
00000000
00010010
00000000
00000000
00000000
00000010
00000000
00000100
00000000
00000000
00000000
,
00000001
00000001
00000001
00001000
00001100
00000101
00001100
00000000
,
00001010
00000000
00000000
00001001
00000000
00000000
00000011
00000000
00000000
00000000
00001000
00000000
00000100
00000000
00010000
00000000
,
00001000
01000000
00100000
01000000
00010000
00010000
00000000
00000000
,
00100000
00100000
00100000
01000000
10000000
00010000
01010000
00000000
,
00001000
00001000
00001000
00010000
00000010
00000100
00000110
00000000
,
00000001
00000010
00000001
00000010
00000001
00000000
00001000
00000000
00000100
00000000
00000100
00000000
00000100
00000000
00000000
00000000
,
00001000
00000010
00001000
00000010
00001000
00000000
00000001
00000000
00000100
00000000
00000100
00000000
00000100
00000000
00000000
00000000
,
00000010
00000010
00000010
00010000
00001000
00100000
00110000
00000000
,
01000000
01000000
01000000
10000000
00100000
01000000
10010000
00000000
,
00001000
00100000
00001000
00100000
00001000
00000000
00010000
00000000
00000010
00000000
00000010
00000000
00000010
00000000
00000000
00000000
,
00010000
00000100
00010000
00000100
00010000
00000000
00001000
00000000
00100000
00000000
00100000
00000000
00100000
00000000
00000000
00000000
,
00101000
00000000
00010000
00001000
00000100
00000001
00000010
00000000
,
00000000
00000000
00000100
00001000
00000100
00001000
00000100
00000000
00000001
00000000
00000100
00000000
00010000
00000000
00001000
00000000
,
00000000
00011000
00011000
00010000
00001000
01000000
00100000
10000000
,
01000000
00000000
00010000
00000000
01000000
00000000
10000000
00000000
00100000
01000000
00100000
01000000
00100000
00000000
00000000
00000000
,
01001000
00000000
01000000
00010000
00100000
00001000
00000100
00000000
,
00000110
00000000
00000000
00000000
00000001
00000010
00000001
00000010
00000001
00000000
00001000
00000000
00000000
00000000
00001100
00000000
,
00000000
00000000
00000000
00000000
00000010
00000001
00000010
00000000
00000100
00000000
00000100
00000000
00001000
00000000
00000001
00000000
,
00000000
00000100
00000100
00000010
00010000
00010000
00001000
00001000
,
01001000
00000000
00000000
01010000
00000000
00000000
01100000
00000000
00000000
00000000
10000000
00000000
00010000
00000000
00000000
00000000
,
00100000
00100000
00100000
00010000
00110000
10100000
00110000
00000000
,
11000000
00000000
00000000
00110000
00000000
00000000
01010000
00000000
00000000
00000000
00001000
00000000
00010000
00000000
00000010
00000000
,
00000100
00000001
00000010
00000001
00001000
00000100
00000100
00000000
,
00000110
00000000
00000000
00001001
00000000
00000000
00001010
00000000
00000000
00000000
00000100
00000000
00010000
00000000
00000000
00000000
,
00001000
00001000
00001000
01000000
01100000
10010000
01100000
00000000
,
10100000
00000000
00000000
11000000
00000000
00000000
00101000
00000000
00000000
00000000
00010000
00000000
00000010
00000000
00000100
00000000
,
00000001
00001000
00000100
00010000
00001000
00000100
00000100
00000000
,
00000102
00000000
00000000
00000000
00000010
00000000
00000000
00000000
00001003
00000100
00001000
00000000
00000001
00000000
00000000
00000000
,
00000010
00000001
00000100
00000010
00002000
00000100
00003100
00000000
,
00020100
00000000
00000000
00000000
00031000
00000000
00000000
00010000
01000000
00000000
01000000
00000000
10000000
00000000
00100000
00000000
,
10000000
00000000
10010000
00000000
00000000
11000000
00000000
00010000
10000000
00000000
00000000
00000000
00000000
00000000
00000000
00000000
;

//---------------dance-double - ----------------
#NOTES:
     dance-double:
     :
     Challenge:
     14:
     :
00000000
00000000
00000000
00000000
,
00000000
00000000
00000000
00000000
,
00000000
00000000
00000000
00000000
,
00020020
00000000
00000000
00030030
,
00000110
00000000
00000110
00000000
00001001
00000000
00000010
00001000
00000010
00001000
00000010
00001000
00000100
00000000
00000000
00000000
,
00010100
00000000
00010100
00000000
00011000
00000000
00001000
01000000
00001000
01000000
00001000
01000000
00100000
00000000
00000000
00000000
,
10100000
00000000
10100000
00000000
10010000
00000000
00010000
01000000
00010000
01000000
00010000
01000000
00100000
00000000
00000000
00000000
,
10000000
10000000
00000000
10000000
00000000
10000000
10000000
00000000
10010000
00000000
01100000
00000000
10000000
00010000
01000000
00000000
,
00200000
00000000
00000000
20300000
00000000
00000000
32000000
00000000
00000000
00000000
13000000
00000000
00010000
01000000
00100000
00000000
,
01000000
00001000
00010000
00001000
01000000
00000000
00100000
00000000
01100000
00000000
10010000
00000000
01100000
00000000
00000000
00000000
,
02000000
00000000
00000000
03002000
00000000
00000000
00023000
00000000
00000000
00000000
00030010
00000000
00001000
00000000
00000001
00000010
,
00000100
00000000
00001000
00000010
00000100
00000000
00000001
00001000
00000001
00000000
00000011
00000000
00001100
00000000
00000000
00000000
,
00010000
00001000
00000000
01000000
00000000
00000000
00200000
00000000
00000000
00000000
10300000
00000000
00100000
01000000
00010000
00000000
,
00100000
00001000
00010000
00001000
00100000
00000000
01000000
00000000
11000000
00000000
01010000
00000000
11000000
00000000
00000000
00000000
,
00020000
00000000
00000000
02030000
00000000
00000000
03200000
00000000
00000000
00000000
01300000
00001000
00010000
00000100
00001000
00000010
,
00000100
00000000
00000001
00000010
00000100
00000000
00001000
00000001
00001000
00000000
00001001
00000000
00000000
00000000
00010010
00000000
,
00001000
00000000
00001000
00000000
00001000
00000010
00000000
00000100
00000000
00000001
00000000
00000000
00000010
00000000
00000011
00000000
,
00001010
00000000
00000000
00001000
00000100
00000000
00001000
00000001
00000000
00001000
00000010
00010000
00001000
00000000
00000000
00100000
,
00000000
00000000
00000000
00000000
00000000
01000000
10000000
01000000
10000000
00010000
00000000
01000000
00000000
00100000
10000000
00010000
,
10000000
01000000
00100000
00001000
00010000
00000000
00000010
00000100
00000001
00000000
00001000
00000001
00000000
00001000
00000010
00000100
,
00000001
00000000
00000000
00000000
00000000
00000010
00000100
00010000
00001000
00000000
00011000
00000000
00011000
00000000
00000000
00000000
,
01001000
00000000
01010000
00000000
01100000
00000000
10000000
00100000
01000000
00000000
00010000
10000000
00000000
00010000
10000000
00000000
,
00000000
00000000
00000000
00000000
00000000
00100000
01000000
00010000
01000000
00000000
00100000
10000000
00000000
11000000
00000000
00101000
,
00000000
00000000
00000000
00010000
00001000
00010000
00000000
00000010
00000000
00001000
00000001
00000010
00000000
00000000
00000001
00000100
,
00000000
00000000
00000000
00000010
00010000
00000000
00001000
01000000
00000000
10010000
00000000
10010000
00000000
00000000
00000000
00000000
,
00000000
00000000
00100000
10000000
00010000
00001000
00000100
00000000
00000010
00000000
00000001
00001000
00000001
00000000
00000101
00000000
,
00000000
00000000
00010100
00000000
00010000
00001000
00010000
00000010
00000100
00000000
00000001
00001000
00000000
00000100
00010000
00000000
,
00001000
00000000
01000000
00100000
00000000
10100000
00000000
11000000
00000000
10000000
01000000
00100000
00001000
00000000
00000000
00010000
,
00000000
00000000
00000000
00001000
01000000
00100000
01000000
00010000
00000000
10000000
00000000
00010000
01000000
00000000
00000000
00000000
,
00000000
00000000
00000000
00100000
10000000
00010000
10000000
01000000
00100000
00000000
00110000
00000000
00000000
00000000
00011000
00000000
,
00000000
00000000
00000000
00000001
00001000
00000010
00001000
00000100
00000010
00000000
00000010
00000000
00000001
00000000
00001000
00000000
,
00000000
00000000
00000100
00000000
00000100
00000000
00010000
00001000
01000000
00000000
01000000
00000000
01000000
00100000
10000000
00000000
,
00020000
00000000
00000000
00230000
00000000
00000000
00302000
00000000
00000000
00000000
00013000
00000000
00000010
00001000
00000100
00000000
,
00010000
00000010
00000100
00000010
00010000
00000000
00001000
00000000
01001000
00000000
00011000
00000000
01001000
00000000
00000000
00000000
,
00002000
00000000
00000000
00023000
00000000
00000000
00030200
00000000
00000000
00000000
00001300
00000000
00000010
00000000
00000100
00000001
,
00000010
00000000
00000001
00001000
00000010
00000000
00010000
00001000
01000000
00000000
01100000
00000000
10010000
00000000
00000000
00000000
,
10000000
01000000
00000000
00100000
00000000
00000000
00002000
00000000
00000000
00000000
00013000
00000000
00001000
00100000
00010000
00000000
,
01000000
00001000
00010000
00001000
01000000
00000000
00100000
00000000
10100000
00000000
01010000
00000000
10100000
00000000
00000000
00000000
,
02000000
00000000
00000000
03200000
00000000
00000000
20300000
00000000
00000000
00000000
30010000
00100000
00001000
01000000
00001000
00010000
,
00000010
00000000
00001000
00000100
00001000
00000000
00000001
00000010
00000001
00000000
00000100
00000000
00000100
00000010
00000000
00000000
,
00020010
00000000
00000000
00000000
00001000
00000000
00000000
00000000
00030100
00001000
00000001
00000000
00000100
00000000
00000000
00000000
,
00000010
00000000
00010000
00001000
00000000
00001000
00100000
00000000
02000000
00000000
10000000
00000000
13000000
00010000
00000000
00000000
,
01002000
00000000
00000000
00000000
00013000
00000000
00000000
00001000
01000000
00000000
01000000
00000000
00100000
00000000
10000000
00020000
,
00000000
00000000
00130000
00000000
00000000
00010000
00000000
01000000
01100000
00000000
00000000
00000000
00000000
00000000
00000000
00000000
;

//---------------dance-solo - ----------------
#NOTES:
     dance-solo:
     :
     Easy:
     2:
     :
000000
000000
000000
000000
,
000000
000000
000000
000000
,
000000
000000
000000
000000
,
000000
000000
000000
000000
,
000000
000010
000000
000001
,
000000
010000
000000
100000
,
000000
000100
000000
100001
,
000100
000000
010010
000000
,
000000
000000
000100
000010
,
100001
000000
000000
000000
,
000000
000000
000100
010000
,
100001
000000
000000
000000
,
000000
000000
000100
000010
,
100001
000000
000000
000000
,
000000
000000
000100
010000
,
100001
000000
000000
000000
,
000100
000100
000001
000000
,
100000
100000
001000
000000
,
010000
100000
001000
000000
,
000010
000001
001000
000000
,
100000
000100
000001
000000
,
000001
100000
000001
000000
,
000001
000100
100000
000000
,
100000
000001
001000
000000
,
000100
100000
001000
000001
,
000001
001000
100000
000100
,
000100
100000
001000
000001
,
000001
001000
100000
000100
,
000100
100000
001000
000001
,
000001
001000
100000
000100
,
000000
000000
000000
000000
,
010010
100001
001000
000100
,
000000
000000
000001
100000
,
010010
000010
000010
000000
,
000000
000000
100000
000001
,
010010
010000
010000
000000
,
000000
000100
001000
000001
,
100001
001000
001000
000000
,
000000
000100
001000
100000
,
100001
001000
001000
100001
,
000000
000010
000000
010000
,
000000
000010
000000
010000
,
000000
010010
000000
000100
,
100001
000000
000000
000000
;

//---------------dance-solo - ----------------
#NOTES:
     dance-solo:
     :
     Medium:
     6:
     :
000000
000000
000000
000000
,
000000
000000
000000
000000
,
000000
000000
000000
000000
,
000000
000000
000000
000000
,
001000
001000
100001
000000
001000
001000
100001
000000
,
001000
001000
100001
000000
001000
001000
100001
000000
,
100000
000001
010000
000010
100000
000001
100001
000000
,
100000
000001
100000
000000
000001
001000
000010
000000
,
100000
000000
010000
100000
000001
000000
000010
000001
,
100001
000000
000000
001001
101000
000000
000000
000000
,
000001
000000
000010
000001
100000
000000
010000
100000
,
100001
000000
000000
101000
001001
000000
000000
000000
,
001100
110000
001100
110000
,
100001
000000
000000
001001
101000
000000
000000
000000
,
001100
000011
001100
000011
,
100001
000000
000000
000000
,
001000
000000
001000
000001
001000
000010
000010
000000
,
001000
000000
001000
100000
001000
010000
010000
000000
,
000001
000010
000001
000100
001000
001000
001000
000000
,
100000
010000
100000
000100
001000
001000
001000
000000
,
100000
000000
100000
000001
100000
001000
001000
000000
,
000001
000000
000001
100000
000001
001000
001000
000000
,
000100
001000
000100
100000
000100
010000
010000
000000
,
000100
001000
000100
000001
000100
000010
000010
000000
,
000100
100000
000000
001000
000001
000000
000001
000000
,
000001
001000
100000
000000
000100
000000
000100
000000
,
000100
100000
001000
000000
000001
000010
000001
000000
,
000100
000001
001000
000000
100000
010000
100000
000000
,
000100
100000
001000
000000
000001
000000
000001
000000
,
000001
001000
100000
000000
000100
000000
000100
000000
,
000100
001000
000100
000000
100000
000001
100000
000000
,
010010
000000
100001
000000
001000
001000
001000
000000
,
000100
000010
000001
000000
000101
000110
000101
000000
,
100001
000000
000000
001001
101000
000000
000000
000000
,
000100
010000
100000
000000
100100
010100
100100
000000
,
100001
000000
000000
101000
001001
000000
000000
000000
,
001000
000010
001000
000001
001000
000010
001000
000001
,
100001
000000
000000
001100
100001
000000
000000
000000
,
001000
010000
001000
100000
001000
010000
001000
100000
,
100001
000000
000000
000000
,
001000
000001
000010
000000
001000
100000
010000
000000
,
001000
000000
000010
000000
000001
001000
100000
000000
,
100000
001000
000001
000000
001001
000000
101000
000000
,
100001
000000
000000
000000
;

//---------------dance-solo - ----------------
#NOTES:
     dance-solo:
     :
     Hard:
     7:
     :
000000
000000
000000
000000
,
000000
000000
000000
000000
,
000000
000000
000000
000000
,
000000
000000
000000
000000
,
000011
110000
001010
000000
000011
110000
011000
000000
,
000011
110000
001010
000000
000011
110000
011000
000000
,
000011
110000
001010
000000
000011
110000
011000
000000
,
000110
010100
100001
000000
,
000100
000010
000100
010000
,
001010
000000
000000
001001
101000
000000
000000
000000
,
000100
010000
000100
000010
,
011000
000000
000000
101000
001001
000000
000000
000000
,
000100
000010
010000
000010
100000
000001
010000
000010
,
100001
000000
000000
011000
001010
000000
000000
000000
,
000100
010000
000010
010000
000001
100000
000010
010000
,
100001
000000
000000
001000
001000
000000
000000
000000
,
100000
000001
000100
000000
000001
100000
000100
000000
,
100000
000001
001000
000000
000001
100000
001000
000000
,
001000
100000
001000
100000
001000
000000
001000
000000
001000
000000
010000
000000
010000
000000
000000
000000
,
001000
100000
001000
100000
001000
000000
001000
000000
001000
000000
010000
000000
010000
000000
000000
000000
,
000100
001000
000001
000001
,
000100
001000
100000
100000
,
001000
000001
001000
000001
001000
000000
001000
000000
001000
000000
000010
000000
000010
000000
000000
000000
,
001000
000001
001000
000001
001000
000000
001000
000000
001000
000000
000010
000000
000010
000000
000000
000000
,
001000
000100
100000
000010
001000
000100
100000
000010
,
001000
000100
100000
000010
001000
000100
100000
000010
,
001000
000100
000001
010000
001000
000100
000001
010000
,
001000
000100
000001
010000
001000
000100
000001
010000
,
100000
010000
100100
000000
100000
000010
100000
000001
,
000001
000010
000101
000000
000001
010000
000001
100000
,
000001
100000
001000
000100
000010
010000
001000
000100
,
010010
000000
100001
000001
000001
000001
000001
100000
,
000011
110000
000110
010100
,
100001
000000
000000
001000
001000
000000
000000
000000
,
000011
110000
001010
011000
,
100001
000000
000000
000100
000100
000000
000000
000000
,
011000
100001
001100
100001
,
010010
000000
001000
000001
100000
000000
000000
000000
,
000101
101000
001100
100000
,
100001
000000
000001
001000
100000
000000
100001
000000
,
001000
000100
100000
000010
001000
000100
100000
000010
,
001000
000100
000001
010000
001000
000100
000001
010000
,
100000
000000
001000
100000
000001
000000
100001
000000
,
010010
000000
000000
000000
;
