#VERSION:0.83;
#TITLE:KISS KISS KISS;
#SUBTITLE:;
#ARTIST:NAOKI feat. SHANTI;
#TITLETRANSLIT:;
#SUBTITLETRANSLIT:;
#ARTISTTRANSLIT:;
#GENRE:;
#ORIGIN:;
#CREDIT:;
#BANNER:KISS KISS KISS-bn.png;
#BACKGROUND:KISS KISS KISS-bg.png;
#PREVIEWVID:;
#JACKET:KISS KISS KISS-jacket.png;
#CDIMAGE:;
#DISCIMAGE:;
#LYRICSPATH:;
#CDTITLE:;
#MUSIC:KISS KISS KISS.ogg;
#OFFSET:0.000000;
#SAMPLESTART:38.738998;
#SAMPLELENGTH:20.000000;
#SELECTABLE:YES;
#DISPLAYBPM:150.000000;
#BPMS:0.000=150.628,
4.000=150.060;
#STOPS:;
#DELAYS:;
#WARPS:;
#TIMESIGNATURES:0.000=4=4;
#TICKCOUNTS:0.000=4;
#COMBOS:0.000=1;
#SPEEDS:0.000=1.000=0.000=0;
#SCROLLS:0.000=1.000;
#FAKES:;
#LABELS:0.000=Song Start;
#BGCHANGES:;
#KEYSOUNDS:;
#ATTACKS:
;

//---------------dance-single - ----------------
#NOTEDATA:;
#CHARTNAME:;
#STEPSTYPE:dance-single;
#DESCRIPTION:;
#CHARTSTYLE:;
#DIFFICULTY:Beginner;
#METER:4;
#RADARVALUES:0.155284,0.242408,0.057716,0.000000,0.000000,113.000000,107.000000,6.000000,0.000000,0.000000,0.000000,0.000000,0.000000,0.000000,0.155284,0.242408,0.057716,0.000000,0.000000,113.000000,107.000000,6.000000,0.000000,0.000000,0.000000,0.000000,0.000000,0.000000;
#CREDIT:;
#DISPLAYBPM:150.000000;
#NOTES:
0000
0000
0000
0000
,
0000
0000
0000
0000
,
0000
0000
0000
0000
,
0001
0000
0000
0000
,
1000
0000
0000
0000
,
0001
0000
0100
0000
,
1000
0000
0100
0000
,
0001
0000
0000
0000
,
1000
0000
0000
0000
,
0010
0000
0000
0000
,
0100
0000
0000
0000
,
0010
0000
0000
0000
,
0100
0000
0000
0000
,
0001
0000
0000
0000
,
1000
0000
0000
0000
,
0001
0000
0000
0000
,
1000
0000
0000
0000
,
1000
1000
0000
0000
,
1000
1000
0000
0000
,
0100
0000
0001
0000
,
0100
0000
0001
0000
,
0001
0001
0000
0000
,
0001
0001
0000
0000
,
0100
0000
1000
1000
,
0000
0000
0000
0000
,
0001
0001
0001
0001
,
0001
0001
0001
0000
,
1000
1000
1000
1000
,
1000
1000
1000
0000
,
0010
0000
0000
0000
,
0010
0000
0000
0000
,
0100
0000
0000
0000
,
0100
0000
0000
0000
,
1000
0000
0000
0000
,
1000
0000
1000
0000
,
0100
0000
0000
0000
,
0100
0000
0100
0000
,
0001
0000
0000
0000
,
0001
0000
0001
0000
,
0010
0000
0010
0000
,
0010
0000
0000
0000
,
0010
0000
0010
0000
,
1001
0000
1001
0000
,
0100
0000
0100
0000
,
1001
0000
1001
0000
,
0010
0000
0010
0000
,
0110
0000
0110
0000
,
0010
0000
0010
0010
,
0000
0000
0000
0000
,
0001
0001
0001
0001
,
0001
0001
0001
0000
,
1000
1000
1000
1000
,
1000
1000
1000
0000
,
0010
0000
0000
0000
,
0010
0000
0000
0000
,
0100
0000
0000
0000
,
0100
0000
0000
0000
,
0001
0000
0001
0000
,
0100
0000
0100
0000
,
1000
0000
1000
0000
,
0010
0000
0010
0000
,
1000
0000
1000
0000
,
0001
0000
0001
0000
,
0100
0000
0000
0000
,
0000
0000
0000
0000
;

//---------------dance-single - ----------------
#NOTEDATA:;
#CHARTNAME:;
#STEPSTYPE:dance-single;
#DESCRIPTION:;
#CHARTSTYLE:;
#DIFFICULTY:Easy;
#METER:5;
#RADARVALUES:0.278961,0.332650,0.038477,0.009619,0.000000,203.000000,199.000000,4.000000,1.000000,0.000000,0.000000,0.000000,0.000000,0.000000,0.278961,0.332650,0.038477,0.009619,0.000000,203.000000,199.000000,4.000000,1.000000,0.000000,0.000000,0.000000,0.000000,0.000000;
#CREDIT:;
#DISPLAYBPM:150.000000;
#NOTES:
0000
0000
0000
0000
,
0000
0000
0000
0000
,
0000
0000
0000
0000
,
0001
0001
0001
0001
,
1000
1000
1000
1000
,
0001
0001
0100
0100
,
1000
1000
0100
0100
,
0001
0001
0001
0001
,
1000
1000
1000
1000
,
0010
0000
0010
0010
,
0100
0000
0100
0100
,
1000
1000
0100
0100
,
0001
0001
0100
0100
,
0010
0000
0010
0010
,
0100
0000
0100
0100
,
1000
0100
1000
0100
,
0001
0100
0001
0100
,
1000
0000
1000
1000
,
0100
0000
0100
0100
,
0001
0010
0001
0001
,
0010
0010
0001
0010
,
0001
0000
0001
0001
,
0100
0000
0100
0100
,
1000
0010
1000
1000
,
0000
0000
0000
0000
,
0010
0010
0010
0010
,
0100
0100
0100
0100
,
0001
0100
0001
0100
,
1000
0100
1000
0100
,
0010
0001
0100
0001
,
0010
0001
0100
1000
,
0010
1000
0100
1000
,
0010
1000
0100
0001
,
0010
0000
0010
0000
,
1000
0000
1000
0000
,
0100
0000
0100
0000
,
0001
0000
0001
0000
,
0010
0000
0010
0000
,
1000
0000
1000
0000
,
0100
0000
0100
0000
,
0001
0000
0001
0000
,
0010
0010
0100
1001
,
0100
0100
0010
0110
,
0001
0001
1000
1000
,
0001
0001
1000
1000
,
0100
0100
0010
1001
,
0010
0010
0100
0110
,
0001
0000
1000
0001
,
0000
0000
0000
0000
,
0010
0010
0010
0010
,
0100
0100
0100
0100
,
0001
0100
0001
0100
,
1000
0100
1000
0100
,
0010
0001
0100
0001
,
0010
0001
0100
1000
,
0010
1000
0100
1000
,
0010
1000
0100
0001
,
0010
0000
0010
0010
,
1000
0000
1000
0000
,
0001
0000
0001
0000
,
0100
0100
0100
0100
,
0010
1000
0100
0001
,
0020
0000
0000
0000
0000
0000
0000
0030
,
0000
0000
0000
0000
;

//---------------dance-single - ----------------
#NOTEDATA:;
#CHARTNAME:;
#STEPSTYPE:dance-single;
#DESCRIPTION:;
#CHARTSTYLE:;
#DIFFICULTY:Medium;
#METER:7;
#RADARVALUES:0.373781,0.393131,0.278961,0.067336,0.000000,272.000000,243.000000,29.000000,7.000000,0.000000,0.000000,0.000000,0.000000,0.000000,0.373781,0.393131,0.278961,0.067336,0.000000,272.000000,243.000000,29.000000,7.000000,0.000000,0.000000,0.000000,0.000000,0.000000;
#CREDIT:;
#DISPLAYBPM:150.000000;
#NOTES:
// measure 0
0000
0000
0000
0000
,  // measure 1
0000
0000
0000
0000
,  // measure 2
0000
0000
0000
0000
,  // measure 3
1000
0100
1000
0100
,  // measure 4
0001
0100
1000
0100
,  // measure 5
0001
0100
0001
0100
,  // measure 6
0001
0010
1000
0100
,  // measure 7
0001
0100
0001
0100
,  // measure 8
1000
0100
0001
0100
,  // measure 9
1000
0000
1100
0000
0010
1000
0100
0000
,  // measure 10
0010
1000
0100
1001
,  // measure 11
0100
0101
1000
1100
,  // measure 12
0010
0001
0100
1001
,  // measure 13
0001
0000
0101
0000
0010
0001
0100
0000
,  // measure 14
0010
0001
0100
1001
,  // measure 15
0010
1000
0100
0001
,  // measure 16
0010
0001
0100
1000
,  // measure 17
0010
0000
0100
0000
0010
1000
0100
0000
,  // measure 18
0010
0000
0100
0000
0010
1000
0001
0000
,  // measure 19
0100
0000
1000
0000
0100
0001
1000
0000
,  // measure 20
0100
0010
0001
0100
,  // measure 21
0010
0000
0100
0000
0010
0001
0100
0000
,  // measure 22
0010
0000
0100
0000
0010
0001
1000
0000
,  // measure 23
0100
0000
1000
0000
0001
0000
0100
0020
,  // measure 24
0000
0000
0000
0030
,  // measure 25
0010
1000
0100
1000
,  // measure 26
0010
0100
0001
0000
0010
0000
1001
0000
,  // measure 27
0010
0001
1000
0100
,  // measure 28
1000
1000
0001
0001
,  // measure 29
0010
0001
1000
1100
,  // measure 30
0010
1000
0001
0101
,  // measure 31
0010
0000
0100
0000
0010
0100
0001
0000
,  // measure 32
1000
1100
0001
1100
,  // measure 33
0001
0100
1000
1001
,  // measure 34
0010
1001
0100
1001
,  // measure 35
0010
1000
0100
0001
,  // measure 36
0010
1000
0100
0001
,  // measure 37
1000
0100
0001
1001
,  // measure 38
0010
1001
0100
1001
,  // measure 39
2000
3000
0002
0103
,  // measure 40
1000
1000
0001
0001
,  // measure 41
1000
1100
0001
0100
,  // measure 42
1000
1100
0001
0100
,  // measure 43
0010
0001
0100
1000
,  // measure 44
0010
0001
0100
1000
,  // measure 45
0100
0110
1000
0010
,  // measure 46
0100
0110
0001
0010
,  // measure 47
1000
0000
0100
0000
0001
0000
0100
2000
,  // measure 48
0000
0000
0000
3000
,  // measure 49
0100
0001
0100
0001
,  // measure 50
0010
0001
0100
0000
0010
0000
0101
0000
,  // measure 51
2000
0010
0100
3002
,  // measure 52
0010
0010
0100
1003
,  // measure 53
0010
1000
0001
0110
,  // measure 54
0100
0001
1000
0110
,  // measure 55
0001
0000
1000
0000
0010
1000
0100
0000
,  // measure 56
0010
1100
0010
1001
,  // measure 57
0010
0001
0100
1000
,  // measure 58
0010
0001
0100
1000
,  // measure 59
1000
0100
0001
0000
0110
0000
1000
0000
,  // measure 60
1000
0100
0001
0000
0110
0000
1000
0000
,  // measure 61
0010
0001
1000
0010
,  // measure 62
0200
0000
0000
0000
0000
0000
0000
0300
;

//---------------dance-single - ----------------
#NOTEDATA:;
#CHARTNAME:;
#STEPSTYPE:dance-single;
#DESCRIPTION:;
#CHARTSTYLE:;
#DIFFICULTY:Hard;
#METER:12;
#RADARVALUES:0.491962,0.544336,0.250103,0.298200,0.038477,358.000000,332.000000,26.000000,31.000000,0.000000,0.000000,0.000000,0.000000,0.000000,0.491962,0.544336,0.250103,0.298200,0.038477,358.000000,332.000000,26.000000,31.000000,0.000000,0.000000,0.000000,0.000000,0.000000;
#CREDIT:;
#DISPLAYBPM:150.000000;
#NOTES:
0000
0000
0000
0000
,
0000
0000
0000
0000
,
0000
0000
0000
0000
,
0100
0000
1001
0000
0100
0001
1000
0100
,
0000
0110
0000
1000
0001
0000
0000
0000
,
1000
0100
1000
0001
1000
0100
0001
0000
,
0001
0100
0001
1000
0001
0100
1000
0000
,
0020
0000
0001
0001
0000
1000
1030
0000
,
0200
0000
0001
0001
0000
1000
1300
0000
,
0010
1000
0100
0001
0100
1000
0100
0000
,
0100
0010
0010
0000
0100
1000
1000
0000
,
0012
0000
0100
0000
1000
1000
1003
0000
,
0010
0000
0102
0000
0010
0010
0013
0000
,
0100
1000
0010
0100
0010
1000
0100
0000
,
0010
0001
0001
0000
0010
1000
1000
0000
,
0010
0000
2100
0000
0010
0010
3010
0000
,
2010
0000
0100
0000
0001
0001
3001
0000
,
0210
0000
0001
0000
1000
1000
1000
0000
,
0010
0000
1300
0000
0001
1000
0200
0000
,
0010
0000
1000
0000
0001
0001
0001
0000
,
1000
0000
0001
0000
0010
0010
0310
0000
,
0120
0000
1000
0000
0001
0001
0001
0000
,
0100
0000
0031
0000
1000
0001
0020
0000
,
0100
0000
1000
0000
0001
0000
0100
0130
,
0000
0000
0000
0000
,
1000
1000
0100
0002
0000
0103
0100
1000
,
0000
1100
0000
0101
0000
1000
0001
0000
,
0010
0001
0100
0100
0010
0100
0001
0000
,
0010
1000
0010
0100
0001
0001
0001
0000
,
0120
0000
0001
0000
1030
1000
0001
0000
,
0120
0000
1000
0000
0031
0001
1000
0000
,
0210
0000
1000
0000
0310
0010
1000
0000
,
0210
0000
0001
0000
0310
0010
0001
0000
,
1000
0100
0200
0001
0000
0010
0000
0001
,
0000
0010
0000
1000
0000
0010
0310
0000
,
0010
0001
0100
1000
0000
0001
0000
1000
,
1000
0000
0000
0100
0000
0000
1000
0000
0001
0000
0000
0100
0000
0000
0001
0000
,
1000
0010
0020
0001
0000
0100
0000
0001
,
0000
0100
0000
1000
0000
0100
0130
0000
,
1000
0100
0000
1000
0100
0000
0010
0100
0000
0010
0100
0000
0001
0000
0001
0000
,
0001
0100
0000
0001
0100
0000
0010
0000
0000
0000
1000
0000
1000
0000
0000
0000
,
1000
0020
0001
0000
1000
1030
0100
0100
,
0001
0200
1000
0000
0001
0301
0010
0010
,
0001
0020
1000
0000
0001
0031
0100
0100
,
1000
0200
0001
0000
1000
1300
0010
0010
,
1000
0020
0001
0000
1000
1030
0100
0100
,
0001
0200
1000
0000
0001
0301
0010
0010
,
0001
0020
1000
0000
0001
0031
0100
0100
,
0000
0000
0000
0000
,
1000
1000
0100
0002
0000
0103
0100
1000
,
0000
1100
0000
0101
0000
1000
0001
0000
,
0010
0001
0100
0100
0010
0100
0001
0000
,
0010
1000
0010
0100
0001
0001
0001
0000
,
0120
0000
0001
0000
1030
1000
0001
0000
,
0120
0000
1000
0000
0031
0001
1000
0000
,
0210
0000
1000
0000
0310
0010
1000
0000
,
0210
0000
0001
0000
0310
0010
0001
0000
,
1001
0000
1100
0000
0001
1000
0100
0000
,
0001
1100
0001
2100
,
0010
0000
0100
0000
0010
0010
3020
0000
,
0100
0000
1000
0000
0130
0100
0001
0000
,
0010
0000
1100
0000
0010
0001
0100
0000
,
0010
0000
0101
0000
0010
1000
0100
0100
,
0000
0000
0000
0000
;

//---------------dance-double - ----------------
#NOTEDATA:;
#CHARTNAME:;
#STEPSTYPE:dance-double;
#DESCRIPTION:;
#CHARTSTYLE:;
#DIFFICULTY:Easy;
#METER:5;
#RADARVALUES:0.241858,0.272168,0.086574,0.134671,0.000000,176.000000,167.000000,9.000000,14.000000,0.000000,0.000000,0.000000,0.000000,0.000000,0.241858,0.272168,0.086574,0.134671,0.000000,176.000000,167.000000,9.000000,14.000000,0.000000,0.000000,0.000000,0.000000,0.000000;
#CREDIT:;
#DISPLAYBPM:150.000000;
#NOTES:
00000000
00000000
00000000
00000000
,
00000000
00000000
00000000
00000000
,
00000000
00000000
00000000
00000000
,
00001000
00000000
00000000
00000000
,
00000001
00000000
00000000
00000000
,
00000001
00000000
00000001
00000000
,
00001000
00000000
00001000
00000000
,
00010000
00000000
00010000
00000000
,
10000000
00000000
10000000
00000000
,
20000000
00000000
00000000
30000000
,
01000000
00000000
00010000
00000000
,
00001000
00000100
00000001
00000000
,
00002000
00000000
00000002
00003003
,
00000100
00001000
00010000
00000000
,
00010000
00001000
00000100
00000000
,
00000100
00001000
00010000
00000000
,
00001000
00010000
01000000
00000000
,
10000000
00000000
10010000
00000000
,
00010000
00000000
10010000
00000000
,
00100000
10000000
01000000
00010000
,
00001000
00000100
00000001
00000010
,
00000001
00000000
00001001
00000000
,
00001000
00000000
00001001
00000000
,
00000010
00000001
00000100
00001000
,
00000000
00000000
00000000
00000000
,
00010100
00001000
00000001
00000000
,
00000100
00001000
00010000
00000000
,
00000010
00001000
00010000
00000000
,
00100000
00010000
00001000
00000000
,
00010000
01000000
00010000
01000000
,
00010000
00001000
00010000
00001000
,
00000100
00001000
00000100
00001000
,
00020000
00000000
00002000
00033000
,
00001000
00000000
00000110
00000000
,
00000001
00000100
00001000
00000000
,
00010000
01000000
10000000
00100000
,
00100000
10000000
01000000
00010000
,
00010000
00000000
01100000
00000000
,
10000000
01000000
00010000
00000000
,
00001000
00000100
00000001
00000010
,
00000010
00000001
00000100
00001000
,
00020000
00000000
00001000
00031000
,
00002000
00000000
00010000
00013000
,
00010000
01000000
10000000
00100000
,
00100000
10000000
01000000
00010000
,
20000000
00000000
00010000
30010000
,
00020000
00000000
10000000
10030000
,
01000000
00000000
00010000
00001000
,
00000000
00000000
00000000
00000000
,
00010100
00001000
00000001
00000000
,
00000100
00001000
00010000
00000000
,
00000010
00001000
00010000
00000000
,
00100000
00010000
00001000
00000000
,
00010000
01000000
00010000
01000000
,
00010000
00001000
00010000
00001000
,
00000100
00001000
00000100
00001000
,
00020000
00000000
00002000
00033000
,
00001000
00000100
00000110
00000000
,
00010000
00001000
00000100
00000000
,
00000001
00000100
00001000
00010000
,
01000000
10000000
00100000
00000000
,
20000000
30000000
02000000
03000000
,
00020000
00000000
00000000
00000000
00000000
00000000
00000000
00030000
,
00000000
00000000
00000000
00000000
;

//---------------dance-double - ----------------
#NOTEDATA:;
#CHARTNAME:;
#STEPSTYPE:dance-double;
#DESCRIPTION:;
#CHARTSTYLE:;
#DIFFICULTY:Medium;
#METER:8;
#RADARVALUES:0.349045,0.393131,0.269342,0.182768,0.000000,254.000000,226.000000,28.000000,19.000000,0.000000,0.000000,0.000000,0.000000,0.000000,0.349045,0.393131,0.269342,0.182768,0.000000,254.000000,226.000000,28.000000,19.000000,0.000000,0.000000,0.000000,0.000000,0.000000;
#CREDIT:;
#DISPLAYBPM:150.000000;
#NOTES:
00000000
00000000
00000000
00000000
,
00000000
00000000
00000000
00000000
,
00000000
00000000
00000000
00000000
,
00010000
00000000
01000000
00000000
,
00010000
00000000
00001000
00000000
,
00000100
00001000
00010000
00001000
,
00000010
00001000
00010000
00010000
,
01000000
00010000
00001000
00010000
,
00100000
00010000
00001000
00001000
,
00001000
00000100
00000001
00000000
00000010
00000000
00000100
00000000
,
00000010
00000001
00000100
00000000
00000010
00000000
00000100
00000000
,
00000001
00000010
00001000
00000000
00000010
00000000
00010000
00000000
,
01000000
00010000
00001000
00000000
00000100
00000000
00001000
00000000
,
00010000
01000000
10000000
00000000
00100000
00000000
01000000
00000000
,
00100000
10000000
01000000
00000000
00100000
00000000
01000000
00000000
,
10000000
00100000
00010000
00000000
00100000
00000000
00001000
00000000
,
00000100
00001000
00010000
00000000
01000000
00000000
00010000
00000000
,
02000000
00000000
00010000
13000000
,
00020000
00000000
00001000
01030000
,
00002000
00000000
00000100
00013000
,
00000200
00000000
00001000
00000301
,
00002000
00000000
00010000
00003100
,
00020000
00000000
01000000
00031000
,
02000000
00000000
00000000
00000000
00010000
00000000
13000000
00200000
,
00000000
00000000
00000000
00300000
,
01100000
00010000
01100000
00010000
,
01100000
00001000
00010000
00001000
,
00000200
00000001
00001000
00000310
,
00000020
00001000
00000001
00000130
,
00000110
00000001
00000110
00010000
,
00001000
00010000
01000000
10000000
,
00010000
01000000
10000000
01000000
,
00001000
00010000
01000000
10000000
,
01100000
10000000
01100000
00010000
,
00001000
00000110
00000001
00000110
,
00000010
00001000
00000001
00000100
,
00010000
00000100
00001000
00000100
,
00000110
00000001
00000110
00001000
,
00010000
01100000
10000000
01100000
,
00020000
00030000
00002000
00003000
,
00000200
00000300
00000002
00000003
,
00000110
00010000
00001000
00000100
,
00000110
00010000
00000100
00001000
,
00000001
00000100
00001000
00010000
,
01000000
10000000
00010000
01000000
,
01100000
00001000
00010000
01000000
,
01100000
00001000
01000000
00010000
,
20000000
00000000
30000000
00000000
00020000
00000000
00030000
02000000
,
00000000
00000000
00000000
03000000
,
11000000
00010000
01010000
00100000
,
01100000
00001000
00000100
00000001
,
00000200
00000001
00000001
00000301
,
00000020
00001000
00001000
00001030
,
00000110
00001000
00000101
00010000
,
01000000
10000000
00100000
10000000
,
00100000
00010000
00100000
00001000
,
00100000
00010000
00001000
00000100
,
00000110
00000001
00000010
00001000
,
00000110
00000001
00000100
00001000
,
00000110
00000001
00000110
00001000
,
00100000
00010000
01000000
00010000
,
10000000
11000000
00010000
01010000
,
00100000
00000000
00010000
00000000
10000000
00000000
00100000
01000000
,
00000000
00000000
00000000
00000000
;

//---------------dance-double - ----------------
#NOTEDATA:;
#CHARTNAME:;
#STEPSTYPE:dance-double;
#DESCRIPTION:;
#CHARTSTYLE:;
#DIFFICULTY:Hard;
#METER:12;
#RADARVALUES:0.493336,0.544336,0.259723,0.182768,0.057716,359.000000,332.000000,27.000000,19.000000,0.000000,0.000000,0.000000,0.000000,0.000000,0.493336,0.544336,0.259723,0.182768,0.057716,359.000000,332.000000,27.000000,19.000000,0.000000,0.000000,0.000000,0.000000,0.000000;
#CREDIT:;
#DISPLAYBPM:150.000000;
#NOTES:
00000000
00000000
00000000
00000000
,
00000000
00000000
00000000
00000000
,
00000000
00000000
00000000
00000000
,
00010100
00000000
00011000
00000000
00010000
01000000
10000000
00100000
,
00000000
01100000
00000000
00001000
00010000
00000000
00000000
00000000
,
00001000
00000100
00000001
00000020
00000000
00000100
00000130
00000000
,
00010000
00000010
00001000
00000200
00000000
00000001
00000301
00000000
,
00000110
00000000
00010000
00001000
00000000
00001000
00010000
01000000
,
10000000
00100000
00020000
00000000
10000000
00000000
00130000
00000000
,
10000000
01000000
00100000
00001000
01000000
00010000
00100000
00000000
,
00100000
00001000
00010000
00000000
00000010
00010000
00001000
00000000
,
00100000
00000000
00000000
00010000
00000000
00000000
01000000
00000000
00100000
00000000
00010000
00000000
00001000
00000000
00000000
00000000
,
00000010
00000000
00000000
00001000
00000000
00000000
00000100
00000000
00000010
00000000
00001000
00000000
00010000
00000000
00000000
00000000
,
00001000
00000100
00000010
00001000
00000100
00000010
00001000
00000000
,
00010000
01000000
10000000
00000000
10000000
01000000
00010000
00000000
,
00100000
00000000
00000000
00001000
00000000
00000000
01000000
00000000
01000000
00000000
00010000
00000000
00100000
00000000
00000000
00000000
,
00100000
00000000
00000000
00010000
00000000
00000000
01000000
00000000
01000000
00000000
00001000
00000000
00100000
00000000
00000000
00000000
,
00100000
10000000
02000000
00000000
00010000
00010000
03010000
00000000
,
00100000
00010000
02000000
00000000
10000000
10000000
13000000
00000000
,
00100000
00010000
00001000
00010000
00100000
00010000
00001000
00000100
,
00000010
00010000
00001000
00100000
00001000
00010000
00000010
00000000
,
00000010
00010000
00002000
00000000
00000100
00000100
00003100
00000000
,
00000100
00001000
00020000
00000000
01000000
01000000
01030000
00000000
,
00100000
00010000
10000000
00010000
01000000
00100000
00010000
00001000
,
00000000
00000000
00000000
00000000
,
00001000
00000100
00001000
00000100
00000000
00000001
00000000
00000110
,
00000000
00011000
00000000
02100000
00000000
10000000
13000000
00000000
,
00001000
00010000
01000000
00000000
00001000
00100000
01000000
00000000
,
00010000
00001000
00000100
00000001
00000010
00001000
00010000
00000000
,
00010000
00001000
00000100
00000000
00000110
00000000
00011000
00000000
,
00001000
00010000
01000000
00000000
01100000
00000000
00011000
00000000
,
00010000
01000000
10000000
00000000
10000000
01000000
00010000
00000000
,
00001000
00000100
00000001
00000000
00000001
00000100
00001000
00000000
,
00010000
00001000
00000100
00000020
00000000
00000001
00000000
00000100
,
00000000
00001000
00000000
00010000
00000000
00001000
00000000
00000100
,
00000000
00000001
00000000
00000100
00000000
00001000
00000030
00010000
,
00001000
00000000
00000000
00010000
00000000
00000000
01000000
00000000
00010000
00000000
00000000
00001000
00000000
00000000
00000100
00000000
,
00001000
00010000
01000000
00200000
00000000
00001000
00000000
00010000
,
00000000
00001000
00000000
01000000
00000000
00010000
00300000
01000000
,
10000000
01000000
00000000
00100000
01000000
00000000
00010000
01000000
00000000
00100000
01000000
00000000
00010000
00000000
00001000
00000000
,
00001000
00000100
00000000
00000010
00000100
00000000
00000001
00000000
00000000
00000000
00000100
00000000
00000100
00000000
00000000
00000000
,
00000001
00000100
00001000
00000000
00000110
00000000
00000001
00000000
,
00000100
00001000
00010000
00000000
00101000
00000000
01000000
00000000
,
20000000
32000000
03020000
00230000
,
20300000
30200000
00320000
01030000
,
10000000
01000000
00010000
00000000
01100000
00000000
10000000
00000000
,
01000000
00010000
00001000
00000000
00010010
00000000
00000100
00000000
,
00000101
00000000
00001100
00000000
00000001
00001000
00000000
00000100
,
00000000
00000000
00000000
00000000
,
00000001
00000100
00001000
00000100
00000000
00000110
00000000
00011000
,
00000000
01100000
00000000
12000000
00010000
00000000
03010000
00000000
,
00010000
00001000
00000100
00000000
00001000
00000001
00000010
00000000
,
00000010
00000100
00001000
00010000
01000000
00100000
10000000
00000000
,
01000000
00010000
00001000
00000000
00010010
00000000
00001100
00000000
,
00000010
00001000
00010000
00000000
01001000
00000000
00110000
00000000
,
01000000
00010000
00100000
00000000
01000000
00100000
00001000
00000000
,
00010000
00000010
00000100
00000000
00000010
00001000
00000100
00000000
,
00000001
00000100
00001000
00010000
00001000
00000100
00000001
00000000
,
00000010
00000100
00001000
00000000
00000010
00000100
00000001
00000000
,
00002000
00010000
00000100
00010000
,
00000010
00010000
00000010
00013000
,
00010000
01000000
10000000
00000000
01010000
00000000
11000000
00000000
,
10000000
01000000
00010000
00000000
00001000
00000100
00000001
00001000
,
00000000
00000000
00000000
00000000
;

//---------------dance-single - ----------------
#NOTEDATA:;
#CHARTNAME:;
#STEPSTYPE:dance-single;
#DESCRIPTION:;
#CHARTSTYLE:;
#DIFFICULTY:Challenge;
#METER:13;
#RADARVALUES:0.644497,0.640108,0.586781,0.192387,0.163529,469.000000,408.000000,61.000000,20.000000,0.000000,0.000000,0.000000,0.000000,0.000000,0.644497,0.640108,0.586781,0.192387,0.163529,469.000000,408.000000,61.000000,20.000000,0.000000,0.000000,0.000000,0.000000,0.000000;
#CREDIT:;
#DISPLAYBPM:150.000000;
#NOTES:
0000
0000
0000
0000
,
0000
0000
0000
0000
,
0000
0000
0000
0000
,
1100
0000
0101
0000
1000
0100
0010
0001
,
0100
0010
1000
0001
0010
0100
1000
0000
,
0001
0010
0100
1000
0010
0100
0001
1000
,
0100
0010
0001
0010
0100
1000
0001
1000
,
0010
1000
0100
0010
0000
0001
0001
0000
,
0100
0001
0100
0010
1000
0100
0001
0000
,
0020
0000
0000
1030
0000
0000
1010
0000
0000
0000
0110
0000
0000
0101
0000
0001
,
2000
0000
0000
3001
0000
0000
0011
0000
0000
0000
1001
0000
0000
1010
0000
0010
,
0200
0000
0000
0310
0000
0000
0101
0000
0000
0000
1001
0000
0000
1100
0000
1000
,
0002
0000
0000
1003
0000
0000
1001
0000
0000
0000
1010
0000
0000
1100
0000
0000
,
2000
0000
0000
3100
0000
0000
1100
0000
0000
0000
1010
0000
0000
0110
0000
0100
,
0002
0000
0000
1003
0000
0000
1010
0000
0000
0000
0110
0000
0000
0101
0000
0001
,
0200
0000
0000
0310
0000
0000
1010
0000
0000
0000
1001
0000
0000
1100
0000
1000
,
0020
0000
0000
1030
0000
0000
1001
0000
1000
0000
0100
0000
0010
0000
0001
0000
,
0101
0000
0100
0010
1000
0100
0010
0001
,
0011
0000
0100
0010
1000
0100
0010
0001
,
0101
0000
0100
0010
1000
0100
0010
0001
,
0100
0001
0010
0100
1000
0001
0100
0010
,
0110
0000
0010
1000
0001
0010
0100
1000
,
1001
0000
0010
1000
0001
0010
0100
1000
,
0010
0000
0110
0000
1001
0000
0101
1100
,
0000
1001
1001
1001
,
1001
0010
1000
0100
0010
0001
0100
0010
,
1000
0100
0010
0001
0010
0100
1000
0000
,
1010
0010
0100
0010
1000
0100
0010
0001
,
0010
0001
0100
0001
0010
0100
1000
0000
,
0110
0100
0001
0010
0100
1000
0001
1000
,
0010
1000
0100
0010
0001
1000
0001
0100
,
0010
1000
0100
0010
0001
0100
1000
0000
,
0010
0100
0001
1000
0100
0010
0001
0000
,
1000
0010
1000
0001
0000
0011
0000
0101
,
0000
1001
0000
1010
0000
1100
0000
1000
,
0001
0100
0010
1000
0000
0001
0000
0100
,
0002
0000
0000
2003
0000
0000
3010
0000
0020
0000
0000
0230
0000
0000
0301
0000
,
0001
0010
0001
0000
1000
0000
0001
0010
0001
0000
1000
0000
0010
0100
0010
0000
,
1000
0000
0010
0100
0010
0000
1000
0000
0100
0010
0100
0000
1000
0000
0000
0000
,
1000
0100
0000
0100
0001
0000
1000
0010
0000
0010
0001
0000
0100
0000
0010
0000
,
1000
0100
0000
0010
0001
0000
0100
0000
0001
0000
0010
0000
0100
0000
1000
0000
,
1010
0000
0000
1000
0001
0100
0010
1000
,
1001
0000
0000
0001
0010
0001
0100
0010
,
0120
0000
0000
2030
0000
3002
0000
0203
,
0000
0310
0000
0110
0010
1000
0001
0100
,
0101
0000
0000
0001
1000
0001
0010
0100
,
1100
0000
0000
1000
0010
0100
0001
1000
,
0010
0000
0110
0000
1001
0000
0011
1010
,
0000
1001
1001
1001
,
1001
0010
1000
0010
1000
0100
0010
0001
,
0100
1000
0100
0010
0100
0001
0100
0000
,
0101
0001
1000
0100
0010
0001
1000
0100
,
1000
0010
0001
0010
1000
0100
0010
0000
,
1001
1000
0010
0100
0010
0100
0001
1000
,
0010
1000
0100
0010
0001
0100
0010
1000
,
0010
1000
0010
0100
0010
0001
0010
0000
,
0010
0001
0010
0100
0010
1000
0010
0000
,
1000
0001
0100
0001
0010
0100
1000
0010
,
0200
0320
2030
3002
,
0013
0001
0100
1000
0100
0001
0010
0000
,
0100
1000
0010
0001
0010
1000
0100
0000
,
0010
1000
0010
1000
0001
0100
0001
0100
,
0001
0001
0010
0010
0100
0100
1000
1000
,
0000
0000
1001
0010
0000
0000
0000
0000
;
