#TITLE:KISS KISS KISS 秋葉工房 MIX;
#SUBTITLE:;
#ARTIST:Remixed by DJ Command;
#TITLETRANSLIT:KISS KISS KISS (AKBK MIX);
#SUBTITLETRANSLIT:;
#ARTISTTRANSLIT:;
#GENRE:;
#CREDIT:;
#BANNER:KISS KISS KISS (AKBK MIX)-bn.png;
#BACKGROUND:KISS KISS KISS (AKBK MIX)-bg.png;
#LYRICSPATH:;
#CDTITLE:;
#MUSIC:KISS KISS KISS (AKBK MIX).ogg;
#OFFSET:0.000000;
#SAMPLESTART:49.869999;
#SAMPLELENGTH:20.000000;
#SELECTABLE:YES;
#DISPLAYBPM:160.000000;
#BPMS:0.000000=160.000000
;
#STOPS:
;
#BGCHANGES:;
#KEYSOUNDS:;
#ATTACKS:;

//---------------dance-single - ----------------
#NOTES:
     dance-single:
     :
     Beginner:
     2:
     0.128246,0.191988,0.044442,0.000000,0.000000,101.000000,96.000000,5.000000,0.000000,0.000000,0.000000,0.128246,0.191988,0.044442,0.000000,0.000000,101.000000,96.000000,5.000000,0.000000,0.000000,0.000000:
// measure 0
0000
0000
0000
0000
,  // measure 1
0000
0000
0000
0000
,  // measure 2
0000
0000
0000
0000
,  // measure 3
0000
0000
0000
0000
,  // measure 4
0000
0000
0000
0000
,  // measure 5
0000
0000
0000
0000
,  // measure 6
0001
0000
0001
0000
,  // measure 7
1000
0000
1000
0000
,  // measure 8
0100
0000
0100
0000
,  // measure 9
0000
0000
0000
0000
,  // measure 10
0001
0000
0100
0000
,  // measure 11
1000
0000
0100
0000
,  // measure 12
0001
0000
0000
0000
,  // measure 13
1000
0000
0000
0000
,  // measure 14
1000
0000
0100
0000
,  // measure 15
0001
0000
0100
0000
,  // measure 16
1000
0000
0000
0000
,  // measure 17
0001
0000
0000
0000
,  // measure 18
0010
0000
0000
0000
,  // measure 19
0100
0000
0000
0000
,  // measure 20
0010
0000
0000
0000
,  // measure 21
0100
0000
0000
0000
,  // measure 22
0001
0000
0000
0000
,  // measure 23
1000
0000
0000
0000
,  // measure 24
0001
0000
0000
0000
,  // measure 25
1000
0000
0000
0000
,  // measure 26
0001
0000
0001
0000
,  // measure 27
0001
0000
0000
0000
,  // measure 28
1000
0000
1000
0000
,  // measure 29
1000
0000
0000
0000
,  // measure 30
0010
0000
0010
0000
,  // measure 31
0010
0000
0000
0000
,  // measure 32
0100
0000
0100
0000
,  // measure 33
0100
0000
0000
0000
,  // measure 34
0001
0000
0100
0000
,  // measure 35
0001
0000
0100
0000
,  // measure 36
0001
0000
0000
0000
,  // measure 37
0010
0000
0000
0000
,  // measure 38
1000
0000
1000
0000
,  // measure 39
0001
0000
0001
0000
,  // measure 40
1001
0000
0000
0000
,  // measure 41
0000
0000
0000
0000
,  // measure 42
0100
0000
0000
0000
,  // measure 43
0100
0000
0000
0000
,  // measure 44
0010
0000
0000
0000
,  // measure 45
0010
0000
0000
0000
,  // measure 46
1000
0000
1000
0000
,  // measure 47
1000
1000
1000
0000
,  // measure 48
0001
0000
0001
0000
,  // measure 49
0001
0001
0001
0000
,  // measure 50
0100
0000
0000
0000
,  // measure 51
0010
0000
0000
0000
,  // measure 52
0100
0000
0100
0000
,  // measure 53
0100
0000
0000
0000
,  // measure 54
0001
0000
0000
0000
,  // measure 55
1000
0000
0000
0000
,  // measure 56
0001
0000
1000
0000
,  // measure 57
1001
0000
0000
0000
,  // measure 58
0100
0000
1000
0000
,  // measure 59
0100
0000
1000
0000
,  // measure 60
0100
0000
0000
0000
,  // measure 61
0010
0000
0000
0000
,  // measure 62
0001
0000
0001
0000
,  // measure 63
1000
0000
1000
0000
,  // measure 64
1001
0000
0000
0000
,  // measure 65
1001
0000
0000
0000
,  // measure 66
0001
0000
0100
0000
,  // measure 67
1000
0000
0100
0000
,  // measure 68
0001
0000
0000
0000
,  // measure 69
0010
0000
0000
0000
,  // measure 70
1000
0000
0001
0000
,  // measure 71
1000
0000
0001
0000
,  // measure 72
1001
0000
0000
0000
;

//---------------dance-single - ----------------
#NOTES:
     dance-single:
     :
     Easy:
     5:
     0.227287,0.322202,0.017777,0.044442,0.000000,179.000000,177.000000,2.000000,5.000000,0.000000,0.000000,0.227287,0.322202,0.017777,0.044442,0.000000,179.000000,177.000000,2.000000,5.000000,0.000000,0.000000:
0000
0000
0000
0000
,
0000
0000
0000
0000
,
0000
0000
0000
0000
,
0000
0000
0000
0000
,
0000
0000
0000
0000
,
0000
0000
0000
0000
,
0010
0010
0010
0010
,
0100
0100
0100
0100
,
0001
0001
1000
1000
,
0000
0000
0000
0000
,
0010
0000
0010
0000
,
0001
0100
1000
0000
,
0010
0000
0010
0000
,
1000
0100
0001
0000
,
0010
0000
0010
0000
,
0100
0001
1000
0000
,
0001
0001
1000
1000
,
0000
0000
0000
0000
,
0001
0000
0001
0000
,
1000
0001
0010
0000
,
0100
0000
0100
0000
,
0010
1000
0001
0000
,
1000
0000
1000
0000
,
0001
0100
0010
0000
,
0002
0000
0000
0000
,
0003
0000
1000
0001
,
1000
0000
0010
0100
,
0010
0000
0001
1000
,
0010
0100
0001
1000
,
0100
0000
0100
0010
,
0100
0000
0001
1000
,
0001
0000
0100
0010
,
0100
0010
0010
0010
,
0000
0000
0000
0000
,
0001
0001
1000
1000
,
0001
1000
0010
0000
,
0100
0000
0010
0010
,
1000
0001
0100
0000
,
0010
0000
1000
1000
,
0100
0000
0001
0001
,
0100
0000
0010
0000
,
0020
0000
0000
0030
,
0100
0100
0100
0100
,
0010
0010
0010
0010
,
1000
1000
0001
0001
,
1000
0001
1001
0000
,
0010
0001
0010
0001
,
0010
0001
0100
0000
,
0020
0000
0000
0030
,
0110
0000
0000
0000
,
1000
0000
0100
0010
,
1000
0000
0001
0000
,
1000
0001
0100
0000
,
1000
0000
0001
0000
,
0010
0000
0010
0100
,
0001
0000
1000
0100
,
0000
0010
1000
0001
,
0000
0000
0000
0000
,
1000
1000
0001
0001
,
1000
0001
0010
0000
,
0100
0000
0010
0010
,
0001
1000
0100
0000
,
0010
0000
0001
0001
,
0100
0000
1000
1000
,
0100
0000
0010
0000
,
0020
0000
0000
0030
,
0100
0000
0010
1000
,
0100
0000
0010
0001
,
0100
0000
0100
0000
,
0010
0000
0010
0000
,
1000
0001
0100
0010
,
1000
0100
0001
0200
,
0000
0000
0300
0000
,
;

//---------------dance-single - ----------------
#NOTES:
     dance-single:
     :
     Medium:
     8:
     0.344106,0.418863,0.231097,0.239985,0.000000,271.000000,245.000000,26.000000,27.000000,0.000000,0.000000,0.344106,0.418863,0.231097,0.239985,0.000000,271.000000,245.000000,26.000000,27.000000,0.000000,0.000000:
0000
0000
0000
0000
,
0000
0000
0000
0000
,
0000
0000
0000
0000
,
0000
0000
0000
0000
,
0000
0000
0000
0000
,
0000
0000
0000
0000
,
1000
1000
0010
0001
,
1000
0010
0001
0010
,
0100
0000
0001
0000
1000
0000
0100
0200
,
0000
0000
0300
0000
,
1000
0001
0100
0000
0001
0000
0001
0000
,
0001
1000
0100
0000
1000
0000
1000
0000
,
0001
1000
0001
1000
,
0010
0000
0010
0100
0010
0000
0000
0000
,
0100
0001
0010
0000
0001
0000
0001
0000
,
0100
1000
0010
0000
1000
0000
1000
0000
,
0100
0000
0001
0000
0010
0000
0100
0100
,
0000
0010
0010
0000
0100
0010
0100
0000
,
2000
0000
0001
3100
,
0010
0001
0100
0010
,
0002
0000
1000
0103
,
1001
0000
0010
0100
,
0002
1000
0010
0100
,
1000
0010
0013
1100
,
0001
1000
0010
0100
,
1001
0000
2000
0100
,
3100
0000
0002
0100
,
0103
0000
0020
0031
,
0020
1030
0020
0031
,
0100
0000
0020
0001
,
0130
0000
0020
1000
,
0130
0000
0020
0100
,
0130
0000
0011
0000
1010
0000
0100
0010
,
0000
0000
0000
0000
,
1000
0001
1000
0000
0101
0000
0010
0000
,
1000
0000
0001
0100
0010
0000
0000
0000
,
0010
0100
1000
0010
,
0001
0000
0100
0010
0100
0000
0000
0000
,
1100
1000
2000
0010
,
0100
0001
0100
0010
,
3100
1001
0100
0100
,
0120
0001
0002
0033
,
2001
0001
0010
0010
,
0100
0100
0010
0010
,
0100
0000
0100
0000
0001
0001
3001
0000
,
1000
0001
1001
0000
,
2000
0010
3020
0100
,
0230
0000
0001
0000
0302
0000
1000
1000
,
2003
0000
0000
3000
,
1001
0000
0000
0000
,
1100
0000
0010
0001
,
0101
0000
0010
1000
,
0001
0000
1000
0010
0100
0000
0001
0000
,
0010
0000
0001
1000
,
1010
0000
0100
0001
,
0011
0000
0000
0000
1000
0000
0010
0010
,
0100
0000
0001
0000
1000
0001
0100
0100
,
0000
0000
0000
0000
,
0001
1000
0001
0000
1010
0000
0100
0000
,
0001
0000
1000
0010
0100
0000
0000
0000
,
0100
0010
0001
0100
,
1000
0000
0010
0100
0010
0000
0000
0000
,
0011
0100
1010
0100
,
0011
0100
1010
0100
,
0010
1001
0100
0100
,
0210
1000
2000
3300
,
1001
0000
0000
0000
0010
0000
1000
0100
,
0010
0100
1000
0001
,
0100
0000
0010
0200
0000
0000
0010
0000
,
1300
0000
0001
2000
0000
0000
3010
0000
,
0200
0000
0001
0301
,
0010
0000
1100
0000
0101
0000
0010
0200
,
0000
0000
0300
0000
,
;

//---------------dance-single - ----------------
#NOTES:
     dance-single:
     :
     Hard:
     12:
     0.499017,0.579964,0.319980,0.159990,0.031109,393.000000,357.000000,36.000000,18.000000,0.000000,0.000000,0.499017,0.579964,0.319980,0.159990,0.031109,393.000000,357.000000,36.000000,18.000000,0.000000,0.000000:
0000
0000
0000
0000
,
0000
0000
0000
0000
,
0000
0000
0000
0000
,
0000
0000
0000
0000
,
0000
0000
0000
0000
,
0000
0000
0000
0000
,
0001
1001
0010
0100
,
1000
1001
0100
0010
,
0001
0000
1001
0000
0010
0000
0100
0200
,
0000
0000
0000
0300
,
0001
0010
0100
0100
1000
0010
0100
0000
,
0100
0010
1000
1000
0100
0010
1000
0000
,
0100
0000
1100
0000
0001
1000
0010
0000
,
0001
0010
0100
1000
0010
0100
0001
0000
,
1000
0100
0001
0001
1000
0010
0001
0000
,
0010
0100
1000
1000
0010
0100
1000
0000
,
1000
0000
0101
0000
1000
0000
0010
1001
,
0000
0100
0010
0000
1000
0100
0001
0000
,
0100
0010
0000
1000
0000
0101
0000
0002
,
1000
1000
0000
0100
0000
1000
0000
0013
,
0100
0010
0000
1000
0000
0001
0000
1000
,
0100
0010
0000
1001
0000
0100
0001
0010
,
0001
1000
0000
0010
0000
1100
0000
2000
,
0010
0010
0000
0001
0000
0010
0000
3001
,
1000
0001
0000
0010
0000
0100
0000
1000
,
0010
0000
1001
1000
0000
1000
0100
0010
,
0001
0000
1000
1000
0000
0001
0010
0100
,
1000
0000
0001
0001
0000
1000
0010
0001
,
0100
1000
0010
0101
,
2010
0000
3100
0000
0100
0010
0001
0100
,
1000
0000
0100
0000
0010
1000
0010
0001
,
0100
0000
0010
0000
0100
0001
0010
0100
,
1000
0000
0001
0000
1000
0000
0100
0100
,
0000
0000
0000
0000
,
0001
0010
1000
0100
0010
0001
0100
0010
,
0000
1000
0000
0001
0010
0100
0010
0000
,
1000
0010
0001
0100
0010
1000
0100
0010
,
0000
0001
0000
0100
0001
0010
0100
0000
,
1020
0100
0032
0203
,
0010
1300
0001
1000
,
1010
0000
1001
0000
0010
0001
0100
0000
,
2100
0001
0020
3030
,
0010
1000
0010
1000
0000
0010
0000
1001
,
0001
0010
0000
0102
0000
1003
0100
0000
,
0010
0001
0010
0001
0000
0100
0000
1001
,
1000
0000
0100
0000
0000
0000
0010
0000
0100
0000
0000
0100
0000
0000
0100
0000
,
0001
0010
0100
1000
0010
0100
0001
0010
,
0100
0000
1000
0000
0000
0100
0000
0000
0010
0000
0000
0001
0000
0000
0100
0000
,
0010
1000
0000
0010
1000
0000
0001
0100
0000
0001
0100
0000
0010
0000
1000
0000
,
2002
0000
0000
3003
,
0110
0000
0010
0100
0000
1000
0100
0010
,
0001
0000
0100
0010
0000
0001
0100
1000
,
0010
0000
0001
1000
0000
1010
0000
0102
,
0000
0010
0013
0100
0000
0100
1000
0010
,
0001
0000
0100
0010
0000
0001
0100
1000
,
0010
0000
0100
0010
0000
1000
0100
0010
,
0001
0000
1000
0000
0001
1000
0000
1001
,
0000
0000
0000
0000
,
1000
0100
0001
0010
0000
0100
0010
0011
,
0000
0100
0010
1010
0000
0100
0010
0000
,
0001
0100
1000
0010
0000
0100
0010
1010
,
0000
0100
0010
0011
0000
0100
0010
0000
,
0101
0000
0010
0100
0000
1000
0001
0010
,
0110
0000
1100
0000
0011
0000
1010
0001
,
0100
0000
1000
0000
0001
1000
0010
0100
,
0002
0000
1000
1000
0003
1000
0001
0000
,
1001
0000
1000
0010
1000
0001
0100
0010
,
1000
0000
1001
0000
0010
0100
0010
1000
,
0001
0000
0100
0200
0000
0010
0310
0000
,
0001
0000
0010
0020
0000
0100
0130
1000
,
1100
0000
0010
0001
1000
0100
1000
0001
,
0020
0000
1000
0000
0130
0001
0010
2000
,
0000
0000
3000
0000
;

//---------------dance-double - ----------------
#NOTES:
     dance-double:
     :
     Easy:
     4:
     0.213320,0.286982,0.097772,0.071107,0.000000,168.000000,157.000000,11.000000,8.000000,0.000000,0.000000,0.213320,0.286982,0.097772,0.071107,0.000000,168.000000,157.000000,11.000000,8.000000,0.000000,0.000000:
00000000
00000000
00000000
00000000
,
00000000
00000000
00000000
00000000
,
00000000
00000000
00000000
00000000
,
00000000
00000000
00000000
00000000
,
00000000
00000000
00000000
00000000
,
00000000
00000000
00000000
00000000
,
00000100
00000100
00000100
00000100
,
00010000
00010000
00010000
00010000
,
00100000
00100000
00100000
00100000
,
00000000
00000000
00000000
00000000
,
10000000
00000000
00010000
00000000
,
00100000
00001000
00010000
00000000
,
00000010
00000000
00000100
00000000
,
00000001
00000100
00000010
00000000
,
00001000
00000000
00000100
00000000
,
00010000
00001000
00010000
00000000
,
00100000
00000000
10000000
00000000
,
00010000
00000000
10000000
00000000
,
10010000
00000000
00000000
00000000
,
00010000
00000000
01000000
00000000
,
00100000
00000000
00000000
00000000
,
00001000
00000000
00000000
00000000
,
00000100
00000000
00000000
00000000
,
00000001
00000000
00001000
00000000
,
00000010
00000000
00000010
00000000
,
00000200
00000000
00000300
00000000
,
00000001
00000000
00001000
00001000
,
00000100
00000000
00010000
00000000
,
00001000
00001000
00100000
00000000
,
00010000
00000000
01000000
00000000
,
00100000
00000000
10000000
10000000
,
01000000
00000000
00010000
00010000
,
00001000
00010000
00001000
00010000
,
00000000
00000000
00000000
00000000
,
00000010
00000000
00000010
00000000
,
00000100
00001000
00010000
00000000
,
01000000
00000000
01000000
00000000
,
00100000
00010000
00001000
00000000
,
00010000
00000000
00001000
00000000
,
00011000
00000000
00010100
00000000
,
00000020
00000000
00000001
00000031
,
00002000
00000000
00000002
00003003
,
00000010
00000000
00000010
00000010
,
00001000
00000000
00010000
00000000
,
00001000
00000000
00100000
00100000
,
00010000
00000000
10010000
00000000
,
01000000
01000000
01000000
01000000
,
00001000
00001000
00001000
00001000
,
00000010
00000000
00000010
00000000
,
00000110
00000000
00000000
00000000
,
00000001
00000000
00000100
00000100
,
00001000
00000000
00010000
00010000
,
00001000
00000000
00100000
00000000
,
01000000
00000000
10000000
10000000
,
00100000
00000000
01000000
01000000
,
00010000
00000000
00100000
00100000
,
00001000
00010000
00001000
00010000
,
00000000
00000000
00000000
00000000
,
00000010
00000000
00000010
00000000
,
00000100
00001000
00010000
00000000
,
01000000
00000000
01000000
00000000
,
00100000
00010000
00001000
00000000
,
00010000
00000000
00001000
00000000
,
00011000
00000000
00001100
00000000
,
00000020
00000000
00000001
00000031
,
00002000
00000000
00000002
00003003
,
00001001
00000000
00011000
00000000
,
00001000
00000100
00001000
00000000
,
00010000
00000000
00010000
00000000
,
00200000
00000000
01300000
00000000
,
10010000
00000000
00011000
00000000
,
00010000
00010000
00001000
00000100
,
;

//---------------dance-double - ----------------
#NOTES:
     dance-double:
     :
     Medium:
     8:
     0.342836,0.386643,0.266650,0.355533,0.000000,270.000000,240.000000,30.000000,40.000000,0.000000,0.000000,0.342836,0.386643,0.266650,0.355533,0.000000,270.000000,240.000000,30.000000,40.000000,0.000000,0.000000:
00000000
00000000
00000000
00000000
,
00000000
00000000
00000000
00000000
,
00000000
00000000
00000000
00000000
,
00000000
00000000
00000000
00000000
,
00000000
00000000
00000000
00000000
,
00000000
00000000
00000000
00000000
,
00010000
00010000
00001000
00001000
,
00000010
00000010
00000001
00000001
,
00000100
00000000
00000100
00000000
00001000
00000000
00001000
00020000
,
00000000
00000000
00030000
00000000
,
00010000
00001000
00100000
00110000
,
00010000
20000000
02000000
33000000
,
00100000
00001000
00010000
00011000
,
00000010
00000000
00000100
00000010
00000100
00000000
00000000
00000000
,
00001000
00000010
00000100
00000101
,
00001000
00020000
00002000
00033000
,
00010000
00000000
01000000
00000000
00100000
00000000
01000000
01000000
,
00000000
00100000
00100000
00000000
01000000
10000000
01000000
00000000
,
20000000
00000000
01000000
31000000
,
00010000
00001000
00010000
01000000
,
00200000
00000000
00010000
00301000
,
00011000
00000000
00000100
00000010
,
00000002
00000100
00001000
00000103
,
00000010
00000110
00001000
00010000
,
01000000
10000000
00100000
00010000
,
11000000
00000000
00000000
00000000
,
00202000
00303000
00010000
00000100
,
00000022
00000033
00000100
00001000
,
01100000
00010000
00100000
10000000
,
01000000
00010000
00100000
10000000
,
20020000
30030000
00010000
00001000
,
00022000
00033000
00000001
00001000
,
00001001
00000000
00000010
00000000
00000100
00000000
00000010
00000010
,
00000000
00000000
00000000
00000000
,
00000001
00000100
00001000
00000000
00010000
00000000
00001000
00000000
,
00200000
01000000
10000000
00310000
,
10000000
01000000
00010000
00000000
00001000
00000000
00010000
00000000
,
00000020
00000100
00000001
00001030
,
00000001
00000101
00001000
00001100
,
00000010
00000000
00000100
00000000
00001000
00010000
00001000
00000000
,
00020000
00100000
00001000
01030000
,
20000000
00000000
00020000
30030000
,
10000000
01000000
00010000
00000000
00001000
00000000
00011000
00000000
,
00001000
00000100
00000010
00001000
,
00000001
00000100
00001000
00000000
00010000
00000000
01000000
00000000
,
00100000
00001000
00011000
00000000
,
00002000
00000100
00010000
00100000
,
01000000
00010000
00100000
00010000
,
00003100
00000001
00001000
00010000
,
00011000
00000000
00000000
00000000
,
00020200
00030300
00001000
00100000
,
22000000
33000000
00100000
00010000
,
00000110
00001000
00000100
00000001
,
00000010
00001000
00000100
00000001
,
00002002
00003003
00001000
00010000
,
00022000
00033000
10000000
00010000
,
10010000
00000000
01000000
00000000
00100000
00100000
00000000
10010000
,
00000000
00000000
00000000
00000000
,
10000000
00100000
00010000
00000000
00001000
00000000
00010000
00000000
,
00000200
00000010
00000001
00001300
,
00000001
00000010
00001000
00000000
00010000
00000000
00001000
00000000
,
02000000
00100000
10000000
03010000
,
10200000
10300000
00210000
00310000
,
01000000
00000000
00100000
00000000
00010000
00001000
00010000
00000000
,
00002000
00000100
00010000
00003010
,
00000002
00000000
00002000
00003003
,
00001100
00000000
00000010
00010000
,
00001000
00000000
00011000
00000000
00100000
00010000
00001000
00000000
,
00010000
01000000
20000000
00000000
,
30010000
01000000
20000000
00000000
,
31000000
00000000
00100000
00010000
,
00101000
00000000
00011000
00000000
00010000
00000100
00001000
00000020
,
00000000
00000000
00000030
00000000
,
;

//---------------dance-double - ----------------
#NOTES:
     dance-double:
     :
     Hard:
     12:
     0.482510,0.579964,0.151102,0.177767,0.039998,380.000000,363.000000,17.000000,20.000000,0.000000,0.000000,0.482510,0.579964,0.151102,0.177767,0.039998,380.000000,363.000000,17.000000,20.000000,0.000000,0.000000:
00000000
00000000
00000000
00000000
,
00000000
00000000
00000000
00000000
,
00000000
00000000
00000000
00000000
,
00000000
00000000
00000000
00000000
,
00000000
00000000
00000000
00000000
,
00000000
00000000
00000000
00000000
,
10000000
01000000
00100000
10000000
,
00010000
00001000
00000001
00000100
,
00000001
00000000
00000010
00000000
00000100
00010000
00001000
00020000
,
00000000
00000000
00000000
00030000
,
00001000
00010000
00001000
00100000
01000000
10000000
01000000
00000000
,
00100000
00010000
00100000
00001000
00000010
00000100
00000010
00000000
,
00000010
00001000
00010000
00000000
00001000
00010000
00100000
00000000
,
00100000
10000000
01000000
00010000
00001000
00000100
00000001
00000000
,
00000010
00000100
00000010
00001000
00010000
00000100
00010000
00000000
,
00001000
00100000
00001000
01000000
00010000
10000000
00010000
00000000
,
00100000
00010000
01000000
10000000
01000000
00001000
00010000
00011000
,
00000000
00000000
00001000
00000000
00010000
00000000
00000000
00000000
00000100
00001000
00000000
00000100
00001000
00000000
00000010
00000000
,
00000200
00000001
00000000
00000301
00000000
00001000
00010000
00001000
,
00200000
00010000
00000000
00310000
00000000
10000000
00010000
00100000
,
02000000
10000000
00000000
13000000
00000000
10000000
01000000
00010000
,
00001000
00010000
00000000
00000100
00000000
00000010
00000000
00000001
,
00000200
00001000
00000000
00000310
00000000
00010000
00001000
00010000
,
02000000
00100000
00000000
13000000
00000000
00100000
00010000
01000000
,
00002000
00010000
00000000
00003010
00000000
00000001
00000010
00000100
,
00001000
00000000
00000001
00000100
00000000
00001000
00010000
01000000
,
10000000
00000000
00100000
00100000
00000000
00001000
00010000
01000000
,
10000000
00000000
00100000
00100000
00000000
00001000
00010000
00001000
,
00000200
00000000
00000001
00000000
00000010
00000000
00001000
00000300
,
00010000
00001000
00000100
00001000
00000000
00010000
00001000
00000100
,
00000001
00000000
00000010
00000010
00000000
00010000
00001000
00000100
,
00000001
00000000
00000010
00000010
00000000
00010000
00001000
00010000
,
00001000
00000000
00100000
00000000
01000000
00000000
10000000
10010000
,
00000000
00000000
00000000
00000000
,
10000000
01000000
00010000
00001000
00000000
00100000
01000000
10000000
,
00000000
01000000
00010000
00001000
00000010
00000001
00000100
00000000
,
00000001
00000100
00001000
00010000
00000000
00000010
00000100
00000001
,
00000000
00000100
00001000
00010000
00100000
10000000
01000000
00000000
,
10000000
00000000
00110000
00000000
00100000
00001000
00000010
00000000
,
00000001
00000000
00001100
00000000
00000100
00010000
01000000
00000000
,
00002000
00000100
00000001
00000010
,
00023000
00000000
02000000
03030000
,
00100000
00100000
00100000
10000000
00000000
01000000
00000000
00010000
,
00000000
00001000
00000000
00000100
00000000
00000001
00000001
00000000
,
00000010
00000010
00000010
00000100
00000000
00010000
00000000
00001000
,
00000000
00000000
00010000
00000000
00000000
00000000
01000000
00000000
00100000
00000000
00000000
00100000
00000000
00000000
00100000
00000000
,
00010000
10000000
01000000
10000000
00010000
01000000
00010000
10000000
,
01000000
00000000
00010000
00000000
00000000
00001000
00000000
00000000
00000010
00000000
00000000
00000001
00000000
00000000
00000100
00000000
,
00000010
00001000
00000000
00000010
00001000
00000000
00000100
00010000
00000000
00000100
00010000
00000000
00001000
00000000
00100000
00000000
,
02200000
00000000
00000000
03300000
,
10010000
00000000
01000000
01000000
00000000
00001000
00010000
00100000
,
10000000
00000000
01000000
01000000
00000000
00001000
00010000
00001000
,
00000020
00000000
00000001
00000000
00000100
00000000
00001000
00000030
,
00010000
00001000
00000010
00001000
00000000
00010000
00001000
00000010
,
00000001
00000000
00000100
00000100
00000000
00010000
00001000
00000010
,
00000001
00000000
00000100
00000100
00000000
00010000
00001000
00010000
,
00001000
00000000
01000000
00000000
00100000
10000000
01000000
00010000
,
00000000
00000000
00000000
00000000
,
10000000
00100000
00010000
00001000
00000000
01000000
00100000
10000000
,
00000000
00100000
00010000
00001000
00000100
00000001
00000010
00000000
,
00000001
00000010
00001000
00010000
00000000
00000100
00000010
00000001
,
00000000
00000010
00001000
00010000
01000000
10000000
00100000
00000000
,
11000000
00000000
01000000
00100000
00010000
00001000
00000100
00000000
,
00000011
00000000
00000010
00001000
00010000
00001000
00100000
00000000
,
00020000
01000000
10000000
00100000
,
00032000
00000000
00000200
00003300
,
00001001
00000000
00000101
00000000
00000010
00000100
00001000
00010000
,
00100000
10100000
11000000
00110000
,
00011000
00000000
00001000
00002000
00000000
00000100
00003100
00000000
,
00011000
00000000
00010000
00020000
00000000
01000000
01030000
00000000
,
00011000
00000000
00001000
00000010
00000001
00000100
00001000
00010000
,
00001000
00000000
01100000
00000000
00001000
00010000
00001000
00000002
,
00000000
00000000
00000003
00000000
,
;

//---------------dance-single - ----------------
#NOTES:
     dance-single:
     :
     Challenge:
     13:
     0.648848,0.739787,0.231097,0.142213,0.279983,511.000000,485.000000,26.000000,16.000000,0.000000,0.000000,0.648848,0.739787,0.231097,0.142213,0.279983,511.000000,485.000000,26.000000,16.000000,0.000000,0.000000:
0000
0000
0000
0000
,
0000
0000
0000
0000
,
0000
0000
0000
0000
,
0000
0000
0000
0000
,
0000
0000
0000
0000
,
0000
0000
0000
0000
,
0001
0010
1000
0001
0100
1000
0001
0010
,
1000
0001
0100
1000
0001
0010
0100
1000
,
0010
0010
0100
0100
0001
0001
1000
2200
,
0000
0000
0000
0000
0000
0000
0000
0000
3000
0000
0000
0000
1300
0001
1000
0001
,
1000
0000
0100
0000
0002
0000
0000
0000
0013
0001
0000
0100
0000
0010
1000
0000
,
0010
0000
1000
0000
0200
0000
0000
0000
0310
0001
0000
1000
0000
0001
0100
0000
,
0010
0000
1000
0000
0002
0000
0000
0000
0013
0100
0000
1000
0000
0001
0100
0000
,
0001
0000
0010
0000
0100
0000
1000
0000
0010
0100
0010
0100
0000
0001
1000
0000
,
0001
0000
0010
0000
2000
0000
0000
0000
3100
0010
0000
0100
0000
1000
0001
0000
,
0100
0000
0001
0000
0020
0000
0000
0000
0130
1000
0000
0001
0000
1000
0010
0000
,
0100
0000
0001
0000
2000
0000
0000
0000
3001
0010
0000
0010
0100
0000
1001
0000
,
0000
1000
1000
1000
0001
0010
0100
1000
,
0010
0000
1000
0000
0100
0000
0001
0000
0000
0000
0001
0000
1000
0100
0000
0000
,
1000
0000
0001
0000
0100
0000
0010
0000
0000
0000
0010
0000
1000
0001
0000
0000
,
0001
0000
1000
0000
0100
0000
0010
0000
0000
0000
0010
0000
0100
1000
0000
0000
,
0100
0000
1000
0000
0010
0000
0100
0000
0000
0000
0001
0000
1000
0001
0000
0000
,
0010
0000
0001
0000
0100
0000
0010
0000
0000
0000
0100
0000
0001
1000
0000
0000
,
1000
0000
0100
0000
0010
0000
0001
0000
0000
0000
0001
0000
0100
0010
0000
0000
,
0100
0000
0010
0000
1000
0000
0001
0000
0000
0000
0001
0000
0010
1000
0000
0000
,
0110
0000
0000
0000
0100
0000
0000
0000
0001
1000
0001
1000
0001
1000
0001
0000
,
0010
0001
0100
0010
1000
0100
0010
0000
,
0100
1000
0010
0100
0001
1000
0100
0000
,
0010
0001
0100
0001
1000
0001
0010
0100
,
0010
0100
1000
0010
0001
0100
0010
1000
,
0100
0010
0100
1000
0010
0100
0001
0000
,
1000
0001
0010
0100
1000
0010
0100
0001
,
0010
0000
0001
0010
0001
0100
0010
1001
,
0000
0000
0000
0000
1100
0000
0000
0000
0101
0000
0000
0000
1000
0001
1000
0001
,
1000
0010
0001
0010
0100
0001
0100
1000
,
0010
0001
0010
0100
0010
1000
0010
0000
,
0100
1000
0010
0001
0010
1000
0100
0010
,
0100
0001
0100
0010
0100
1000
0100
0000
,
1001
0000
0010
1000
0100
0001
0100
1000
,
0010
0000
0000
0000
1000
0001
0000
0000
1000
0000
0100
0000
0010
0000
0001
0000
,
0100
0010
1000
0100
0001
0100
1000
0000
,
0001
0010
1000
0100
0010
0100
1000
0000
,
0001
1000
0001
0201
0000
0010
0000
1000
,
0000
0001
0000
1000
1300
0100
0001
0010
,
0001
1000
0100
2100
0000
0001
0000
3010
,
1010
0000
0000
0110
0000
0000
0101
0000
1000
0001
0000
0001
0100
0000
0010
0000
,
1000
0100
0000
1000
0100
0000
0010
0001
0000
0010
0001
0000
0100
0010
0000
1000
,
0001
0000
0010
0000
0001
0100
0000
0010
1000
0000
0100
1000
0000
0001
1000
0000
,
0010
1000
0000
1000
0100
0000
0100
0001
0000
0001
0010
0000
0100
0000
1000
0000
,
0100
1000
0000
1000
0010
0000
0010
0001
0000
0001
0100
0000
0010
0000
1000
0000
,
0102
0000
0010
0000
1000
1000
1003
0000
,
2100
0000
0001
0000
0100
0100
3100
0000
,
1020
0000
0100
0000
1000
1000
2030
0000
,
0100
0100
3100
0000
1001
0001
1000
0100
,
0120
0000
1000
0000
0001
0001
0031
0000
,
0012
0000
1000
0000
0010
0010
0013
0000
,
0100
0000
1001
0000
0010
1000
0001
0110
,
0000
0000
0000
0000
0101
0000
0000
0000
1100
0000
0000
0000
0001
1000
0001
1000
,
0001
0010
1000
0010
0100
1000
0100
0001
,
0010
0100
0010
0001
0100
1000
0100
0000
,
0010
1000
0100
0001
0100
1000
0100
0001
,
0010
0100
0010
0001
0010
1000
0010
0000
,
1001
0000
0100
0001
0010
0100
1000
0010
,
0100
0000
0000
0000
0001
1000
0000
0000
0001
0000
0010
0000
0100
0000
1000
0000
,
0010
1000
0100
0001
1000
0100
0001
0000
,
0010
0001
0100
1000
0001
0100
1000
0000
,
0011
0000
1000
0100
0010
0001
0100
0010
,
1000
0100
0001
0000
1000
0010
0001
0000
,
1010
0100
1000
0010
0100
0001
1000
0000
,
0001
1000
0100
0001
0100
0010
0100
0000
,
1000
0000
1000
0001
0010
0100
1000
0010
,
1000
0100
1000
0000
0001
0100
0001
0000
1000
0100
1000
0000
0001
0100
0001
0000
,
0010
0000
1001
0010
0000
0000
0000
0000
;
