#TITLE:KICK THE CAN;
#ARTIST:BUSā˜…STOP;
#BANNER:KICK THE CAN-bn.png;
#BACKGROUND:KICK THE CAN-bg.png;
#JACKET:KICK THE CAN-jacket.png;
#DISCIMAGE:;
#MUSIC:KICK THE CAN.ogg;
#SAMPLESTART:64.981;
#SAMPLELENGTH:20;
#DISPLAYBPM:144;
#BPMS:0=144.043;
#BGCHANGES:0=KICK THE CAN.mp4=1=0=0=0,
;

//---------------dance-single - ----------------
#NOTES:
     dance-single:
     :
     Beginner:
     3:
     :
0000
0000
0000
0000
,
0000
0000
0000
0000
,
0000
0000
0000
0000
,
0000
0000
0000
0000
,
0000
0000
0000
0000
,
0002
0000
0003
0000
,
1000
1000
0000
0000
,
0001
0001
0000
0000
,
1000
0000
0100
0000
,
0020
0000
0030
0000
,
0001
0001
0000
0000
,
1000
1000
0000
0000
,
0010
0000
0100
0000
,
0020
0000
0030
0000
,
1000
1000
0000
0000
,
0100
0100
0000
0000
,
1000
0000
0001
0000
,
0200
0000
0300
0000
,
0010
0010
0000
0000
,
0100
0100
0000
0000
,
0001
0000
1000
0000
,
0001
0000
0100
0000
,
1000
1000
1000
0000
,
0010
0000
0100
0000
,
0010
0010
0010
0000
,
0100
0000
0001
0000
,
1000
1000
1000
0000
,
0100
0000
0010
0000
,
0001
0001
0001
0000
,
0100
0100
0100
0100
,
0000
0000
0000
0000
,
0010
0010
0010
0010
,
0000
0000
0000
0000
,
1000
1000
1000
1000
,
0000
0000
0000
0000
,
0001
0000
0100
0000
,
0001
0000
0100
0000
,
0010
0000
1000
0000
,
0010
0000
1000
0000
,
0200
0000
0300
0000
,
1000
1000
0000
0000
,
0001
0001
0000
0000
,
0010
0000
0001
0000
,
2000
0000
3000
0000
,
0100
0100
0000
0000
,
0010
0010
0000
0000
,
0001
0000
1000
0000
,
0002
0000
0003
0000
,
0100
0100
0000
0000
,
0001
0001
0000
0000
,
0010
0000
0100
0000
,
2000
0000
3000
0000
,
1000
1000
0000
0000
,
0001
0001
0000
0000
,
0100
0000
0010
0000
,
0100
0100
0100
0000
;

//---------------dance-single - ----------------
#NOTES:
     dance-single:
     :
     Easy:
     4:
     :
0000
0000
0000
0000
,
0000
0000
0000
0000
,
0000
0000
0000
0000
,
0000
0000
0000
0000
,
0000
0000
0000
0000
,
0001
0000
0010
0100
,
1000
1000
0000
0000
,
0001
0001
0000
0000
,
1000
0000
0001
0000
,
1000
0000
0010
0100
,
0001
0001
0000
0000
,
1000
1000
0000
0000
,
0001
0000
1000
0000
,
0100
0000
0010
0001
,
0100
0100
0000
0000
,
0010
0010
0000
0000
,
1000
0000
0100
0000
,
0010
0000
0001
0100
,
0010
0010
0000
0000
,
0100
0100
0000
0000
,
0001
1000
0001
0000
,
1001
0000
0000
0000
,
1001
0000
0000
0000
,
0010
0000
0100
0000
,
0010
0010
0100
0100
,
1001
0000
0000
0000
,
1001
0000
0000
0000
,
0010
0000
0100
0000
,
0010
0100
0010
0000
,
1000
0000
0001
0000
,
0100
0000
0010
0000
,
1000
0000
0001
0000
,
0100
0000
0010
0000
,
1000
0000
0001
0000
,
0100
0000
0010
0000
,
1000
0000
1000
0000
,
0001
0000
0001
0000
,
0100
0010
0100
0010
,
0100
0010
0100
0010
,
0100
0000
0001
1000
,
0100
0100
0000
0000
,
0010
0010
0000
0000
,
1001
0000
1001
0000
,
0010
0000
0100
0001
,
0010
0010
0000
0000
,
0100
0100
0000
0000
,
1001
0000
1001
0000
,
0010
0000
0100
1000
,
0001
0001
0000
0000
,
1000
1000
0000
0000
,
1001
0000
1001
0000
,
0100
0000
0010
0001
,
0100
0100
0000
0000
,
0010
0010
0000
0000
,
1001
0000
1001
0000
,
1001
0000
1001
1001
;

//---------------dance-single - ----------------
#NOTES:
     dance-single:
     :
     Medium:
     9:
     :
0000
0000
0000
0000
,
0000
0000
0000
0000
,
0000
0000
0000
0000
,
0000
0000
0000
0000
,
0000
0000
0000
0000
,
1001
0000
0000
0000
0010
0100
0010
0000
,
1001
0000
1001
0000
0010
0100
0010
0000
,
1100
0000
0101
0000
0010
1000
0100
0000
,
0010
0001
0010
0000
0100
1000
0100
0000
,
0101
0000
0000
0000
0010
1000
0100
0000
,
0011
0000
0101
0000
0010
1000
0100
0000
,
1001
0000
0011
0000
0100
1000
0001
0000
,
0100
0010
1000
0100
0010
0000
0000
0000
,
1001
0000
0000
0000
0010
0100
0001
0000
,
1100
0000
0101
0000
1000
0100
0010
0000
,
1001
0000
0110
0000
0001
0010
0100
0000
,
1000
0100
1000
0000
0001
0100
0001
0000
,
1001
0000
0000
0000
0010
0100
0010
0000
,
1001
0000
0110
0000
1000
0100
0010
0000
,
0101
0000
1100
0000
0010
0001
0100
0000
,
0010
1000
0100
0010
0001
0000
0000
0000
,
0001
0000
0100
0000
0001
0010
0001
0000
,
1000
0000
0100
0000
0010
0001
0010
0000
,
1000
0100
1000
0000
0001
0100
0001
0000
,
1000
0100
0001
0010
,
0100
0000
0100
0000
1000
0010
1000
0000
,
0100
0000
0010
0000
0001
0100
0001
0000
,
1000
0100
0010
0000
0001
0100
0010
0000
,
1001
0110
1001
0000
,
0100
0100
0010
0010
,
0001
1000
0100
0000
1000
0001
0100
0000
,
0010
0010
0100
0100
,
0001
1000
0010
0000
0100
0001
1000
0000
,
0100
0100
0010
0010
,
0001
0100
0010
0000
1000
0100
0010
0000
,
1001
0000
1001
0000
,
1001
0000
1001
0000
,
1001
1100
1001
0101
,
1000
0100
1000
0000
0001
0100
0001
0000
,
1001
0000
0000
0000
0010
0100
0010
0000
,
1001
0000
1001
0000
0010
0100
0010
0000
,
1100
0000
0101
0000
0010
1000
0100
0000
,
0010
0001
0010
0000
0100
1000
0100
0000
,
0101
0000
0000
0000
0010
1000
0100
0000
,
0011
0000
0101
0000
0010
1000
0100
0000
,
1001
0000
0011
0000
0100
1000
0001
0000
,
0100
0010
1000
0100
0010
0000
0000
0000
,
1001
0000
0000
0000
0100
0010
0100
0000
,
1001
0000
1100
0000
0010
0001
0100
0000
,
0011
0000
1100
0000
0001
0100
0010
0000
,
1000
0100
1000
0000
0001
0100
0001
0000
,
0110
0000
0000
0000
1000
0001
0100
0000
,
1100
0000
0101
0000
0010
1000
0100
0000
,
0011
0000
0101
0000
0010
1000
0100
0000
,
0010
0001
0100
0000
0010
1000
0100
0000
,
0010
0001
1000
0100
0010
0000
1001
0000
;

//---------------dance-single - ----------------
#NOTES:
     dance-single:
     :
     Hard:
     10:
     :
0000
0000
0000
0000
,
0000
0000
0000
0000
,
0000
0000
0000
0000
,
0000
0000
0000
0000
,
0000
0000
0000
0000
,
1001
0000
0000
0000
0010
0100
1000
0001
,
0100
0000
0100
0000
0010
1000
0100
0010
,
0001
0000
0001
0000
1000
0010
0100
0001
,
1000
0100
0010
0001
0100
0010
1000
0100
,
0010
0000
0000
0000
0001
1000
0100
0010
,
0001
0000
0100
0000
0010
1000
0100
0010
,
0001
0000
1000
0000
0010
0100
0001
1000
,
0100
0010
0001
0100
0010
0000
1001
0000
,
0110
0000
0000
0000
1000
0001
0100
0010
,
1000
0000
0100
0000
0010
0001
0100
0010
,
1000
0000
0001
0000
0010
0100
1000
0001
,
0100
0010
1000
0001
0010
0100
1000
0001
,
0100
0000
0000
0000
0010
1000
0100
0010
,
0001
0000
0100
0000
0010
1000
0100
0010
,
0001
0000
1000
0000
0010
0100
0001
0010
,
0100
1000
0001
0100
0010
0000
1001
0000
,
0010
0100
0001
1000
0100
0010
0001
1000
,
0010
0100
0001
0010
0100
1000
0001
0000
,
0100
0010
1000
0000
0100
0010
0001
0000
,
0100
0010
0100
0010
1000
0001
1000
0001
,
0100
0010
1000
0100
0010
0001
1000
0010
,
0100
0001
1000
0100
0010
0001
0100
0000
,
0010
1000
0100
0000
0010
0001
0100
0000
,
0010
1000
0100
0010
0001
0000
0000
0000
,
1000
0100
0010
0001
,
1000
0100
0010
0001
0100
0010
1000
0000
,
0001
0100
0010
1000
,
0001
0100
0010
1000
0100
0010
0001
0000
,
1000
0100
0010
0001
,
1000
0100
0010
0001
0100
0010
1000
0001
,
0100
0000
0000
0001
0100
0000
0000
0001
,
0100
0000
0000
0001
0100
0000
0000
0001
,
0100
0001
0010
0001
0100
0001
0010
0001
,
0100
0010
1000
0100
0010
0001
0100
0010
,
0100
0000
0000
0000
0001
1000
0100
0010
,
0001
0000
0001
0000
1000
0010
0100
0001
,
1000
0000
0100
0000
0010
0001
0100
0010
,
1000
0100
0010
0001
0100
0010
1000
0100
,
0010
0000
0000
0000
0001
1000
0100
0010
,
0001
0000
1000
0000
0010
0100
0001
0010
,
0100
0000
1000
0000
0001
0100
0010
1000
,
0100
0010
0001
1000
0100
0000
0101
0000
,
1100
0000
0000
0000
0001
0100
0010
1000
,
0100
0000
0010
0000
0001
1000
0100
0010
,
0001
0000
0100
0000
0010
1000
0100
0010
,
0001
0100
0010
1000
0100
0010
0001
0100
,
0010
0000
0000
0000
1000
0100
0010
0001
,
1000
0000
0010
0000
0100
0001
0010
0100
,
1000
0000
0001
0000
0100
0010
1000
0100
,
0010
0001
0100
0010
1000
0100
0010
0001
,
0100
0010
1000
0100
0010
0000
1001
0000
;

//---------------dance-single - ----------------
#NOTES:
     dance-single:
     :
     Challenge:
     13:
     :
0000
0000
0000
0000
,
0000
0000
0000
0000
,
0000
0000
0000
0000
,
0000
0000
0000
0000
,
0000
0000
0000
0000
,
0102
0000
1000
0000
1003
0000
0000
0000
0001
0000
0010
0000
0100
0000
1000
0010
,
1000
0000
0001
0010
0001
0000
1000
0010
1000
0000
0100
0000
0010
0000
0001
0000
,
0100
0000
0001
1000
0001
0000
0000
0000
0010
0000
0100
0000
1000
0000
0001
0000
,
0100
0010
0010
1000
1000
0100
0100
0001
,
2010
0001
3001
0000
0010
0100
1000
0001
,
1000
0000
0010
0100
0010
0000
0000
0000
1000
0000
0100
0000
0010
0000
0001
0000
,
0100
0000
0001
0010
0001
0000
0000
0000
1000
0000
0010
0000
0100
0000
0001
0000
,
1000
1000
0001
0001
1100
0000
0011
0000
,
2001
0010
3010
0000
0100
0001
0010
1000
,
0100
0000
0010
0001
0010
0000
0100
0000
1000
0000
0010
0000
1000
0000
0001
0000
,
0100
0000
0010
1000
0010
0000
0100
0000
1000
0000
0100
0000
0001
0000
0010
0000
,
0100
1000
1000
0001
0001
0010
0010
0100
,
0210
1000
1300
0000
0001
0100
0010
0100
,
0001
0000
0010
0100
0010
0000
0000
0000
0001
0000
1000
0000
0100
0000
0010
0000
,
0100
0000
1000
0001
1000
0000
0000
0000
0010
0000
1000
0000
0100
0000
0001
0000
,
0010
0010
0100
0100
1001
0000
0110
0000
,
1000
0010
0100
0010
0001
0010
1000
0010
,
0001
0010
1000
0100
0010
1000
0010
0001
,
0100
0010
0100
1000
0100
0001
0010
0100
,
1000
0010
1000
0000
0001
0010
0001
0000
1000
0100
1000
0000
0001
0100
0001
0000
,
0010
0100
0001
0100
0010
1000
0010
0001
,
0100
0010
0100
1000
0100
0001
0010
0100
,
1000
0010
0001
0010
0100
0010
0001
0010
,
1000
0100
1000
0000
0001
0100
0001
0000
0011
0000
0000
0000
1100
0000
0000
0000
,
0002
0203
0320
2030
,
3100
0100
1000
0001
0101
1100
0101
0000
,
2000
3020
0230
0302
,
0013
0010
0001
1000
1010
0011
1010
0000
,
0200
0320
2030
3002
,
0013
0001
0100
0001
1000
0010
0100
0001
,
0011
0100
1000
0001
1010
0100
0001
1000
,
1100
0010
0001
0100
0101
0010
1000
0001
,
1001
0010
1000
0100
0110
0010
0001
0100
,
0101
0010
1100
0010
0101
0010
1100
0010
,
1002
0100
0103
0000
0001
0010
0001
1000
,
0100
0000
0010
0001
0010
0000
0100
0000
0001
0000
0100
0000
1000
0000
0010
0000
,
0100
0000
0010
1000
0010
0000
0100
0000
0001
0000
0010
0000
0001
0000
1000
0000
,
0100
0010
0010
0001
0001
1000
1000
0100
,
2100
0001
3001
0000
0100
0010
0100
1000
,
0100
0000
0001
0010
0001
0000
0000
0000
1000
0000
0010
0000
1000
0000
0001
0000
,
0010
0000
0100
1000
0100
0000
0000
0000
1000
0000
0001
0000
0010
0000
0100
0000
,
1100
0010
0101
0010
1100
0001
1001
0000
,
0210
0010
0310
0000
0100
0001
1000
0010
,
1000
0000
0100
0010
0001
0000
0000
0000
0001
0000
1000
0000
0100
0000
0010
0000
,
0001
0000
1000
0100
0010
0000
0000
0000
0100
0000
1000
0000
0010
0000
0100
0000
,
0001
0010
0010
1000
1000
0100
0100
0010
,
0012
0100
0103
0000
0001
0010
1000
0010
,
0001
0000
0100
0010
1000
0000
0000
0000
0100
0000
1000
0000
0010
0000
0001
0000
,
0010
0000
1000
0100
0010
0000
0000
0000
0001
0000
1000
0000
0001
0000
0100
0000
,
0110
0010
1000
0001
1001
0100
1000
0001
,
0011
0100
1010
0100
0011
0000
1001
0000
;

//---------------dance-double - ----------------
#NOTES:
     dance-double:
     :
     Easy:
     4:
     :
00000000
00000000
00000000
00000000
,
00000000
00000000
00000000
00000000
,
00000000
00000000
00000000
00000000
,
00000000
00000000
00000000
00000000
,
00000000
00000000
00000000
00000000
,
10010000
00000000
00100000
00010000
,
00011000
00000000
00000010
00001000
,
00001001
00000000
00000100
00000010
,
00010000
00000000
00001000
00000000
,
00011000
00000000
00100000
01000000
,
10010000
00000000
01000000
00001000
,
00011000
00000000
00000100
00000010
,
00000001
00001000
00000100
00000000
,
00011000
00000000
00100000
00010000
,
10010000
00000000
01000000
00001000
,
00011000
00000000
00000100
00001000
,
00000010
00000000
00000100
00000000
,
00001001
00000000
00000100
00010000
,
00011000
00000000
00100000
01000000
,
10010000
00000000
00100000
00001000
,
00010000
00001000
00010000
00000000
,
00000010
00000000
00001000
00000000
,
00000001
00000000
00000100
00000000
,
00000010
00000000
00001000
00000000
,
00000100
00000000
00010000
00000000
,
00001000
00000000
00100000
00000000
,
01000000
00000000
10000000
00000000
,
00010000
00000000
01000000
00000000
,
00001000
00010000
00001000
00000000
,
00001001
00000000
00000000
00000000
,
00000100
00000000
00010000
00000000
,
00011000
00000000
00000000
00000000
,
00100000
00000000
01000000
00000000
,
10010000
00000000
00000000
00000000
,
01000000
00000000
00001000
00000000
,
00010000
00000000
00001000
00000000
,
00010000
00000000
00001000
00000000
,
00010000
00001000
00010000
00001000
,
00010000
00000100
00000010
00000001
,
00001001
00000000
00000100
00010000
,
00001000
00001000
00000000
00000000
,
00100000
00100000
00000000
00000000
,
00010000
10000000
01000000
00100000
,
10010000
00000000
01000000
00001000
,
00010000
00010000
00000000
00000000
,
00000100
00000100
00000000
00000000
,
00000010
00000001
00000100
00000000
,
00001001
00000000
00000100
00010000
,
00001000
00001000
00000000
00000000
,
00100000
00100000
00000000
00000000
,
01000000
10000000
00010000
01000000
,
10010000
00000000
01000000
00100000
,
00001000
00001000
00000000
00000000
,
00010000
00010000
00000000
00000000
,
00000100
00000000
00000010
00000000
,
00001000
00000000
00010000
00011000
;

//---------------dance-double - ----------------
#NOTES:
     dance-double:
     :
     Medium:
     6:
     :
00000000
00000000
00000000
00000000
,
00000000
00000000
00000000
00000000
,
00000000
00000000
00000000
00000000
,
00000000
00000000
00000000
00000000
,
00000000
00000000
00000000
00000000
,
10010000
00000000
01000000
00100000
,
00001000
00001000
00010000
00000100
,
00001001
00000110
00000100
00010000
,
00001000
00001000
00010000
00001000
,
00110000
00000000
10000000
01000000
,
00100000
00100000
00001000
00010000
,
00001010
00000101
00001000
00000100
,
00010000
00001000
00100000
10010000
,
01100000
00000000
00010000
00100000
,
00001000
00001000
00010000
00000100
,
00000010
00000001
00001000
00000100
,
00010000
00001000
00100000
00010000
,
11000000
00000000
00010000
01000000
,
00001000
00001000
00010000
00000010
,
00001000
00000001
00000010
00000100
,
00001001
00010010
00001100
00000000
,
00010000
00010000
00001000
00001000
,
00100000
01000000
10000000
00010000
,
01000000
01000000
00001000
00001000
,
00010000
00000100
00001000
00000010
,
00010000
00010000
00001000
00001000
,
00100000
01000000
10000000
00010000
,
01000000
01000000
00001000
00001000
,
00010000
00000100
00000010
00000000
,
00001001
00011000
10010000
00011000
,
00000010
00001000
00000100
00000010
,
00001001
00011000
10010000
00011000
,
00000100
00000010
00000001
00001000
,
00000110
00001001
00011000
10010000
,
01000000
00100000
00010000
01000000
,
10010000
00000000
10010000
00000000
,
10010000
00000000
10010000
00000000
,
01100000
10010000
00011000
00001001
,
00001100
00011000
00110000
10010000
,
01100000
00000000
00010000
01000000
,
00001000
00010000
00000100
00000010
,
00000001
00000100
00000010
00001000
,
00000100
00010000
00001000
00100000
,
10010000
00000000
01000000
00100000
,
00001000
00010000
00001100
00000101
,
00000010
00001000
00000100
00010000
,
00011000
00110000
11000000
00000000
,
10010000
00000000
01000000
00001000
,
00010010
00001001
00000100
00010000
,
00101000
10010000
01000000
00100000
,
01000000
10010000
00100000
00011000
,
00000100
00000000
00000010
00000001
,
00001100
00011000
00100000
00010000
,
10000000
01000000
10010000
01001000
,
00010000
00000100
00001000
00000010
,
00010000
00001000
00100000
10010000
;

//---------------dance-double - ----------------
#NOTES:
     dance-double:
     :
     Hard:
     10:
     :
00000000
00000000
00000000
00000000
,
00000000
00000000
00000000
00000000
,
00000000
00000000
00000000
00000000
,
00000000
00000000
00000000
00000000
,
00000000
00000000
00000000
00000000
,
00011000
00000000
00000000
00000000
00000100
00001000
00000001
00000100
,
00000010
00000000
00000010
00000000
00001000
00000100
00010000
00001000
,
00100000
00000000
00100000
00000000
00010000
10000000
01000000
00100000
,
00001000
00010000
00000100
00000010
00000001
00000100
00000010
00001000
,
00000100
00000000
00000000
00000000
00010000
00001000
00100000
01000000
,
10000000
00000000
00010000
00000000
01000000
00001000
00010000
00000010
,
00001000
00000000
00000001
00000000
00000010
00000100
00001000
00000010
,
00010000
00001000
01000000
00010000
10000000
00000000
01100000
00000000
,
10010000
00000000
00000000
00000000
00100000
00001000
00010000
00000100
,
00000010
00000000
00000001
00000000
00000100
00000010
00001000
00000100
,
00010000
00000000
00001000
00000000
00100000
00010000
10000000
00100000
,
01000000
00001000
00010000
00000100
00000010
00000001
00000100
00000010
,
00001000
00000000
00000000
00000000
00000100
00010000
00001000
00100000
,
00010000
00000000
10000000
00000000
01000000
00100000
00001000
00010000
,
00000100
00000000
00001000
00000000
00000001
00000100
00000010
00001000
,
00000100
00010000
00001000
00100000
00010000
00000000
01001000
00000000
,
00010000
00000100
00000010
00000001
00000100
00000010
00001000
00000100
,
00010000
00001000
00100000
00010000
01000000
00100000
10000000
00000000
,
01000000
00100000
00010000
00000000
01000000
00001000
00010000
00000000
,
00000100
00000010
00000100
00000010
00000001
00001000
00000001
00001000
,
00000100
00010000
00001000
00100000
01000000
10000000
00010000
01000000
,
00001000
00010000
00000100
00001000
00000010
00000100
00000001
00000000
,
00001000
00000100
00010000
00000000
00001000
00100000
00010000
00000000
,
10000000
00100000
01000000
00010000
10000000
00000000
00000000
00000000
,
10000000
01000000
00001000
00000100
,
00000010
00000001
00000100
00000010
00001000
00000100
00000010
00000000
,
00000001
00000100
00010000
01000000
,
00100000
10000000
01000000
00100000
00010000
01000000
00100000
00000000
,
10000000
01000000
00001000
00000100
,
00000010
00000001
00000100
00000010
00001000
00000100
00000010
00000001
,
00001000
00000000
00000000
00000100
00010000
00000000
00000000
00001000
,
00100000
00000000
00000000
00010000
10000000
00000000
00000000
00100000
,
01000000
00001000
00010000
00000100
00000010
00000001
00000100
00000010
,
00001000
00000100
00010000
00000010
00001000
00000100
00010000
00001000
,
00100000
00000000
00000000
00000000
00010000
01000000
00001000
00010000
,
00000100
00000000
00000010
00000000
00000001
00000100
00000010
00001000
,
00000100
00000000
00010000
00000000
00001000
00100000
00010000
10000000
,
01000000
00100000
00010000
01000000
00100000
10000000
01000000
00100000
,
00010000
00000000
00000000
00000000
01000000
00001000
00010000
00000010
,
00001000
00000000
00000001
00000000
00000010
00000100
00010000
00001000
,
00100000
00000000
01000000
00000000
10000000
00100000
01000000
00010000
,
00100000
00001000
00010000
00000100
00000010
00000000
00001001
00000000
,
00010100
00000000
00000000
00000000
00001000
00100000
00010000
10000000
,
01000000
00000000
00100000
00000000
00001000
00010000
00000100
00000010
,
00000001
00000000
00000100
00000000
00000010
00001000
00000100
00010000
,
00001000
00100000
00010000
10000000
00100000
01000000
00001000
00010000
,
00000100
00000000
00000000
00000000
00000010
00000001
00000100
00000010
,
00001000
00000000
00000100
00000000
00010000
00001000
00100000
01000000
,
10000000
00000000
00010000
00000000
01000000
00001000
00010000
00000100
,
00000010
00000001
00000100
00000010
00001000
00000100
00010000
00001000
,
00100000
01000000
10000000
00010000
01000000
00000000
00011000
00000000
;

//---------------dance-couple - ----------------
#NOTES:
     dance-couple:
     :
     Medium:
     8:
     :
00000000
00000000
00000000
00000000
,
00000000
00000000
00000000
00000000
,
00000000
00000000
00000000
00000000
,
00000000
00000000
00000000
00000000
,
00000000
00000000
00000000
00000000
,
10011001
00000000
00000000
00000000
00100000
01000000
10000001
00010000
,
01000000
00000000
01000001
00000000
00100000
10000000
01000001
00100000
,
00010000
00000000
00010001
00000000
10000000
00100000
01000001
00010000
,
10000000
01000000
00100001
00010000
01000000
00100000
10000000
01000000
,
00100110
00000000
00000000
00000000
00000001
00001000
10000100
00000010
,
00000001
00000000
10000100
00000000
00000010
00001000
10000100
00000010
,
00000001
00000000
10001000
00000000
00000010
00000100
10000001
00001000
,
00000100
00000010
10000001
00000100
00000010
00000000
00001001
00000000
,
01100110
00000000
00000000
00000000
10001000
00010001
01000100
00100010
,
10001000
00000000
01000100
00000000
00100010
00010001
01000100
00100010
,
10001000
00000000
00010001
00000000
00100010
01000100
10001000
00010001
,
01000100
00100010
10001000
00010001
00100010
01000100
10001000
00010001
,
01000100
00000000
00000000
00000000
00100010
10001000
01000100
00100010
,
00010001
00000000
01000100
00000000
00100010
10001000
01000100
00100010
,
00010001
00000000
10001000
00000000
00100010
01000100
00010001
00100010
,
01000100
10001000
00010001
01000100
00100010
00000000
10011001
00000000
,
00100000
01000000
00010000
10000000
01000000
00100000
00010000
10000000
,
00000010
00000100
00000001
00000010
00000100
00001000
00000001
00000000
,
01000000
00100000
10000000
00000000
00000100
00000010
00001000
00000000
,
01000000
00100000
01000000
00100000
00001000
00000001
00001000
00000001
,
00000100
00000010
00001000
00000100
00000010
00000001
00001000
00000010
,
01000000
00010000
10000000
01000000
00100000
00010000
01000000
00000000
,
00100000
10000000
01000000
00000000
00000010
00001000
00000100
00000000
,
00100010
00010001
01000100
00100010
10001000
00000000
00000000
00000000
,
00001000
00000100
00000010
00000001
,
10000000
01000000
00100000
00010000
01000000
00100000
10000000
00000000
,
00010000
01000000
00100000
10000000
,
00000001
00000100
00000010
00001000
00000100
00000010
00000001
00000000
,
10000000
01000000
00000001
00000100
,
10000000
01000000
00100000
00010000
00000100
00000010
00001000
00000001
,
00000100
00000000
00000000
00010000
01000000
00000000
00000000
00000001
,
00000100
00000000
00000000
00010000
01000000
00000000
00000000
00000001
,
00000100
00000001
00000010
00000001
00000100
00000001
00000010
00010001
,
01000100
00100000
10000000
01000000
00100000
00010000
01000000
00100000
,
01000100
00000000
00000000
00000000
00000001
00001000
10000100
00000010
,
00000001
00000000
10000001
00000000
00001000
00000010
10000100
00000001
,
00001000
00000000
10000100
00000000
00000010
00000001
10000100
00000010
,
00001000
00000100
10000010
00000001
00000100
00000010
00001000
00000100
,
00100010
00000000
00000000
00000000
00010000
10000000
01000001
00100000
,
00010000
00000000
10000001
00000000
00100000
01000000
00010001
00100000
,
01000000
00000000
10000001
00000000
00010000
01000000
00100001
10000000
,
01000000
00100000
00010001
10000000
01000000
00000000
01010000
00000000
,
11000101
00000000
00000000
00000000
00011000
01000100
00100010
10000001
,
01000100
00000000
00100010
00000000
00011000
10000001
01000100
00100010
,
00011000
00000000
01000100
00000000
00100010
10000001
01000100
00100010
,
00011000
01000100
00100010
10000001
01000100
00100010
00011000
01000100
,
00100010
00000000
00000000
00000000
10000001
01000100
00100010
00011000
,
10000001
00000000
00100010
00000000
01000100
00011000
00100010
01000100
,
10000001
00000000
00011000
00000000
01000100
00100010
10000001
01000100
,
00100000
00010000
01000000
00100000
00000010
00001000
00000001
00000010
,
10000100
01001000
00100001
00010100
10000010
00000000
01101001
00000000
;

//---------------dance-solo - ----------------
#NOTES:
     dance-solo:
     :
     Easy:
     3:
     :
000000
000000
000000
000000
,
000000
000000
000000
000000
,
000000
000000
000000
000000
,
000000
000000
000000
000000
,
000000
000000
000000
000000
,
100001
000000
001000
001000
,
000000
000000
010000
010000
,
000000
000000
000001
000001
,
000000
100000
100000
100000
,
100001
000000
001000
001000
,
000000
000000
010000
010000
,
000000
000000
000001
000001
,
000000
000100
001000
000000
,
100001
000000
010000
010000
,
000000
000000
000010
000010
,
000000
000000
000100
000100
,
000000
000001
000001
000001
,
100001
000000
001000
001000
,
000000
000000
000010
000010
,
000000
000000
100000
100000
,
000000
000100
000100
000000
,
010000
000000
000010
000000
,
100000
000000
001000
000000
,
000100
000000
000001
000000
,
100000
000000
001000
000000
,
010000
000000
000001
000000
,
000100
000000
000010
000000
,
001000
000000
000100
000000
,
100000
000000
001000
000000
,
000100
000001
010000
000010
,
000100
000000
001000
000000
,
100000
000100
010000
000010
,
000100
000000
001000
000000
,
100000
000001
000100
000010
,
001000
000000
000100
000000
,
100000
000000
000001
000000
,
010000
000000
001000
000000
,
000100
000001
010000
000010
,
100000
000100
001000
000010
,
100001
000000
001000
001000
,
000000
000100
000000
000001
,
000000
010000
000000
000010
,
000000
100000
001000
001000
,
100001
000000
001000
001000
,
000000
000010
000000
100000
,
000000
001000
000000
010000
,
000001
001000
001000
000100
,
100001
000000
001000
001000
,
000000
000100
000000
000001
,
000000
010000
000000
000010
,
000000
000100
001000
001000
,
100001
000000
001000
001000
,
000000
000100
000000
100000
,
000000
000001
000000
010000
,
001000
000010
001000
010000
,
001000
000100
001000
100001
;

//---------------dance-solo - ----------------
#NOTES:
     dance-solo:
     :
     Medium:
     5:
     :
000000
000000
000000
000000
,
000000
000000
000000
000000
,
000000
000000
000000
000000
,
000000
000000
000000
000000
,
000000
000000
000000
000000
,
010010
000000
000000
000000
000100
000000
001000
001000
,
000000
000000
100001
000000
001000
000000
000100
000100
,
000000
000001
100000
001000
,
010000
000001
100000
000010
,
001100
000000
000000
000000
100000
000000
001000
001000
,
000000
000000
100001
000000
001000
000000
000100
000100
,
000000
100000
000010
010000
,
001000
001000
001000
000000
,
100001
000000
000000
000000
001000
000000
000100
000100
,
000000
000000
100010
000000
010000
000000
000001
000001
,
000000
000100
001000
100000
,
000001
001000
000010
100000
,
010001
000000
000000
000000
001000
000000
000100
000100
,
000000
000000
100001
000000
000010
000000
001000
001000
,
000000
000001
100000
001000
,
010001
100010
010100
000000
,
001000
001000
000100
000100
,
000001
000001
100000
100000
,
001000
000100
001000
000000
001000
000100
001000
000000
,
010000
000001
100000
000010
,
001000
001000
000100
000100
,
100000
100000
000001
000001
,
010000
000010
010000
000000
010000
000010
010000
000000
,
000101
001010
100001
000000
,
010000
001000
000100
000001
,
000000
000000
101000
000000
000000
000000
010000
010000
,
000001
001000
000010
100000
,
000000
000000
010001
000000
000000
000000
001000
001000
,
000100
000001
010000
000010
,
000000
000000
100100
000000
000000
000000
001000
001000
,
000100
000000
000001
000000
,
001000
000000
000100
000000
,
100000
001000
000100
000001
,
010000
000010
000100
000101
,
011000
000000
000001
000001
,
001000
000000
000010
000010
000000
000000
100001
000000
,
010000
000000
001000
001000
000000
000000
100001
000000
,
000010
001000
000100
100000
,
010010
000000
001000
000100
,
000001
000000
100000
100000
000000
000000
001010
000000
,
100000
000000
000001
000001
000000
000000
011000
000000
,
100001
000110
010001
000000
,
100010
000000
000001
000001
,
000100
000000
001000
001000
000000
000000
010001
000000
,
100000
000000
000010
000010
000000
000000
001100
000000
,
100000
001000
000100
000001
,
010010
000000
001000
001000
,
000100
000000
000001
000001
000000
000000
011000
000000
,
100000
000000
000001
000001
000000
000000
001010
000000
,
100000
001000
000001
001000
,
000010
000100
001000
100001
;

//---------------dance-solo - ----------------
#NOTES:
     dance-solo:
     :
     Hard:
     7:
     :
000000
000000
000000
000000
,
000000
000000
000000
000000
,
000000
000000
000000
000000
,
000000
000000
000000
000000
,
000000
000000
000000
000000
,
010010
000000
000000
000000
000100
100000
010000
001000
,
000100
000000
100000
000000
000010
010000
000100
100000
,
000010
000000
000010
000000
001000
000100
100000
000010
,
010000
000001
000100
001000
000010
001000
000100
000001
,
010000
000000
000000
000000
000010
000100
000001
100000
,
001000
000000
001000
000000
000100
000001
010000
000010
,
000100
000000
001000
000000
010000
000100
100000
001000
,
000100
000001
100000
000100
001000
000000
100001
000000
,
010100
000000
000000
000000
100000
000001
001000
000100
,
100000
000000
000010
000000
010000
000100
100000
000010
,
001000
000000
000001
000000
000100
001000
010000
000001
,
100000
000100
010000
000010
000100
001000
100000
000001
,
001000
000000
000000
000000
000100
100000
001000
010000
,
000001
000000
001000
000000
000100
100000
010000
001000
,
000010
000000
100000
000000
001000
000100
000001
001000
,
000100
100000
000010
010000
000100
000000
100001
000000
,
000100
001000
000001
100000
001000
010000
000001
000100
,
001000
100000
001000
010000
000001
001000
001000
000000
,
000010
100000
000100
000000
010000
000001
000100
000000
,
001000
010000
001000
000100
000001
010000
000001
100000
,
000100
001000
010000
100000
001000
010000
000001
000100
,
001000
010000
000001
100000
000010
001000
000001
000000
,
100000
001000
010000
000000
000001
001000
000010
000000
,
100000
001000
000100
000001
001000
000000
000000
000000
,
100000
001000
000001
001000
,
000100
100000
001000
010000
000001
001000
001000
000000
,
000100
100000
000001
000100
,
001000
010000
000001
001000
000100
100000
100000
000000
,
000010
001000
010000
001000
,
000100
000001
010000
000010
100000
000100
000100
001000
,
000010
000000
000000
100000
000001
000000
000000
010000
,
001000
000000
000000
000100
000001
000000
000000
010000
,
000010
100000
000100
001000
010000
100000
000100
010000
,
000010
000100
000001
100000
001000
000100
000001
001000
,
000100
000000
000000
000000
100000
001000
000100
000001
,
010000
000000
000010
000000
100000
001000
000100
000001
,
010000
000000
000010
000000
100000
000100
001000
000001
,
100000
001000
000100
000001
010000
000010
100000
000100
,
001000
000000
000000
000000
000001
100000
000100
001000
,
000010
000000
010000
000000
001000
000100
000001
001000
,
000010
000000
100000
000000
000100
001000
000001
010000
,
000010
000100
001000
010000
000001
000000
000110
000000
,
011000
000000
000000
000000
000001
001000
000100
100000
,
001000
000000
000100
000000
000001
010000
000010
100000
,
000100
000000
001000
000000
000001
100000
001000
010000
,
000001
000100
000010
010000
000100
100000
001000
000100
,
000001
000000
000000
000000
010000
001000
000100
000001
,
010000
000000
000010
000000
100000
000100
001000
000001
,
010000
000000
000010
000000
001000
000100
100000
001000
,
010000
000001
000100
000010
100000
000100
010000
001000
,
000100
000001
100000
001000
000100
000000
100001
000000
;
