#TITLE:Just Pretend;
#SUBTITLE:;
#ARTIST:Big Idea;
#TITLETRANSLIT:;
#SUBTITLETRANSLIT:;
#ARTISTTRANSLIT:;
#GENRE:;
#CREDIT:;
#BANNER:Just Pretend-bn.png;
#BACKGROUND:Just Pretend-bg.png;
#LYRICSPATH:Just Pretend.lrc;
#CDTITLE:;
#MUSIC:Just Pretend.ogg;
#OFFSET:-0.001000;
#SAMPLESTART:36.000999;
#SAMPLELENGTH:20.000000;
#SELECTABLE:YES;
#DISPLAYBPM:120.000000;
#BPMS:0.000000=120.000000
;
#STOPS:
;
#BGCHANGES:;
#KEYSOUNDS:;
#ATTACKS:;

//---------------dance-single - ----------------
#NOTES:
     dance-single:
     :
     Beginner:
     1:
     0.072660,0.118534,0.043103,0.000000,0.000000,59.000000,54.000000,5.000000,0.000000,0.000000,0.000000,0.072660,0.118534,0.043103,0.000000,0.000000,59.000000,54.000000,5.000000,0.000000,0.000000,0.000000:
0000
0000
0000
0000
,
0000
0000
0000
0000
,
0001
0000
0000
0000
,
1000
0000
0000
0000
,
0001
0000
0000
0000
,
1000
0000
0000
0000
,
0100
0000
0000
0000
,
1000
0000
0000
0000
,
0100
0000
0000
0000
,
1000
0000
0000
0000
,
0001
0000
0000
0000
,
0010
0000
0000
0000
,
0001
0000
0000
0000
,
0010
0000
0000
0000
,
1001
0000
0000
0000
,
0001
0000
0000
0000
,
1001
0000
0000
0000
,
1000
0000
0000
0000
,
0010
0000
0000
0000
,
0100
0000
0000
0000
,
0001
0000
0000
0000
,
1000
0000
0000
0000
,
0001
0000
0000
0000
,
0010
0000
0000
0000
,
0100
0000
0000
0000
,
1000
0000
0000
0000
,
0010
0000
0000
0000
,
1000
0000
0000
0000
,
0001
0000
0000
0000
,
0100
0000
0000
0000
,
0010
0000
0000
0000
,
1000
0000
0000
0000
,
0010
0000
0000
0000
,
1000
0000
0000
0000
,
0001
0000
0000
0000
,
0100
0000
0000
0000
,
0001
0000
0000
0000
,
0100
0000
0000
0000
,
0110
0000
0000
0000
,
0010
0000
0000
0000
,
0110
0000
0000
0000
,
0100
0000
0000
0000
,
0001
0000
0000
0000
,
1000
0000
0000
0000
,
0100
0000
0000
0000
,
0010
0000
0000
0000
,
0001
0000
0000
0000
,
0100
0000
0000
0000
,
0010
0000
0000
0000
,
1000
0000
0000
0000
,
0010
0000
0000
0000
,
0100
0000
0000
0000
,
0001
0000
0000
0000
,
1000
0000
0000
0000
,
0001
0000
0000
0000
,
1001
0000
0000
0000
;

//---------------dance-single - ----------------
#NOTES:
     dance-single:
     :
     Easy:
     5:
     0.209360,0.260776,0.077586,0.241379,0.000000,170.000000,161.000000,9.000000,28.000000,0.000000,0.000000,0.209360,0.260776,0.077586,0.241379,0.000000,170.000000,161.000000,9.000000,28.000000,0.000000,0.000000:
0000
0000
0000
0000
,
0000
0000
0000
0000
,
0010
0000
0100
0000
,
0010
0000
1000
0000
,
0001
0000
1000
0000
,
0001
0000
0100
0000
,
0010
0000
1000
0100
,
0001
0000
0100
1000
,
0001
0000
0010
0001
,
0100
0000
1000
0100
,
0010
0000
1000
0001
,
0100
0000
0001
0010
,
0100
0000
0010
1000
,
0001
0000
1000
0001
,
1001
0110
0000
0100
,
0010
0100
0001
1000
,
1001
0110
0000
0010
,
0100
0010
1000
0001
,
0020
0030
0002
0003
,
0200
0300
2000
3000
,
0100
0001
0010
1000
,
0010
0100
1000
0001
,
2000
3000
0200
0300
,
0020
0030
0002
0003
,
0010
0100
1000
0001
,
0100
0010
1000
0001
,
0200
0300
0002
0003
,
0020
0030
2000
3000
,
0010
0001
0100
1000
,
0100
0010
1000
0001
,
0010
0000
0100
0001
,
1000
0000
0001
0010
,
0100
0000
0001
0100
,
0010
0000
1000
0001
,
0010
0000
0001
0100
,
1000
0000
0100
0001
,
0010
0000
0001
0010
,
0100
0000
1000
0001
,
0110
2002
3003
0001
,
1000
0100
0010
0100
,
0110
2002
3003
1000
,
0001
0010
0100
1000
,
0020
0030
2000
3000
,
0002
0003
0200
0300
,
0001
1000
0010
0100
,
0001
0010
1000
0010
,
0002
0003
2000
3000
,
0200
0300
0020
0030
,
0100
1000
0001
0010
,
1000
0010
0100
1000
,
0020
0030
2000
3000
,
0200
0300
0002
0003
,
0100
1000
0010
0001
,
0010
0100
0001
1000
,
0100
0010
0001
1000
,
1001
0000
0000
0000
;

//---------------dance-single - ----------------
#NOTES:
     dance-single:
     :
     Medium:
     9:
     0.365764,0.371767,0.301724,0.275862,0.051724,297.000000,262.000000,35.000000,32.000000,0.000000,0.000000,0.365764,0.371767,0.301724,0.275862,0.051724,297.000000,262.000000,35.000000,32.000000,0.000000,0.000000:
0000
0000
0000
0000
,
0000
0000
0000
0000
,
0010
0000
0000
0000
0100
0000
0000
0000
0001
0000
1000
0000
0000
0100
0000
0000
,
0010
0000
0000
0000
0100
0000
0000
0000
1000
0000
0001
0000
0000
0100
0000
0000
,
0010
0000
0000
0000
1000
0000
0000
0000
0001
0000
0100
0000
0000
0010
0000
0000
,
0100
0000
0000
0000
0001
0000
0000
0000
1000
0000
0100
0000
0000
0010
0000
0000
,
0100
0000
0000
0000
0010
0000
0000
0000
0001
0000
0100
0000
0000
0010
0000
0000
,
1000
0000
0000
0000
0100
0000
0000
0000
0010
0000
0001
0000
0000
1000
0000
0000
,
0220
0000
0330
2002
0000
3003
0101
0000
,
1010
0100
0001
0010
,
0100
0000
0000
0000
1000
0000
0000
0000
0001
0000
0100
0000
0000
0010
0000
0000
,
1000
0000
0000
0000
0100
0000
0000
0000
0001
0000
0100
0000
0000
0010
0000
0000
,
2002
0000
3003
0220
0000
0330
1100
0000
,
0011
1000
0100
0020
,
0030
0000
0002
0000
0000
2000
3003
0000
,
1001
0000
0000
0110
0000
0000
0002
2000
,
3003
0000
0020
0000
0000
0200
0330
0000
,
0110
0000
0010
0100
0001
0000
0100
0010
,
1001
0000
0110
0000
0001
1000
0100
0000
,
0010
0001
0000
1000
0010
0000
0100
0001
,
1000
0010
0000
1000
0001
0000
1000
0100
,
0010
1000
0000
0010
0100
0000
0010
0001
,
1100
0000
0011
0000
1000
0100
0010
0000
,
0001
0100
0000
0010
1000
0000
0001
0010
,
0100
0001
0000
0100
0010
0000
0100
1000
,
0001
0010
0000
0001
1000
0000
0001
0100
,
1010
0000
0101
0000
0010
1000
0100
0000
,
0010
0001
0000
1000
0010
0000
0100
0001
,
1000
0100
0000
0100
0010
0000
0010
0001
,
1000
0010
0000
0010
0100
0000
0100
0001
,
1000
0000
0000
0000
0010
0000
0000
0000
0001
0000
0010
0000
0000
0100
0000
0000
,
0001
0000
0000
0000
0010
0000
0000
0000
1000
0000
0010
0000
0000
0100
0000
0000
,
2002
0000
3003
0220
0000
0330
1100
0000
,
0101
0000
1000
0000
0010
0100
0001
0000
,
1000
0000
0000
0000
0100
0000
0000
0000
0001
0000
0100
0000
0000
0010
0000
0000
,
0001
0000
0000
0000
0100
0000
0000
0000
1000
0000
0100
0000
0000
0010
0000
0000
,
0220
0000
0330
2002
0000
3003
0011
0000
,
1010
0001
0100
0020
,
0030
0000
2000
0000
0000
0002
3003
0000
,
1001
0000
0000
0110
0000
0000
2000
0002
,
3003
0000
0020
0000
0000
0200
0330
0000
,
0110
0000
0010
0100
1000
0000
0100
0010
,
1001
0000
0110
0000
1000
0001
0010
0000
,
0100
1000
0000
0001
0100
0000
0010
1000
,
0001
0100
0000
0001
1000
0000
0001
0010
,
0100
0001
0000
0100
0010
0000
0100
1000
,
0011
0000
1100
0000
0001
0010
0100
0000
,
1000
0010
0000
0100
0001
0000
1000
0100
,
0010
1000
0000
0010
0100
0000
0010
0001
,
1000
0100
0000
1000
0001
0000
1000
0010
,
0101
0000
1010
0000
0100
0001
0010
0000
,
0100
1000
0000
0001
0100
0000
0010
1000
,
0001
0010
0000
0010
0100
0000
0100
1000
,
0001
0100
0000
0100
0010
0000
0010
1000
,
0100
0010
0001
0000
1000
0010
0100
0000
,
2002
0000
0000
0000
,
0000
0000
0000
0000
,
0000
0000
3003
0000
;

//---------------dance-single - ----------------
#NOTES:
     dance-single:
     :
     Hard:
     11:
     0.447044,0.495690,0.284483,1.120690,0.038793,363.000000,330.000000,33.000000,130.000000,0.000000,0.000000,0.447044,0.495690,0.284483,1.120690,0.038793,363.000000,330.000000,33.000000,130.000000,0.000000,0.000000:
0000
0000
0000
0000
,
0000
0000
0000
0000
,
0010
0010
1000
0100
0010
0001
0100
0020
,
0030
0010
1000
0100
0001
0001
0100
1000
,
0001
0010
0001
0100
0010
1000
0100
0020
,
0000
0000
0032
0000
0000
0000
2003
0000
0000
0000
3200
0000
0000
0320
0000
0000
,
0031
0000
1000
0000
0100
0000
1000
0000
0001
0000
0020
0000
0000
0032
0000
0000
,
0103
0000
0001
0000
1000
0000
0001
0000
0100
0000
0020
0000
0000
2030
0000
0000
,
3200
1000
1300
0002
0010
0013
0100
1000
,
0001
0100
0010
1000
0001
0010
0100
0010
,
0001
0000
0100
0000
0010
0000
0100
0000
0001
0000
0020
0000
0000
0032
0000
0000
,
0103
0000
0010
0000
1000
0000
0010
0000
0100
0000
0020
0000
0000
2030
0000
0000
,
3200
0010
0310
0002
1000
1003
0100
0010
,
0001
1000
0010
0100
0001
1000
0200
0000
,
0300
0000
0022
0000
0033
2002
0000
3003
,
2020
0000
3030
0220
0000
0330
0001
0010
,
0000
0000
2200
0000
3300
0202
0000
0303
,
1001
0001
1000
0010
0100
0001
1000
0100
,
0020
0000
0230
0000
2300
0001
3002
0010
,
0023
0000
0001
0032
0000
0100
0203
0010
,
0320
0000
1000
2030
0000
0100
3200
0300
,
0021
0001
0031
0210
0010
0310
1100
0000
,
0020
0000
0032
0000
0203
1000
2300
0100
,
3200
0000
0001
0302
0000
1000
2003
0010
,
3020
0000
1000
2030
0000
0001
3002
0003
,
0120
0100
0130
2001
0001
3001
0110
0000
,
0002
0000
0203
0000
0320
1000
2030
0100
,
3200
0000
0001
0302
0000
0100
0203
1000
,
2300
0000
0010
3020
0000
1000
2030
3000
,
0102
0100
0103
0210
0010
0310
1010
0000
,
0001
0000
0010
0000
1000
0000
0010
0000
0001
0000
2000
0000
0000
3020
0000
0000
,
0031
0000
0010
0000
1000
0000
0010
0000
0001
0000
0020
0000
0000
0230
0000
0000
,
0302
1000
1003
0200
0010
0310
0001
0100
,
0010
1000
0100
0010
0100
1000
0001
0100
,
0010
0000
1000
0000
0100
0000
1000
0000
0010
0000
0200
0000
0000
0302
0000
0000
,
0013
0000
0001
0000
0100
0000
0001
0000
0010
0000
0200
0000
0000
2300
0000
0000
,
3002
0100
0103
0020
1000
1030
0001
1000
,
0010
0100
0001
1000
0100
0010
0002
0000
,
0003
0000
2200
0000
3300
2002
0000
3003
,
0202
0000
0303
0220
0000
0330
1000
0010
,
0000
0000
0202
0000
0303
2200
0000
3300
,
1001
1000
0001
0010
0100
1000
0001
0010
,
0200
0000
0320
0000
0032
1000
2003
0100
,
3200
0000
1000
2300
0000
0010
3020
0100
,
0230
0000
0001
0302
0000
0010
0023
0030
,
1200
1000
1300
0120
0100
0130
0011
0000
,
0200
0000
2300
0000
3020
0001
0032
0010
,
0023
0000
1000
2030
0000
0001
3002
0100
,
0203
0000
0001
0302
0000
1000
2003
3000
,
0210
0010
0310
1002
1000
1003
0110
0000
,
2000
0000
3020
0000
0230
0001
0302
0010
,
0023
0000
1000
2030
0000
0010
3020
0001
,
0032
0000
0100
0203
0000
0001
0302
0003
,
2010
0010
3010
0120
0100
0130
0101
0000
,
0010
0010
1000
0100
0010
0001
0100
0010
,
2002
0000
0000
0000
,
0000
0000
0000
0000
,
0000
0000
3003
0000
;

//---------------dance-double - ----------------
#NOTES:
     dance-double:
     :
     Easy:
     5:
     0.209360,0.260776,0.077586,0.241379,0.000000,170.000000,161.000000,9.000000,28.000000,0.000000,0.000000,0.209360,0.260776,0.077586,0.241379,0.000000,170.000000,161.000000,9.000000,28.000000,0.000000,0.000000:
00000000
00000000
00000000
00000000
,
00000000
00000000
00000000
00000000
,
00100000
00000000
01000000
00000000
,
00001000
00000000
00010000
00000000
,
00000100
00000000
00000010
00000000
,
00000001
00000000
00001000
00000000
,
00000010
00000000
00001000
00000100
,
00000001
00000000
00000100
00001000
,
00000001
00000000
00000010
00001000
,
00010000
00000000
00001000
01000000
,
00100000
00000000
10000000
00010000
,
01000000
00000000
00010000
00100000
,
01000000
00000000
00100000
00001000
,
00010000
00000000
00000100
00000010
,
00000110
00001001
00000000
00001000
,
00000001
00000010
00000100
00000010
,
00000110
00001001
00000000
00000001
,
00001000
00000100
00000010
00000100
,
00000020
00000030
00000002
00000003
,
00000200
00000300
00002000
00003000
,
00000100
00000001
00000010
00001000
,
00010000
01000000
00010000
00001000
,
00000020
00000030
00002000
00003000
,
00020000
00030000
02000000
03000000
,
00010000
00001000
00000010
00000100
,
00010000
00001000
01000000
00100000
,
02000000
03000000
00020000
00030000
,
00200000
00300000
20000000
30000000
,
00100000
00010000
01000000
10000000
,
01000000
00100000
10000000
00010000
,
00100000
00000000
01000000
10000000
,
00010000
00000000
00100000
00001000
,
00010000
00000000
00000100
00000010
,
00000001
00000000
00001000
00000001
,
00000010
00000000
00000001
00000100
,
00001000
00000000
00010000
00001000
,
00100000
00000000
00010000
00100000
,
01000000
00000000
10000000
00010000
,
01100000
20020000
30030000
00100000
,
01000000
00010000
10000000
00010000
,
01100000
20020000
30030000
10000000
,
00010000
00100000
01000000
10000000
,
00200000
00300000
20000000
30000000
,
00020000
00030000
02000000
03000000
,
00010000
10000000
00100000
01000000
,
00001000
00010000
00000010
00001000
,
00000200
00000300
00020000
00030000
,
00002000
00003000
00200000
00300000
,
00001000
00010000
00000100
00000010
,
00001000
00010000
01000000
10000000
,
00200000
00300000
20000000
30000000
,
02000000
03000000
00020000
00030000
,
01000000
10000000
00100000
00010000
,
00001000
00000100
00000001
00001000
,
00000100
00000010
00001000
00010000
,
00011000
00000000
00000000
00000000
;

//---------------dance-double - ----------------
#NOTES:
     dance-double:
     :
     Medium:
     9:
     0.358374,0.371767,0.250000,0.482759,0.051724,291.000000,262.000000,29.000000,56.000000,0.000000,0.000000,0.358374,0.371767,0.250000,0.482759,0.051724,291.000000,262.000000,29.000000,56.000000,0.000000,0.000000:
00000000
00000000
00000000
00000000
,
00000000
00000000
00000000
00000000
,
00000010
00000000
00000000
00000000
00000100
00000000
00000000
00000000
00000001
00000000
00001000
00000000
00000000
00000100
00000000
00000000
,
00010000
00000000
00000000
00000000
00001000
00000000
00000000
00000000
01000000
00000000
00010000
00000000
00000000
10000000
00000000
00000000
,
00100000
00000000
00000000
00000000
10000000
00000000
00000000
00000000
00010000
00000000
01000000
00000000
00000000
00100000
00000000
00000000
,
01000000
00000000
00000000
00000000
00001000
00000000
00000000
00000000
00010000
00000000
00000100
00000000
00000000
00000010
00000000
00000000
,
00000100
00000000
00000000
00000000
00000010
00000000
00000000
00000000
00000001
00000000
00000100
00000000
00000000
00000010
00000000
00000000
,
00001000
00000000
00000000
00000000
00000100
00000000
00000000
00000000
00000010
00000000
00001000
00000000
00000000
00010000
00000000
00000000
,
02200000
00000000
03300000
20020000
00000000
30030000
01010000
00000000
,
10100000
01000000
00010000
00100000
,
01000000
00000000
00000000
00000000
10000000
00000000
00000000
00000000
00010000
00000000
01000000
00000000
00000000
00100000
00000000
00000000
,
00010000
00000000
00000000
00000000
00001000
00000000
00000000
00000000
00000010
00000000
00000100
00000000
00000000
00000010
00000000
00000000
,
00002002
00000000
00003003
00000220
00000000
00000330
00001100
00000000
,
00000011
00001000
00000100
00000020
,
00000030
00000000
00000002
00000000
00000000
00002000
00003003
00000000
,
00001001
00000000
00000000
00011000
00000000
00000000
00020000
20000000
,
30030000
00000000
00200000
00000000
00000000
02000000
03300000
00000000
,
01100000
00000000
01000000
00001000
00010000
00000000
00000100
00000010
,
00001001
00000000
00000110
00000000
00001000
00000001
00000100
00000000
,
00000010
00002000
00000000
00003001
00000020
00000000
00000130
00010000
,
00001000
00200000
00000000
00310000
20000000
00000000
30010000
01000000
,
00100000
00020000
00000000
00130000
02000000
00000000
03100000
10000000
,
01010000
00000000
10100000
00000000
00010000
01000000
00100000
00000000
,
10000000
02000000
00000000
03100000
00002000
00000000
00013000
00000010
,
00000100
00000002
00000000
00000103
00000020
00000000
00000130
00001000
,
00010000
00000020
00000000
00010030
00002000
00000000
00013000
01000000
,
00100000
00000000
10010000
00000000
00100000
10000000
01000000
00000000
,
00010000
00002000
00000000
00003010
00000002
00000000
00001003
00000100
,
00000010
00000001
00000000
00000001
00001000
00000000
00001000
00000100
,
00010000
00001000
00000000
00001000
00100000
00000000
00100000
00010000
,
10000000
00000000
00000000
00000000
00100000
00000000
00000000
00000000
00010000
00000000
00100000
00000000
00000000
01000000
00000000
00000000
,
00001000
00000000
00000000
00000000
00010000
00000000
00000000
00000000
00000100
00000000
00000010
00000000
00000000
00001000
00000000
00000000
,
00020000
00000000
00030000
00000200
00000000
00000300
00000011
00000000
,
00001100
00000000
00000001
00000000
00000010
00000100
00001000
00000000
,
00000001
00000000
00000000
00000000
00000100
00000000
00000000
00000000
00001000
00000000
00000100
00000000
00000000
00000010
00000000
00000000
,
00010000
00000000
00000000
00000000
00001000
00000000
00000000
00000000
00100000
00000000
01000000
00000000
00000000
00010000
00000000
00000000
,
00002000
00000000
00003000
00200000
00000000
00300000
11000000
00000000
,
00110000
10000000
01000000
00200000
,
00300000
00000000
00020000
00000000
00000000
20000000
30030000
00000000
,
10010000
00000000
00000000
00011000
00000000
00000000
00002000
00000002
,
00003003
00000000
00000020
00000000
00000000
00000200
00000330
00000000
,
00000110
00000000
00000010
00000100
00001000
00000000
00000100
00000010
,
00001001
00000000
00000110
00000000
00001000
00000001
00000010
00000000
,
00000100
00002000
00000000
00003001
00000200
00000000
00000310
00010000
,
00001000
02000000
00000000
03010000
20000000
00000000
30010000
00100000
,
01000000
00020000
00000000
01030000
00200000
00000000
01300000
10000000
,
00110000
00000000
11000000
00000000
00010000
00100000
01000000
00000000
,
00010000
00002000
00000000
00013000
00000200
00000000
00010300
00000100
,
00000010
00000002
00000000
00000013
00000200
00000000
00000310
00001000
,
00010000
02000000
00000000
03010000
00002000
00000000
00013000
00100000
,
01000000
00000000
10010000
00000000
01000000
00010000
00100000
00000000
,
01000000
20000000
00000000
30010000
02000000
00000000
03100000
00010000
,
00001000
00000010
00000000
00000010
00000100
00000000
00000100
00001000
,
00000001
00000010
00000000
00000010
00001000
00000000
00001000
00010000
,
01000000
00100000
00010000
00000000
10000000
00100000
01000000
00000000
,
20020000
00000000
00000000
00000000
,
00000000
00000000
00000000
00000000
,
00000000
00000000
30030000
00000000
;

//---------------dance-double - ----------------
#NOTES:
     dance-double:
     :
     Hard:
     11:
     0.447044,0.495690,0.284483,1.120690,0.038793,363.000000,330.000000,33.000000,130.000000,0.000000,0.000000,0.447044,0.495690,0.284483,1.120690,0.038793,363.000000,330.000000,33.000000,130.000000,0.000000,0.000000:
// measure 0
00000000
00000000
00000000
00000000
,  // measure 1
00000000
00000000
00000000
00000000
,  // measure 2
00100000
00100000
10000000
01000000
00100000
00001000
00010000
00000020
,  // measure 3
00000030
00000010
00001000
00000100
00000001
00000001
00000100
00010000
,  // measure 4
00001000
00100000
00010000
01000000
00100000
10000000
01000000
00200000
,  // measure 5
00000000
00000000
00302000
00000000
00000000
00000000
00023000
00000000
00000000
00000000
00030200
00000000
00000000
00000320
00000000
00000000
,  // measure 6
00000031
00000000
00001000
00000000
00000100
00000000
00001000
00000000
00000001
00000000
00000020
00000000
00000000
00000032
00000000
00000000
,  // measure 7
00000103
00000000
00001000
00000000
00010000
00000000
00001000
00000000
01000000
00000000
00200000
00000000
00000000
20300000
00000000
00000000
,  // measure 8
32000000
10000000
13000000
00020000
00100000
00130000
01000000
10000000
,  // measure 9
00010000
01000000
00001000
00010000
00001000
00000010
00000100
00000010
,  // measure 10
00000001
00000000
00000100
00000000
00000010
00000000
00000100
00000000
00000001
00000000
00000020
00000000
00000000
00000032
00000000
00000000
,  // measure 11
00000103
00000000
00000010
00000000
00001000
00000000
00000010
00000000
00000100
00000000
00000020
00000000
00000000
00002030
00000000
00000000
,  // measure 12
00003200
00010000
00010300
00002000
00100000
00103000
01000000
00100000
,  // measure 13
00010000
10000000
00100000
01000000
00010000
10000000
02000000
00000000
,  // measure 14
03000000
00000000
00220000
00000000
00330000
00202000
00000000
00303000
,  // measure 15
00022000
00000000
00033000
00020200
00000000
00030300
00001000
00000010
,  // measure 16
00000000
00000000
00000202
00000000
00000303
00002200
00000000
00003300
,  // measure 17
00001001
00000001
00001000
00000010
00000100
00000001
00001000
00000100
,  // measure 18
00000020
00000000
00000000
00000000
00000000
00000000
00000000
00000000
00000000
00000000
00000000
00000000
00000000
00000000
00000000
00000030
00000200
00000000
00000000
00000000
00000000
00000000
00000000
00000000
00000000
00000000
00000000
00000000
00000000
00000000
00000000
00000000
00020300
00000000
00000000
00000000
00000000
00000000
00000000
00000000
00001000
00000000
00000000
00000000
00000000
00000000
00000000
00000000
00032000
00000000
00000000
00000000
00000000
00000000
00000000
00000000
00100000
00000000
00000000
00000000
00000000
00000000
00000000
00000000
,  // measure 19
00203000
00000000
00010000
00320000
00000000
01000000
02030000
00100000
,  // measure 20
03200000
00000000
10000000
20300000
00000000
01000000
32000000
03000000
,  // measure 21
00210000
00010000
00310000
02100000
00100000
03100000
11000000
00000000
,  // measure 22
00200000
00000000
00320000
00000000
02030000
10000000
23000000
01000000
,  // measure 23
32000000
00000000
00001000
03002000
00000000
00010000
00023000
00000010
,  // measure 24
00030020
00000000
00001000
00002030
00000000
00000001
00003002
00000003
,  // measure 25
00000120
00000100
00000130
00002001
00000001
00003001
00000110
00000000
,  // measure 26
00002000
00000000
00003200
00000000
00000320
00000001
00000032
00000100
,  // measure 27
00000203
00000000
00001000
00002300
00000000
00010000
00023000
01000000
,  // measure 28
02030000
00000000
00100000
03200000
00000000
00010000
00320000
00030000
,  // measure 29
21000000
01000000
31000000
02100000
00100000
03100000
00110000
00000000
,  // measure 30
10000000
00000000
00100000
00000000
00010000
00000000
00100000
00000000
10000000
00000000
00200000
00000000
00000000
00320000
00000000
00000000
,  // measure 31
00031000
00000000
00000010
00000000
00000001
00000000
00000010
00000000
00001000
00000000
00000020
00000000
00000000
00000230
00000000
00000000
,  // measure 32
00002300
00000001
00003001
00000200
00000010
00000310
00001000
00000100
,  // measure 33
00000010
00000001
00000100
00000010
00000100
00001000
00010000
01000000
,  // measure 34
00100000
00000000
00010000
00000000
01000000
00000000
00010000
00000000
00100000
00000000
02000000
00000000
00000000
23000000
00000000
00000000
,  // measure 35
30100000
00000000
10000000
00000000
01000000
00000000
10000000
00000000
00100000
00000000
02000000
00000000
00000000
03020000
00000000
00000000
,  // measure 36
20030000
01000000
31000000
00200000
00010000
00310000
10000000
00010000
,  // measure 37
00100000
01000000
00010000
00001000
00000100
00000010
00000002
00000000
,  // measure 38
00000003
00000000
00002200
00000000
00003300
00020200
00000000
00030300
,  // measure 39
00022000
00000000
00033000
00202000
00000000
00303000
00010000
01000000
,  // measure 40
00000000
00000000
20200000
00000000
30300000
00220000
00000000
00330000
,  // measure 41
10010000
10000000
00010000
00100000
01000000
10000000
00010000
00100000
,  // measure 42
02000000
00000000
03200000
00000000
00302000
00010000
00023000
00000100
,  // measure 43
00030200
00000000
00001000
00002300
00000000
00000010
00003020
00000100
,  // measure 44
00000230
00000000
00000001
00000302
00000000
00000010
00000023
00000030
,  // measure 45
00001200
00001000
00001300
00000120
00000100
00000130
00000011
00000000
,  // measure 46
00000200
00000000
00002300
00000000
00003020
00000001
00000032
00000010
,  // measure 47
00000023
00000000
00010000
00020030
00000000
00001000
00032000
01000000
,  // measure 48
02003000
00000000
00010000
03020000
00000000
10000000
20030000
30000000
,  // measure 49
02100000
00100000
03100000
10020000
10000000
10030000
01100000
00000000
,  // measure 50
00020000
00000000
00230000
00000000
02300000
10000000
23000000
00100000
,  // measure 51
30200000
00000000
00010000
00320000
00000000
00001000
00032000
00000010
,  // measure 52
00003020
00000000
00000100
00000230
00000000
00001000
00002300
00003000
,  // measure 53
00000012
00000010
00000013
00000120
00000100
00000130
00001100
00000000
,  // measure 54
00000010
00000010
00000001
00000100
00000010
00010000
00001000
00010000
,  // measure 55
00022000
00000000
00000000
00000000
,  // measure 56
00000000
00000000
00000000
00000000
,  // measure 57
00000000
00000000
00033000
00000000
;

//---------------dance-single - ----------------
#NOTES:
     dance-single:
     :
     Challenge:
     13:
     0.565271,0.545259,0.155172,0.103448,0.224138,459.000000,441.000000,18.000000,12.000000,0.000000,0.000000,0.565271,0.545259,0.155172,0.103448,0.224138,459.000000,441.000000,18.000000,12.000000,0.000000,0.000000:
0000
0000
0000
0000
,
0000
0000
0000
0000
,
0001
0001
1000
0010
0100
1000
0100
0001
,
0000
0000
0010
0000
0010
0000
0100
0000
1000
0001
1000
0001
1000
0000
0100
0000
,
1000
1000
0010
0100
1000
0100
0001
0010
,
0001
0000
0100
0000
1000
0000
0010
0000
0100
0001
0100
0001
0100
0000
0010
0000
,
2010
0000
0000
0000
3001
0000
0100
0000
0010
0000
2000
0000
0000
3200
0000
0000
,
0320
0000
0001
0000
0031
0000
1000
0001
1000
0000
0100
0000
0010
0001
0000
0001
,
0100
0000
0010
0000
1000
0000
0001
0000
0010
0000
0100
0000
1000
0001
0000
0001
,
0100
0000
0010
1000
0010
0000
0000
0000
1000
0000
0100
0000
0001
0000
0000
0000
,
0102
0000
0010
1000
1003
0001
0100
0010
,
2000
0000
0100
0000
0100
0000
0000
0000
3001
0000
0100
0000
0010
1000
0000
1000
,
0001
0000
0010
0000
0100
0000
0010
0000
0001
0000
0100
0000
0010
1000
0000
1000
,
0100
0000
0010
0000
0001
0000
0000
0000
1000
0001
1000
0001
1000
0000
0010
0000
,
0100
0000
0101
0010
0000
1100
0001
0000
,
0101
0000
0010
0000
1000
0000
0100
0000
1000
0001
1000
0001
1000
0000
0010
0000
,
0100
0000
1010
0001
0000
0011
0100
0000
,
1010
0000
0010
0000
0010
0000
0100
0001
0100
0010
0100
0001
1000
0000
1000
0000
,
0001
0100
1000
0100
0010
0100
1000
0100
,
0010
0100
0001
0010
1000
0010
0100
0010
,
1000
0010
0001
0100
0010
0001
0010
1000
,
0010
0000
0100
0000
0010
0000
0001
0000
0010
1000
0010
1000
0010
0000
0100
0000
,
0001
0010
1000
0010
0001
0100
0010
0100
,
1000
0100
0001
0100
1000
0100
0010
1000
,
0100
0001
0100
0010
0100
1000
0010
0001
,
0010
0000
0100
0000
0010
0000
0001
0000
0010
1000
0010
1000
0010
0000
0100
0000
,
0001
0010
0001
0100
1000
0100
0010
0100
,
0001
1000
0100
0010
1000
0010
0001
0100
,
0001
0010
1000
0010
0100
0010
1000
0010
,
0001
0000
0100
0000
0010
0000
1000
0000
0100
0010
0100
0010
0100
0000
1000
0000
,
1002
0000
0000
0000
0013
0000
0100
0000
0010
0000
0001
0000
1000
0010
0000
1000
,
0002
0000
0100
0000
0103
0000
0010
0000
1000
0000
0100
0000
0010
0001
0000
1000
,
0001
0000
0100
0000
0010
0000
1000
0000
0001
0000
0010
0000
0100
1000
0000
0010
,
1000
0001
0010
0000
0100
0001
0100
1000
,
2100
0000
0000
0000
0001
0000
0100
0000
3100
0000
1000
0000
0010
1000
0000
0100
,
0002
0010
0010
0000
1003
0100
0001
0000
,
0010
0000
0001
0000
0100
0000
0010
0000
1000
0000
0100
0000
0010
0001
0000
0001
,
1000
0000
0010
0000
0100
0000
0000
0000
0001
0010
0001
0010
0001
0000
1000
0000
,
0100
0000
1010
0100
0000
0101
0010
0000
,
1100
0000
0010
0000
0001
0000
0100
0000
0010
1000
0010
1000
0010
0000
0100
0000
,
0001
0000
0011
1000
0000
0101
0010
0000
,
1010
0000
0001
0000
0001
0000
1000
0100
0010
0100
0010
0100
1000
0000
0001
0000
,
0100
0010
0100
1000
0100
0001
0100
0010
,
0001
0010
1000
0010
0100
0010
1000
0100
,
0001
0100
1000
0010
0100
1000
0100
0010
,
0100
0000
1000
0000
0100
0000
0001
0000
1000
0010
1000
0010
1000
0000
0100
0000
,
0010
0001
1000
0001
0100
1000
0100
0010
,
0100
1000
0100
0001
1000
0100
0010
1000
,
0010
0100
0010
1000
0010
0001
0100
0001
,
0010
0000
1000
0000
0010
0000
0001
0000
0100
0010
0100
0010
0100
0000
1000
0000
,
0100
0010
1000
0001
0010
1000
0010
0001
,
0100
0010
0100
0001
0010
1000
0010
0001
,
1000
0010
0001
0010
0100
0010
0001
0010
,
1000
0100
0010
0001
1010
0101
0010
1000
,
0100
0000
0100
0000
1000
0000
0010
0000
0001
0100
0001
0100
0001
0000
1000
0020
,
0200
0000
0000
0000
,
0000
0000
0000
0000
,
0000
0000
0330
0000
;
