#TITLE:Jungle Boogie;
#ARTIST:Kool & The Gang;
#BANNER:Jungle Boogie-bn.png;
#BACKGROUND:Jungle Boogie-bg.png;
#JACKET:Jungle Boogie-jacket.png;
#MUSIC:Jungle Boogie.ogg;
#OFFSET:-1.463;
#SAMPLESTART:28.911;
#SAMPLELENGTH:20;
#DISPLAYBPM:103:108;
#BPMS:0=102.56,8=104.05,16=105.57,32=105.61,41=106.06,48=106.12,64=106.35,72=107.14,80=106.82,84=106.51,96=107.78,100=106.19,108=107.46,112=106.51,128=106.75,144=106.98,152=105.26,154=106.51,156=106.19,160=106.04;
#BGCHANGES:;

//---------------dance-single - ----------------
#NOTES:
     dance-single:
     :
     Beginner:
     3:
     :
0000
0000
0000
0000
,
0000
0000
0000
0000
,
0000
0000
0000
0000
,
0000
0000
0000
0000
,
0001
0000
0001
0000
,
0010
0000
0010
0000
,
1000
0000
1000
0000
,
0100
0000
0100
0000
,
1000
1000
0000
1000
,
0000
0010
0000
0010
,
0000
0100
0000
0100
,
0000
0001
0000
0001
,
0001
0001
0000
0001
,
0000
1000
0000
1000
,
0000
0100
0000
0100
,
0000
0010
0000
0010
,
0010
0010
0000
0001
,
0001
0000
1000
1000
,
0000
0100
0100
0000
,
0010
0010
0000
0000
,
0100
0100
0000
0000
,
1000
1000
0000
0000
,
0001
0001
0000
0000
,
0010
0010
0000
0000
,
0010
0010
0000
0010
,
0000
0001
0000
0001
,
0000
0100
0000
0100
,
0000
0010
0000
0010
,
0010
0010
0000
0010
,
0000
1000
0000
1000
,
0000
0100
0000
0100
,
0000
0010
0000
0010
,
0010
0010
0000
0000
,
0100
0100
0000
0000
,
1000
1000
0000
0000
,
0001
0001
0000
0000
,
0010
0010
0000
0000
,
0001
0001
0000
0000
,
1000
1000
0000
0000
,
0100
0100
0000
0000
;

//---------------dance-single - ----------------
#NOTES:
     dance-single:
     :
     Easy:
     6:
     :
0000
0000
0000
0000
,
0000
0000
0000
0000
,
0000
0000
0000
0000
,
0000
0000
0000
0000
,
0001
0100
0010
1000
,
0100
0010
0001
0100
,
1000
0100
0001
0010
,
1000
0010
0001
1000
,
1001
0100
0000
0010
,
0000
0001
0000
1000
,
0000
0010
0000
0100
,
0000
0001
0000
1000
,
0110
1000
0000
0001
,
0000
0010
0000
1000
,
0000
0010
0000
0100
,
0000
0001
0000
0100
,
1000
0001
0110
1001
,
0010
0100
0000
1001
,
0001
0010
0110
1001
,
1000
0010
0000
1001
,
0020
0001
0130
1001
,
0100
1000
0000
0110
,
0020
1000
0130
1001
,
0100
0001
0000
0110
,
0010
1000
0000
0001
,
0000
1000
0000
0100
,
0000
0010
0000
0001
,
0000
0010
0000
0100
,
1000
0010
0000
0001
,
0000
0010
0000
0100
,
0000
0001
0000
1000
,
0000
0100
0000
0010
,
0001
1000
0220
0330
,
1000
0100
0010
1001
,
1000
0001
0220
0330
,
0001
0100
0010
1001
,
0010
0100
2002
3003
,
0100
0010
1000
0110
,
0100
0010
2002
3003
,
0010
0100
0001
0110
;

//---------------dance-single - ----------------
#NOTES:
     dance-single:
     :
     Medium:
     9:
     :
0000
0000
0000
0000
,
0000
0000
0000
0000
,
0000
0000
0000
0000
,
0000
0000
0000
0000
,
1000
0001
0000
0010
1000
0000
0101
0000
,
0001
0010
0000
1000
0001
0000
0110
0000
,
1000
0010
0000
0100
1000
0000
0011
0000
,
0001
0100
0000
0010
0001
0000
1100
0000
,
0010
0000
0000
0001
0000
0000
0100
0000
0000
0010
0000
0000
1000
0000
0000
0100
,
0000
0000
0001
0000
0000
1000
0000
0000
0010
0000
0000
0000
0100
0000
0000
0000
,
1000
0000
0000
0010
0000
0000
0001
0000
0000
1000
0000
0000
0100
0000
0000
0001
,
0000
0000
0010
0000
0000
0100
0000
0000
1000
0000
0000
0000
0001
0000
0000
0000
,
1000
0000
0000
0100
0000
0000
0010
0000
0000
0001
0000
0000
0100
0000
0000
1000
,
0000
0000
0100
0000
0000
0010
0000
0000
0001
0000
0000
0000
1000
0000
0000
0000
,
0100
0000
0000
0001
0000
0000
0010
0000
0000
1000
0000
0000
0010
0000
0000
0001
,
0000
0000
0100
0000
0000
1000
0000
0000
0100
0000
0000
0000
0001
0000
0000
0000
,
0010
0000
0000
0001
0000
0000
0100
0000
1001
0000
0000
0000
1001
0000
0000
0000
,
1000
0000
0000
0100
0000
0000
0001
0000
0000
0000
0010
0000
0100
0000
0000
0000
,
0010
0000
0000
1000
0000
0000
0100
0000
1001
0000
0000
0000
1001
0000
0000
0000
,
0001
0000
0000
0100
0000
0000
1000
0000
0000
0000
0010
0000
0100
0000
0000
0000
,
0001
0000
0000
1000
0000
0000
0100
0000
0011
0000
0000
0000
0101
0000
0000
0000
,
0010
0000
0000
0100
0000
0000
1000
0000
0000
0000
0001
0000
0010
0000
0000
0000
,
1000
0000
0000
0001
0000
0000
0010
0000
1100
0000
0000
0000
1010
0000
0000
0000
,
0100
0000
0000
0010
0000
0000
0001
0000
0000
0000
1000
0000
0100
0000
0000
0000
,
0010
0000
0000
0001
0000
0000
1000
0000
0000
0100
0000
0000
0010
0000
0000
1000
,
0000
0000
0001
0000
0000
0100
0000
0000
1001
0000
0000
0000
0110
0000
0000
0000
,
1000
0000
0000
0100
0000
0000
0001
0000
0000
0010
0000
0000
1000
0000
0000
0010
,
0000
0000
0001
0000
0000
0100
0000
0000
1010
0000
0000
0000
0101
0000
0000
0000
,
0010
0000
0000
1000
0000
0000
0001
0000
0000
0010
0000
0000
0100
0000
0000
1000
,
0000
0000
0001
0000
0000
0100
0000
0000
1010
0000
0000
0000
0101
0000
0000
0000
,
0010
0000
0000
0100
0000
0000
0001
0000
0000
0010
0000
0000
1000
0000
0000
0010
,
0000
0000
0100
0000
0000
1000
0000
0000
0011
0000
0000
0000
1100
0000
0000
0000
,
1010
0000
0000
1001
0000
0000
0101
0000
0001
0000
0100
0000
1010
0000
0000
0000
,
0001
0100
0010
1000
0000
0100
1001
0000
,
0011
0000
0000
1001
0000
0000
1100
0000
1000
0000
0100
0000
0011
0000
0000
0000
,
1000
0100
0010
0001
0000
0010
1001
0000
,
0011
0000
0000
0101
0000
0000
1001
0000
0010
0000
0100
0000
1001
0000
0000
0000
,
0010
0100
0001
1000
0000
0100
1010
0000
,
1100
0000
0000
1010
0000
0000
1001
0000
0100
0000
0010
0000
1001
0000
0000
0000
,
0100
0010
1000
0001
0000
0010
0101
0000
;

//---------------dance-single - ----------------
#NOTES:
     dance-single:
     :
     Hard:
     12:
     :
0000
0000
0000
0000
,
0000
0000
0000
0000
,
0000
0000
0000
0000
,
0000
0000
0000
0000
,
0001
1000
0110
0001
1100
0000
0011
0000
,
0100
0000
0010
0000
1001
0000
0100
0000
0010
0001
0010
0000
0100
1000
0100
0000
,
0001
0100
1010
0001
1100
0000
0011
0000
,
1000
0000
0010
0000
0101
0000
1000
0000
0100
0010
0100
0000
1000
0001
1000
0000
,
0001
0000
1000
0100
0000
0010
0001
0000
0000
0100
0000
0000
1000
0000
0000
0100
,
0000
0000
0010
0000
0000
1000
0000
0000
0001
0000
0000
0000
0010
0000
0000
0000
,
0100
0000
0010
0001
0000
1000
0100
0000
0000
0001
0000
0000
0100
0000
0000
1000
,
0000
0000
0010
0000
0000
0100
0000
0000
0001
0000
0000
0000
1000
0000
0000
0000
,
0010
0000
1000
0100
0000
0001
0100
0000
0000
1000
0000
0000
0010
0000
0000
0001
,
0000
0000
0010
0000
0000
0100
0000
0000
0001
0000
0000
0000
0010
0000
0000
0000
,
1000
0000
0010
0001
0000
1000
0010
0000
0000
0100
0000
0000
0001
0000
0000
1000
,
0000
0000
0100
0000
0000
0010
0000
0000
0001
0000
0000
0000
1000
0000
0000
0000
,
0010
0000
1000
0000
0101
0000
0011
0000
1000
0100
1000
0100
0001
0100
0001
0100
,
1000
0000
0010
0000
0101
0000
0011
0000
0100
0000
1000
0010
1000
0000
0000
0000
,
0001
0000
0100
0000
1010
0000
1100
0000
0001
0010
0001
0010
1000
0010
1000
0010
,
0001
0000
1000
0000
0110
0000
1001
0000
0000
0100
0010
0100
0010
0000
0000
0000
,
0100
0000
0010
0000
1100
0000
0011
0000
1000
0010
1000
0010
1000
0100
1000
0100
,
1000
0000
0001
0000
1010
0000
0101
0000
0000
1000
0100
0001
0100
0000
0010
0000
,
0001
0000
0100
0000
1001
0000
1010
0000
0100
0001
0100
0001
1000
0100
1000
0100
,
0010
0000
0001
0000
0110
0000
1100
0000
0010
1000
0100
0001
0000
0000
0000
0000
,
0100
0000
1000
0010
0000
0010
0001
0000
0001
0010
0000
0010
0100
0000
0100
0001
,
0000
0001
1000
0000
1000
0100
0000
0100
0020
0000
0000
0000
0032
0000
0000
0000
,
1003
0000
0100
0001
0000
0001
0100
0000
0100
1000
0000
1000
0001
0000
0001
0010
,
0000
0010
0001
0000
0001
1000
0000
1000
0020
0000
0000
0000
0230
0000
0000
0000
,
0301
0000
0010
0001
0000
1000
0001
0000
0100
0001
0000
1000
0100
0000
1000
0001
,
0000
1000
0010
0000
0100
0001
0000
0010
0200
0000
0000
0000
2300
0000
0000
0000
,
3010
0000
1000
0010
0000
0100
0010
0000
0001
0010
0000
0100
0001
0000
0100
0010
,
0000
0100
1000
0000
0001
0010
0000
1000
0200
0000
0000
0000
0320
0000
0000
0000
,
0031
0000
0100
0000
0010
0000
1000
0000
0100
0010
0100
0010
0001
1000
0001
1000
,
0010
0000
0100
0000
0001
0000
1000
0000
0000
0000
0100
0010
0100
0010
0000
0000
,
0100
0000
1000
0000
0010
0000
0001
0000
0010
1000
0010
1000
0100
0001
0100
0001
,
0100
0000
0010
0000
0001
0000
1000
0000
0010
0100
0010
0100
0010
0100
0010
0100
,
0010
0000
0100
0000
0001
0000
0010
0000
0100
1000
0100
1000
0010
0001
0010
0001
,
0010
0000
1000
0000
0100
0000
0010
0000
0000
0001
1000
0001
0100
0001
0000
0000
,
1000
0000
0100
0000
0010
0000
1000
0000
0010
0100
0010
0100
0010
0001
0010
0001
,
1000
0000
0001
0000
0100
0000
0010
0000
1001
0000
0010
0100
0010
0100
0000
0000
;

//---------------dance-single - ----------------
#NOTES:
     dance-single:
     :
     Challenge:
     14:
     :
0000
0000
0000
0000
,
0000
0000
0000
0000
,
0000
0000
0000
0000
,
0000
0000
0000
0000
,
0101
0000
0000
0100
0000
0000
1000
0000
0000
1100
0000
0001
0100
0000
0000
0010
0000
0000
1000
0000
0000
0010
0000
0000
,
1010
0000
0100
0000
0001
0000
0011
0000
0100
1000
0001
0000
0100
1000
0001
0100
,
0010
0000
0000
1000
0000
0000
0100
0000
0000
0000
0000
0000
0001
0000
0000
0000
0000
0000
1001
0000
0000
0000
0010
0000
0100
0000
0000
0000
0000
0000
0001
0000
0000
0000
0000
0000
1000
0000
0000
0000
0000
0000
0001
0000
0000
0000
0000
0000
,
0011
0000
0100
0000
1000
0000
0101
0000
0100
0010
1000
0000
0100
0010
0001
0000
,
1001
0000
0010
1000
0000
1000
0100
0000
0000
1100
0000
0000
0011
0000
0000
0101
,
0000
0000
0011
0000
0000
1100
0000
0000
1001
0000
0000
0000
1001
0000
0000
0000
,
0110
0000
0001
0010
0000
0010
0100
0000
0000
1100
0000
0000
0011
0000
0000
1001
,
0000
0000
0101
0000
0000
1010
0000
0000
0110
0000
0000
0000
0110
0000
0000
0000
,
1010
0000
0001
0010
0000
0010
0100
0000
0100
1000
0000
1000
0001
0000
0001
1000
,
0000
1000
0010
0000
0010
1000
0000
1000
0100
0000
0000
0000
0100
0000
0000
0000
,
0011
0000
1000
0001
0000
0001
0010
0000
0010
0100
0000
0100
1000
0000
1000
0010
,
0000
0010
0100
0000
0100
0001
0000
0001
1000
0000
0000
0000
1000
0000
0000
0000
,
1010
0000
0000
0000
0101
0000
0000
0000
0011
0000
0000
0000
1100
0000
0000
0000
0100
1000
0100
1000
0100
0000
0010
0000
0001
1000
0001
1000
0001
0000
0100
0000
,
0101
0000
0011
0000
0110
0000
1100
0000
0010
1000
0100
1000
0001
0000
0000
0000
,
1001
0000
0000
0000
0011
0000
0000
0000
1001
0000
0000
0000
1010
0000
0000
0000
0001
0010
0001
0010
0001
0000
1000
0000
0010
0100
0010
0100
0010
0000
1000
0000
,
1100
0000
0101
0000
1100
0000
0101
0000
0010
0001
0010
0100
1000
0000
0000
0000
,
0110
0000
0000
0000
0011
0000
0000
0000
0110
0000
0000
0000
1100
0000
0000
0000
0010
1000
0010
1000
0010
0000
0100
0000
0001
1000
0001
1000
0001
0000
0100
0000
,
0110
0000
1010
0000
1100
0000
0001
0010
0001
1000
0001
0010
0100
0000
0100
0000
,
1100
0000
0000
0000
0110
0000
0000
0000
0011
0000
0000
0000
1001
0000
0000
0000
0100
0001
0100
0001
0100
0000
0010
0000
1000
0100
1000
0100
1000
0000
0001
0000
,
0011
0000
1001
0000
0011
0000
1100
0000
0010
1000
0100
0001
0010
0000
0000
0000
,
0011
0000
0001
0100
0000
0010
2000
0000
0000
3200
0000
0000
0320
0000
0000
0032
,
0000
0000
0203
0000
0000
0320
0000
0000
2030
0000
0000
0000
3001
0000
0000
0000
,
0101
0000
0001
1000
0000
0100
0020
0000
0000
0230
0000
0000
2300
0000
0000
3002
,
0000
0000
2003
0000
0000
3020
0000
0000
0230
0000
0000
0000
0301
0000
0000
0000
,
1001
0000
0001
0010
0000
0100
1000
0000
0010
1000
0000
0100
0001
0000
1000
0001
,
0000
0010
0100
0000
0010
0001
0000
1000
0200
0000
0000
0000
0310
0000
0000
0000
,
0110
0000
0100
0010
0000
0001
1000
0000
0001
0010
0000
0100
1000
0000
0010
1000
,
0000
0001
0100
0000
0001
0010
0000
1000
0200
0000
0000
0000
0310
0000
0000
0000
,
0011
0000
0000
0000
0000
0000
0000
0000
0000
0000
0000
0000
0000
0000
0000
0000
0000
0000
0000
0000
0000
0000
0000
0000
1100
0000
0000
0000
0000
0000
0000
0000
0000
0000
0000
0000
0000
0000
0000
0000
0000
0000
0000
0000
0000
0000
0000
0000
1010
0000
0000
0000
0000
0000
0000
0000
0000
0000
0000
0000
0000
0000
0000
0000
0000
0000
0000
0000
0000
0000
0000
0000
0101
0000
0000
0000
0000
0000
0000
0000
0000
0000
0000
0000
0000
0000
0000
0000
1000
0000
0000
0000
0000
0000
0000
0000
0010
0000
0000
0000
0000
0000
0001
0000
0000
0000
0000
0000
0010
0000
0000
0000
0000
0000
0001
0000
0000
0000
0000
0000
0010
0000
0000
0000
0000
0000
0000
0000
0000
0000
0000
0000
1000
0000
0000
0000
0000
0000
0000
0000
0000
0000
0000
0000
0100
0000
0000
0000
0000
0000
0001
0000
0000
0000
0000
0000
0100
0000
0000
0000
0000
0000
0001
0000
0000
0000
0000
0000
0100
0000
0000
0000
0000
0000
0000
0000
0000
0000
0000
0000
0010
0000
0000
0000
0000
0000
0000
0000
0000
0000
0000
0000
,
0110
0000
0011
0000
1100
0000
0101
0000
0001
0010
0100
0010
1000
0010
0000
0000
,
0011
0000
0000
0000
1001
0000
0000
0000
0110
0000
0000
0000
1010
0000
0000
0000
0001
1000
0001
1000
0001
0000
0010
0000
1000
0100
1000
0100
1000
0000
0010
0000
,
1010
0000
0000
0101
0000
0000
1010
0000
0000
0101
0000
0000
0001
0010
0100
1000
0100
0010
0001
0010
0100
1000
0000
0000
,
1001
0000
0000
0000
0000
0000
0000
0000
0000
0000
0000
0000
0000
0000
0000
0000
0000
0000
0000
0000
0000
0000
0000
0000
0110
0000
0000
0000
0000
0000
0000
0000
0000
0000
0000
0000
0000
0000
0000
0000
0000
0000
0000
0000
0000
0000
0000
0000
1010
0000
0000
0000
0000
0000
0000
0000
0000
0000
0000
0000
0000
0000
0000
0000
0000
0000
0000
0000
0000
0000
0000
0000
1100
0000
0000
0000
0000
0000
0000
0000
0000
0000
0000
0000
0000
0000
0000
0000
0001
0000
0000
0000
0000
0000
0000
0000
0010
0000
0000
0000
0000
0000
0100
0000
0000
0000
0000
0000
0010
0000
0000
0000
0000
0000
0100
0000
0000
0000
0000
0000
0010
0000
0000
0000
0000
0000
0000
0000
0000
0000
0000
0000
0001
0000
0000
0000
0000
0000
0000
0000
0000
0000
0000
0000
0100
0000
0000
0000
0000
0000
1000
0000
0000
0000
0000
0000
0100
0000
0000
0000
0000
0000
1000
0000
0000
0000
0000
0000
0100
0000
0000
0000
0000
0000
0000
0000
0000
0000
0000
0000
0001
0000
0000
0000
0000
0000
0000
0000
0000
0000
0000
0000
,
0011
0000
0110
0000
1100
0000
0101
0000
1000
0100
0010
0100
0001
0100
0000
0000
,
1100
0000
0000
0000
1010
0000
0000
0000
1001
0000
0000
0000
1100
0000
0000
0000
0001
0010
0100
0010
0001
0000
1000
0000
0010
0100
0001
0100
0010
0000
1000
0000
,
1100
0000
0110
0000
0011
0000
1010
0000
0100
0000
1000
0001
1000
0001
0000
0000
,
0010
0200
0000
0310
0200
0000
0300
0000
;

//---------------dance-double - ----------------
#NOTES:
     dance-double:
     :
     Easy:
     6:
     :
00000000
00000000
00000000
00000000
,
00000000
00000000
00000000
00000000
,
00000000
00000000
00000000
00000000
,
00000000
00000000
00000000
00000000
,
00000010
00000100
00000001
00000100
,
00001000
00000100
00000010
00010000
,
00001000
00100000
00001000
01000000
,
00010000
00100000
00010000
01000000
,
00100000
10000000
00000000
00010000
,
00000000
00100000
00000000
00001000
,
00000000
00010000
00000000
00000010
,
00000000
00000100
00000000
00001001
,
00000010
00000100
00000000
00010000
,
00000000
00001000
00000000
01000000
,
00000000
00100000
00000000
10000000
,
00000000
00010000
00000000
01100000
,
10000000
10000000
01100000
10010000
,
00010000
00010000
00000000
00011000
,
00001000
00001000
00000110
00001001
,
00000001
00000001
00000000
00001001
,
00000020
00000001
00000130
00001001
,
00000010
00010000
00001000
00100000
,
02000000
00010000
03100000
10010000
,
01000000
00001000
00010000
00000100
,
00000010
00001000
00000000
00010000
,
00000000
00000100
00000000
00000010
,
00000000
00001000
00000000
00010000
,
00000000
00100000
00000000
01000000
,
00100000
00010000
00000000
00001000
,
00000000
01000000
00000000
00100000
,
00000000
00010000
00000000
00001000
,
00000000
00000010
00000000
00000100
,
00000001
00001000
00000220
00000330
,
00010000
00000100
00000000
00011000
,
00100000
01000000
20020000
30030000
,
00001000
01000000
00000000
00011000
,
00000100
00000010
00000001
00000001
,
00000100
00001000
00010000
00011000
,
00100000
01000000
10000000
10000000
,
00100000
00010000
00001000
00011000
;

//---------------dance-double - ----------------
#NOTES:
     dance-double:
     :
     Medium:
     9:
     :
00000000
00000000
00000000
00000000
,
00000000
00000000
00000000
00000000
,
00000000
00000000
00000000
00000000
,
00000000
00000000
00000000
00000000
,
00000010
00000001
00000000
00000100
00001000
00000000
00011000
00000000
,
00100000
00010000
00000000
01000000
10000000
00000000
00110000
00000000
,
10000000
00010000
00000000
00100000
10000000
00000000
01010000
00000000
,
00001000
00010000
00000000
00000100
00000010
00000000
00001001
00000000
,
00000100
00000000
00000000
00000001
00000000
00000000
00000010
00000000
00000000
00000100
00000000
00000000
00001000
00000000
00000000
00000010
,
00000000
00000000
00010000
00000000
00000000
00001000
00000000
00000000
00100000
00000000
00000000
00000000
00010000
00000000
00000000
00000000
,
10000000
00000000
00000000
01000000
00000000
00000000
00100000
00000000
00000000
00010000
00000000
00000000
01000000
00000000
00000000
00001000
,
00000000
00000000
00010000
00000000
00000000
00000100
00000000
00000000
00001000
00000000
00000000
00000000
00000010
00000000
00000000
00000000
,
00000100
00000000
00000000
00000001
00000000
00000000
00001000
00000000
00000000
00000010
00000000
00000000
00010000
00000000
00000000
00001000
,
00000000
00000000
01000000
00000000
00000000
00010000
00000000
00000000
10000000
00000000
00000000
00000000
00100000
00000000
00000000
00000000
,
01000000
00000000
00000000
00010000
00000000
00000000
10000000
00000000
00000000
01000000
00000000
00000000
00100000
00000000
00000000
00001000
,
00000000
00000000
00010000
00000000
00000000
00000100
00000000
00000000
00001000
00000000
00000000
00000000
00000001
00000000
00000000
00000000
,
00000010
00000000
00000000
00001000
00000000
00000000
00000100
00000000
00001001
00000000
00000000
00000000
00001001
00000000
00000000
00000000
,
00000001
00000000
00000000
00000100
00000000
00000000
00001000
00000000
00000000
00000000
00010000
00000000
00001000
00000000
00000000
00000000
,
00100000
00000000
00000000
00010000
00000000
00000000
01000000
00000000
10010000
00000000
00000000
00000000
10010000
00000000
00000000
00000000
,
10000000
00000000
00000000
01000000
00000000
00000000
00100000
00000000
00000000
00000000
00001000
00000000
00010000
00000000
00000000
00000000
,
00000010
00000000
00000000
00010000
00000000
00000000
00001000
00000000
01010000
00000000
00000000
00000000
00110000
00000000
00000000
00000000
,
00001000
00000000
00000000
00010000
00000000
00000000
00000100
00000000
00000000
00000000
00010000
00000000
00001000
00000000
00000000
00000000
,
01000000
00000000
00000000
00001000
00000000
00000000
00010000
00000000
00001010
00000000
00000000
00000000
00001100
00000000
00000000
00000000
,
00010000
00000000
00000000
00001000
00000000
00000000
00100000
00000000
00000000
00000000
00001000
00000000
00010000
00000000
00000000
00000000
,
00000010
00000000
00000000
00001000
00000000
00000000
00000001
00000000
00000000
00000010
00000000
00000000
00001000
00000000
00000000
00010000
,
00000000
00000000
01000000
00000000
00000000
10000000
00000000
00000000
00010000
00000000
00000000
00000000
01000000
00000000
00000000
00000000
,
00100000
00000000
00000000
10000000
00000000
00000000
00010000
00000000
00000000
00100000
00000000
00000000
00001000
00000000
00000000
00010000
,
00000000
00000000
00000100
00000000
00000000
00001000
00000000
00000000
00000001
00000000
00000000
00000000
00000100
00000000
00000000
00000000
,
00000001
00000000
00000000
00001000
00000000
00000000
00000100
00000000
00000000
00010000
00000000
00000000
00001000
00000000
00000000
01000000
,
00000000
00000000
00010000
00000000
00000000
10000000
00000000
00000000
01100000
00000000
00000000
00000000
10010000
00000000
00000000
00000000
,
00100000
00000000
00000000
00010000
00000000
00000000
00001000
00000000
00000000
00000100
00000000
00000000
00000001
00000000
00000000
00000010
,
00000000
00000000
00001000
00000000
00000000
00010000
00000000
00000000
01000000
00000000
00000000
00000000
10000000
00000000
00000000
00000000
,
00110000
00000000
00000000
10010000
00000000
00000000
11000000
00000000
10000000
00000000
01000000
00000000
00110000
00000000
00000000
00000000
,
10000000
01000000
00100000
00010000
00000000
01000000
00011000
00000000
,
00001010
00000000
00000000
00001001
00000000
00000000
00000101
00000000
00000001
00000000
00000100
00000000
00001010
00000000
00000000
00000000
,
00000001
00000100
00000010
00001000
00000000
00000100
00011000
00000000
,
00101000
00000000
00000000
00011000
00000000
00000000
01001000
00000000
00010000
00000000
00100000
00000000
00011000
00000000
00000000
00000000
,
00000010
00001000
00000100
00000010
00001000
00010000
00011000
00000000
,
00010100
00000000
00000000
00011000
00000000
00000000
00010010
00000000
00001000
00000000
00000100
00000000
00011000
00000000
00000000
00000000
,
01000000
00010000
00100000
01000000
00010000
00001000
00011000
00000000
;

//---------------dance-double - ----------------
#NOTES:
     dance-double:
     :
     Hard:
     12:
     :
00000000
00000000
00000000
00000000
,
00000000
00000000
00000000
00000000
,
00000000
00000000
00000000
00000000
,
00000000
00000000
00000000
00000000
,
00001000
00000010
00000101
00001000
00000110
00000000
00001001
00000000
,
00000010
00000000
00000001
00000000
00001100
00000000
00000010
00000000
00000001
00000100
00000001
00000000
00001000
00000010
00001000
00000000
,
00000100
00000010
00001001
00000010
00000101
00000000
00001100
00000000
,
00000010
00000000
00001000
00000000
00000100
00000000
00010000
00000000
00001000
00010000
00001000
00000000
00010000
00001000
00010000
00000000
,
00001000
00000000
00000100
00000001
00000000
00000010
00001000
00000000
00000000
00010000
00000000
00000000
00100000
00000000
00000000
10000000
,
00000000
00000000
01000000
00000000
00000000
00010000
00000000
00000000
00001000
00000000
00000000
00000000
00010000
00000000
00000000
00000000
,
00100000
00000000
01000000
00010000
00000000
10000000
01000000
00000000
00000000
00100000
00000000
00000000
00001000
00000000
00000000
00010000
,
00000000
00000000
00000100
00000000
00000000
00000001
00000000
00000000
00000100
00000000
00000000
00000000
00000010
00000000
00000000
00000000
,
00001001
00000000
00000100
00000010
00000000
00000001
00001000
00000000
00000000
00000010
00000000
00000000
00000100
00000000
00000000
00001000
,
00000000
00000000
00010000
00000000
00000000
01000000
00000000
00000000
10100000
00000000
00000000
00000000
01010000
00000000
00000000
00000000
,
01100000
00000000
10000000
00010000
00000000
01000000
00100000
00000000
00000000
00010000
00000000
00000000
00100000
00000000
00000000
10000000
,
00000000
00000000
01000000
00000000
00000000
00010000
00000000
00000000
00001100
00000000
00000000
00000000
00000101
00000000
00000000
00000000
,
00001000
00000000
00000010
00000000
00000101
00000000
00000011
00000000
00001000
00000100
00001000
00000100
00010000
00001000
00010000
00001000
,
00100000
00000000
00010000
00000000
11000000
00000000
10100000
00000000
01000000
00000000
00010000
00100000
00010000
00000000
00000000
00000000
,
10000000
00000000
01000000
00000000
00110000
00000000
01010000
00000000
10000000
00100000
10000000
00100000
01000000
00010000
01000000
00010000
,
00100000
00000000
00001000
00000000
00010000
00000000
00000100
00000000
00000000
00010000
00001000
00010000
00001000
00000000
00000000
00000000
,
00000010
00000000
00000100
00000000
00001100
00000000
00001010
00000000
00000001
00001000
00000001
00001000
00000100
00010000
00000100
00010000
,
00001000
00000000
01000000
00000000
01010000
00000000
01100000
00000000
00000000
00100000
10000000
01000000
10000000
00000000
00010000
00000000
,
00100000
00000000
00010000
00000000
10010000
00000000
11000000
00000000
00100000
00010000
00100000
00010000
01000000
00001000
01000000
00001000
,
00010000
00000000
00001000
00000000
00001010
00000000
00000110
00000000
00000010
00000001
00000100
00001000
00000000
00000000
00000000
00000000
,
00001000
00000000
00000100
00000001
00000000
00000001
00000010
00000000
00000010
00000100
00000000
00000100
00001000
00000000
00001000
00000010
,
00000000
00000010
00010000
00000000
00010000
00001000
00000000
00001000
00200000
00000000
00000000
00000000
02300000
00000000
00000000
00000000
,
03010000
00000000
00010000
01000000
00000000
01000000
00100000
00000000
00100000
00010000
00000000
00010000
10000000
00000000
10000000
01000000
,
00000000
01000000
00100000
00000000
00100000
00001000
00000000
00001000
00020000
00000000
00000000
00000000
00032000
00000000
00000000
00000000
,
00013000
00000000
00100000
00010000
00000000
00001000
00010000
00000000
01000000
00010000
00000000
00001000
00000100
00000000
00001000
00010000
,
00000000
00001000
00000010
00000000
00000001
00001000
00000000
00000010
00000200
00000000
00000000
00000000
00000320
00000000
00000000
00000000
,
00001030
00000000
00001000
00000100
00000000
00000100
00010000
00000000
00010000
00100000
00000000
00100000
01000000
00000000
01000000
00001000
,
00000000
00001000
00000010
00000000
00000010
00000100
00000000
00000100
00002000
00000000
00000000
00000000
00003002
00000000
00000000
00000000
,
00001003
00000000
00000100
00000000
00000010
00000000
00000001
00000000
00000100
00001000
00000100
00001000
00010000
01000000
00010000
01000000
,
00010000
00000000
00001000
00000000
00000010
00000000
00000001
00000000
00000000
00000000
00001000
00000001
00001000
00000001
00000000
00000000
,
00001000
00000000
00000100
00000000
00010000
00000000
00001000
00000000
00100000
00010000
00100000
00010000
10000000
01000000
10000000
01000000
,
00100000
00000000
00001000
00000000
00010000
00000000
00000100
00000000
00010000
00001000
00010000
00001000
00010000
00001000
00010000
00001000
,
00010000
00000000
01000000
00000000
10000000
00000000
00100000
00000000
01000000
00001000
01000000
00001000
00010000
00000010
00010000
00000010
,
00001000
00000000
00000100
00000000
00000010
00000000
00001000
00000000
00000000
00000010
00000100
00000010
00000001
00000010
00000000
00000000
,
00000001
00000000
00000100
00000000
00000010
00000000
00000001
00000000
00000010
00001000
00000010
00001000
00000010
00010000
00000010
00010000
,
00001000
00000000
01000000
00000000
00100000
00000000
01000000
00000000
10010000
00000000
01000000
00100000
01000000
00100000
00000000
00000000
;
