#TITLE:JOMANDA;
#ARTIST:DJ YOSHITAKA;
#BANNER:JOMANDA.png;
#BACKGROUND:JOMANDA-bg.png;
#JACKET:JOMANDA-jacket.png;
#MUSIC:JOMANDA.ogg;
#SAMPLESTART:62.759;
#SAMPLELENGTH:20;
#DISPLAYBPM:90:300;
#BPMS:0=195,134=160,138=140,140=120,142=90,146.5=95,146.75=100,147=110,148=120,150=130,152=140,154=150,156=170,158=180,158.5=190,161=210,164=220,165=240,166=250,170=270,174=300,194=195;
#STOPS:69.5=0.616;
#BGCHANGES:0=JOMANDA.avi=1=0=0=0,
;

//---------------dance-single - ----------------
#NOTES:
     dance-single:
     :
     Beginner:
     4:
     :
0000
0000
0000
0000
,
0000
0000
0000
0000
,
0000
0000
0000
0000
,
0000
0000
0000
0000
,
0000
0000
0000
0000
,
0000
0000
0000
0000
,
0001
0000
0001
0000
,
0001
0000
0001
0000
,
1000
0000
1000
0000
,
1000
0000
1000
0000
,
0010
0000
0010
0000
,
0010
0000
0010
0000
,
0100
0000
0100
0000
,
0100
0000
0100
0000
,
1001
0000
0000
0000
,
0110
0000
0000
0000
,
1001
0000
0110
0000
,
1000
1000
1001
0000
,
0000
0000
0000
0000
,
0000
0000
0001
0000
,
0000
0000
0000
0000
,
0000
0000
0100
0000
,
0000
0000
0000
0000
,
0000
0000
0010
0000
,
0000
0000
0000
0000
,
0000
0000
1001
0000
,
1000
0000
0100
0000
,
1000
0000
0010
0000
,
0100
0000
0001
0000
,
0010
0000
0001
0000
,
0100
0000
0001
0000
,
1000
0000
0010
0000
,
0100
0000
0010
0010
,
0010
0000
1001
0000
,
0110
0000
1001
0000
,
0110
0000
1001
0000
,
1000
0000
0001
0000
,
0100
0000
0010
0000
,
0100
0000
0010
0000
,
1000
0000
0001
0000
,
0000
0000
0100
0000
,
0000
0000
0010
0000
,
0000
0000
1000
0000
,
0000
0000
0200
0000
,
0000
0000
0000
0000
,
0000
0000
0000
0000
,
0000
0000
0000
0000
,
0300
0000
0000
0000
,
1001
0000
0000
0000
,
0000
0000
0010
0000
,
1000
0000
0001
0000
,
0010
0000
0001
0000
,
0100
0000
1000
1000
,
1000
0000
0010
0000
,
1000
0000
0001
0000
,
0010
0000
0001
0001
,
0001
0000
0100
0100
,
0100
0000
0010
0000
,
0100
0000
0010
0000
,
1000
0000
0100
0000
,
0010
0000
0100
0100
,
0100
0000
0010
0000
,
0001
0000
1000
0000
,
0001
0000
0100
0100
,
0100
0000
0010
0010
,
0010
0000
1001
0000
,
0000
0000
0001
0000
,
1000
0000
0010
0000
,
0010
0000
1000
0000
,
0100
0000
1000
1000
,
1000
0000
0001
0000
,
0010
0000
0001
0000
,
0100
0000
0010
0000
,
1000
0000
0110
0000
,
0000
0000
1001
0000
,
0000
0000
0000
0000
,
0000
0000
0010
0000
,
0000
0000
0000
0000
,
0000
0000
1000
0000
,
0000
0000
0001
0000
,
0000
0000
0010
0000
,
0000
0000
0001
0001
,
0001
0001
0000
1001
,
0000
0000
1000
0000
,
0010
0000
1000
0000
,
0100
0000
0001
0001
,
0001
0000
0010
0000
,
0001
0000
0100
0000
,
0010
0000
1000
1000
,
1000
0000
0100
0100
,
0100
0000
1001
0000
,
0000
0000
1000
0000
,
0001
0000
0100
0000
,
0100
0000
0010
0000
,
0100
0000
0001
0001
,
0001
0000
0010
0000
,
0100
0000
1000
0000
,
0010
0000
1000
0000
,
0001
0000
0110
0000
;

//---------------dance-single - ----------------
#NOTES:
     dance-single:
     :
     Easy:
     8:
     :
0000
0000
0000
0000
,
0000
0000
0000
0000
,
0000
0000
0000
0000
,
0000
0000
0000
0000
,
0000
0000
0000
0000
,
0000
0000
0000
0000
,
0001
0100
1000
0010
,
1000
0100
0001
0010
,
0001
0001
1000
1000
,
0010
0010
0100
0100
,
0010
1000
0100
0001
,
0010
0001
0100
0010
,
1000
0100
1000
0010
,
1000
0100
0001
1000
,
1001
0010
1000
0100
,
0110
0001
0100
0010
,
1001
1000
0110
0001
,
1001
0110
1001
0000
,
0010
0000
1000
0100
,
1000
0000
0001
0000
,
0010
0000
0001
0100
,
0001
0000
0010
0000
,
0100
0000
0010
0001
,
0100
0000
0010
0000
,
1000
0000
0100
1000
,
0001
0000
1001
0010
,
0010
0010
1000
1000
,
1000
0100
1000
1000
,
0001
0001
1000
1000
,
0010
0100
0001
0001
,
0001
0001
0010
0010
,
0010
0001
0100
0010
,
0100
0010
1001
0110
,
1001
0110
1001
1000
,
0110
0001
1001
0100
,
0110
0010
1001
0010
,
1000
0100
0001
0010
,
1000
0001
1000
0010
,
1000
0001
0010
0001
,
0010
0100
1000
1000
,
0001
0001
1000
1000
,
0001
0001
0100
0100
,
0010
0010
0100
0100
,
0010
0010
0200
0000
,
0000
0000
0000
0000
,
0000
0000
0000
0000
,
0000
0000
0000
0000
,
0000
0000
0300
0000
,
1001
0000
1010
0101
,
1010
0101
1001
0010
,
0001
0100
0010
1000
,
0100
1000
0001
0001
,
1000
1000
0010
1000
,
0100
0001
0010
0001
,
0010
0100
0010
0001
,
0100
1000
0010
1000
,
0100
0001
0010
0010
,
0010
0100
0110
0001
,
0010
1000
0100
0010
,
0100
0010
0001
0100
,
0010
1000
0100
1000
,
0001
0100
1001
0010
,
0001
0100
0110
0010
,
1000
0100
1100
0001
,
0101
1000
1100
0101
,
1100
0101
1001
0010
,
1000
0100
1000
1000
,
0001
0001
0010
0001
,
0010
0100
1000
0010
,
1000
0001
0100
0100
,
0010
1000
0100
0010
,
0001
0100
0001
0010
,
0001
1000
0010
1000
,
0100
0001
0220
0000
,
0000
0330
1001
0000
,
0010
0000
1000
0000
,
0100
0000
1000
0000
,
0010
0000
1000
0000
,
0001
0000
1000
1000
,
1000
1000
0010
0010
,
0010
0010
1000
1000
,
0010
0010
1010
0101
,
1010
0101
1001
0110
,
1000
0001
0010
0001
,
0010
0100
0010
0001
,
0100
1000
0010
0010
,
1000
0001
1000
0010
,
1000
0100
0001
0010
,
0001
0100
0010
0010
,
1000
0001
0011
1100
,
0011
1100
1001
0000
,
0010
1000
0100
1000
,
0001
0001
0110
0000
,
0001
0010
0001
0100
,
1000
0010
1000
1000
,
0001
1000
0010
1000
,
0100
0010
0001
0001
,
1000
0010
1000
0100
,
1000
0001
0110
0000
;

//---------------dance-single - ----------------
#NOTES:
     dance-single:
     :
     Medium:
     12:
     :
0000
0000
0000
0000
,
0000
0000
0000
0000
,
0000
0000
0000
0000
,
0000
0000
0000
0000
,
0000
0000
0000
0000
,
0000
0000
0000
0000
,
0001
0000
0100
0000
0010
0000
1000
0100
,
0000
1000
0000
0001
0000
0010
0001
0010
,
0100
1000
0001
0100
,
0001
0010
0100
1000
0010
0000
1000
0001
,
0100
0000
0010
0000
1000
0000
0100
0010
,
0000
0001
0000
1000
0001
0010
0001
1000
,
0100
0000
0010
0000
0100
0000
1000
0001
,
0000
0010
0000
0001
0000
0100
0010
1000
,
0001
0000
0010
0001
1000
0000
0010
1000
,
0100
0000
1000
0010
0100
0000
0001
1000
,
0010
1000
0100
0010
0001
0000
1000
0001
,
0110
0000
0000
1001
0000
0000
0110
0000
1001
0000
0000
0000
0010
0000
1000
0000
,
0000
0100
0000
1000
0000
0001
0000
0010
,
0000
0001
1000
0001
1000
0000
0010
0100
,
0000
0010
0000
1000
0000
0100
0000
0001
,
0000
0010
0001
0100
0001
0000
1000
0100
,
0000
1000
0000
0010
0000
0100
0000
0001
,
0000
0010
0001
0100
1000
0000
0001
1000
,
0000
0010
0000
1000
0000
0100
0000
0010
,
0000
0001
0000
0100
1001
0000
0010
1000
,
0000
0100
0000
1000
0000
0010
0000
0001
,
0000
1000
0010
0100
0001
0000
0010
0100
,
0000
0010
0000
0001
0000
0100
0000
1000
,
0000
0001
0010
0001
1000
0000
0010
1000
,
0000
0001
0000
1000
0000
0100
0000
0001
,
0000
0010
0100
1000
0010
0000
0100
0001
,
0000
0000
1000
0000
0000
0000
0001
0000
0010
0000
0000
0010
0000
0000
0001
0000
,
0000
0000
0000
1000
0000
0000
0000
0000
0000
0000
0000
0000
0001
0000
0000
0000
0000
0000
0000
0000
0000
0000
0000
0000
1001
0000
0000
0000
0000
0000
0000
0000
0010
0000
0000
0000
0000
0000
0000
0000
1000
0000
0000
0000
0000
0000
0000
0000
,
0110
0000
0100
0000
0001
0000
1001
0000
0010
0000
0001
0000
,
0110
0000
0000
0000
0100
0000
0000
0000
1000
0000
0000
0000
1001
0000
0000
0010
0000
0000
0100
0000
0000
0010
0000
0000
,
1000
0100
0001
0000
0010
0001
1000
0010
,
0001
0100
1000
0000
0110
0001
1000
0001
,
0010
0100
1000
0000
0010
0100
0010
1000
,
0100
0010
0001
0000
1001
0000
0010
0000
,
1000
0100
0001
0000
0110
0000
0001
0000
,
0010
0001
0100
0000
1001
0000
1000
0000
,
0100
0010
0001
0000
0110
0000
0100
0000
,
0010
0001
1000
0000
0200
0000
0000
0000
,
0000
0000
0000
0000
,
0000
0000
0000
0000
,
0000
0000
0000
0000
,
0000
0000
0000
0300
,
1001
0000
0000
0000
0000
0000
0000
0000
1000
0000
0000
1000
0000
0000
0001
0000
,
0000
0001
0000
0000
0100
0000
0010
0000
0110
0000
0000
0000
0001
0000
0000
0000
,
0010
0100
1000
0001
0100
0000
0010
0000
,
1000
0100
1000
0001
0010
0000
0001
0100
,
0000
0010
1000
0100
1000
0000
0010
1000
,
0000
0100
0010
0001
0100
0000
0001
0000
,
0010
0001
0010
0100
1000
0000
0010
0000
,
1000
0000
0100
0000
0010
0000
0001
0000
0100
0000
0000
0010
0000
0000
1000
0000
,
0000
0001
0000
0000
0010
0000
0000
0000
0001
0000
0000
0100
0000
0000
1000
0000
,
0000
0010
0000
0000
0100
0000
0000
0000
0001
0000
0000
0000
0010
0000
0000
0000
,
0001
0100
0010
1000
0100
0000
0010
0000
,
0100
0010
0001
1000
0010
0000
1000
0001
,
0000
0001
0010
0100
1000
0000
0100
1000
,
0000
0010
0100
0001
0010
0000
0100
0010
,
0000
0001
0100
0010
1000
0000
0100
1000
,
0000
0000
1000
0000
0010
0000
0001
0000
0100
0000
0000
0010
0000
0000
0100
0000
,
0000
0001
0000
0000
1000
0000
0000
0000
0010
0000
0000
1000
0000
0000
0001
0000
,
0000
0100
0000
0000
1001
0000
0000
0000
1001
0000
0000
0000
0000
0000
0010
0000
,
1000
0100
0000
1000
0001
0010
0100
0000
,
1000
0000
0010
1000
0001
0000
0010
0001
,
0000
0100
1000
0000
0010
1000
0000
0100
,
0001
0000
0000
0000
1000
0000
0001
0000
0100
0000
0000
0010
0000
0000
1000
0000
,
0000
0100
0000
0002
0000
0013
0001
0100
,
0000
0000
0000
0010
0000
0000
1000
0000
0100
0000
0000
0100
0000
0000
1000
0000
,
0000
0001
0000
0000
0100
0000
0020
0000
0000
0000
0000
1030
0000
0000
0001
0000
,
0000
1000
0000
0000
0010
0000
0100
0000
0220
0000
0000
0000
0000
0000
0000
0000
,
0000
0330
2001
0001
,
0001
3001
0200
0010
,
0010
0000
0310
1000
0002
0000
0010
0000
,
0010
0013
2000
0100
,
0100
0000
3100
1000
0001
0000
0010
0000
,
0001
1000
0010
0000
1000
0000
0001
0000
,
0010
0100
1000
0000
0010
0000
1000
0000
,
0100
0000
0010
0000
0001
0000
0000
0000
1000
0000
0000
1000
0000
0000
0001
0000
,
0000
0001
0000
0000
0100
0000
0010
0000
0110
0000
0000
0000
1001
0000
0010
0000
,
0000
1000
0100
0010
0001
0000
0100
0010
,
0000
0010
1000
0001
0100
0000
0010
0000
,
1000
0100
0001
0000
0010
0000
0001
0000
,
1000
0010
1000
0001
0100
0000
0010
0000
,
1000
0001
0010
0100
0010
0000
0001
0000
,
1000
0000
0001
0000
1000
0000
0010
0000
0100
0000
0000
0010
0000
0000
1000
0000
,
0000
0100
0000
0000
0001
0000
0000
0000
0010
0000
0000
0001
0000
0000
1000
0000
,
0000
0100
0000
0000
1001
0000
0000
0000
1001
0000
0000
0000
0000
0000
0001
0000
,
0010
1000
0000
0100
0010
0000
0001
0000
,
0100
0000
1000
0010
0001
0000
0100
0010
,
0000
0100
0010
0000
1000
0001
0000
1000
,
0001
0000
0000
0000
0010
0000
0001
0000
0100
0000
0000
0010
0000
0000
1000
0000
,
0000
0100
0000
0002
0000
0013
0001
1000
,
0000
0000
0000
0010
0000
0000
0100
0000
0001
0000
0000
0010
0000
0000
0001
0000
,
0000
1000
0000
0000
0010
0000
0100
0000
0000
0000
0000
0010
0000
0000
0100
0000
,
0000
0010
0000
0000
1000
0000
0001
0000
0220
0000
0000
0000
0000
0000
0000
0000
,
0000
0000
0000
0000
,
0000
0000
0000
0000
,
0000
0330
0000
0000
;

//---------------dance-single - ----------------
#NOTES:
     dance-single:
     :
     Hard:
     16:
     :
0000
0000
0000
0000
,
0000
0000
0000
0000
,
0000
0000
0000
0000
,
0000
0000
0000
0000
,
0000
0000
0000
0000
,
0000
0000
0000
0000
,
0001
0100
1000
0010
0001
0100
0010
1010
,
0000
0101
0000
0011
0000
1000
1000
0100
,
0010
1000
0100
0001
0100
1000
0010
0001
,
0010
0000
1000
0000
0100
0000
0001
0000
1000
0000
0001
0000
0010
0000
0100
1000
,
0100
0010
0001
0100
1000
0010
0100
0101
,
0000
0000
0011
0000
0000
0000
1100
0000
0001
1000
0001
0000
1000
0010
1000
0010
,
1000
0100
0001
0010
0100
0001
1000
1010
,
0000
0000
0101
0000
0000
0000
0011
0000
0000
0000
1000
0100
1000
0000
0001
0000
,
0100
0000
0010
0000
0100
0000
1000
0000
0100
0000
0001
0000
0010
0000
0100
1000
,
0100
0000
0001
0000
0100
0000
0010
0000
0100
0000
1000
0000
0100
0000
0010
0100
,
0010
0000
1000
0000
0010
0000
0001
0000
0010
0000
1000
0000
0010
0001
0010
0001
,
0010
0000
0000
1001
0000
0000
0110
0000
1001
0000
0100
0000
0001
0000
1000
0000
,
0000
0010
0000
1000
0000
0100
0000
0001
,
0000
0010
0001
0100
0001
0010
1000
0100
,
0000
0010
0000
0001
0000
0100
0000
1000
,
0000
0010
1000
0001
0010
0001
0100
1000
,
0000
0010
0000
1000
0000
0100
0000
0001
,
0000
1000
0001
0010
0100
0010
0001
0100
,
0000
1000
0000
0001
0000
0010
0000
1000
,
0000
0001
0000
0100
1000
0001
0010
0010
,
0001
0100
1000
0100
0001
1000
0001
0010
,
0100
0010
1000
0100
1000
1000
0010
0001
,
0100
0001
0100
0010
0001
0100
0010
0010
,
0001
1000
0100
1000
0010
1000
0001
0100
,
0100
1000
0001
0010
0001
0010
0100
0010
,
0001
1000
0100
1000
0100
0001
0100
0010
,
1000
0000
0001
0000
1000
0000
0010
0000
1010
0000
0000
0101
0000
0000
0011
0000
,
0000
0000
0000
1100
0000
0000
0000
0000
0000
0000
0000
0000
0110
0000
0000
0000
0000
0000
0000
0000
0000
0000
0000
0000
1001
0000
0000
0000
0010
0000
0000
0000
1000
0000
0000
0000
0100
0000
0000
0000
0001
0000
0000
0000
0000
0000
0000
0000
,
0110
0001
0010
1000
0100
0000
1001
0100
0001
0010
1000
0000
,
0110
0000
0000
0000
1000
0000
0000
0000
0100
0000
0000
0000
0001
0000
0000
0000
0010
0000
0000
0000
0000
0000
0000
0000
1001
0000
0000
0000
0000
0000
0001
0000
0000
0100
0000
0000
0001
0000
0000
0010
0000
0000
1000
0000
0000
0100
0000
0000
,
0000
1000
0000
0001
0000
0100
0010
0010
1000
0000
0001
0010
1000
0100
1000
0001
,
0000
0010
0000
0001
0000
0100
0010
1000
0001
0010
0001
0000
1000
0010
1000
0100
,
0000
1000
0000
0001
0000
0010
0100
1000
0010
0000
1000
0000
0001
0010
0001
1000
,
0000
0010
0000
1000
0000
0100
0010
0000
0011
0000
0001
0000
0100
0000
0010
0000
,
1000
0100
0001
0100
0010
0100
0010
0001
,
0100
0010
1000
0001
0010
1000
0010
0100
,
0010
0001
0100
0010
1000
0100
0001
0010
,
0001
0100
1000
0010
0200
0000
0000
0000
,
0000
0000
0000
0000
,
0000
0000
0000
0000
,
0000
0000
0000
0000
,
0000
0000
0000
0300
,
1001
0000
0000
0000
0000
0000
0000
0000
0011
0000
0000
1100
0000
0000
0101
0000
,
0000
1010
0000
0001
1000
0000
0100
0000
0110
0000
0000
0001
0000
0000
0100
0000
,
0000
1000
0000
0000
0010
1000
0001
0100
0010
0000
0000
1000
0000
0000
0100
0000
,
0000
0001
0000
0000
0010
0001
1000
0100
1000
0000
0000
0010
0000
0000
0100
0000
,
0000
0001
0000
0000
0010
0100
1000
0000
0001
0000
0000
0100
0000
0000
0010
0000
,
0000
1000
0000
0100
1000
0000
0001
0000
0100
0000
0000
1000
0000
0000
0010
0000
,
0000
0001
0000
0000
0010
0100
1000
0001
0010
0000
0000
0001
0000
0000
0100
0000
,
0000
1000
0000
0000
0100
0010
0001
1000
0010
0000
0000
1000
0000
0000
0100
0000
,
0000
0001
0000
0000
0010
0000
0001
0100
0010
0000
0000
1000
0000
0000
0101
0000
,
0000
1100
0000
0001
1000
0000
0100
0000
1001
0000
0000
0010
0000
0000
1000
0000
,
0000
0100
0000
0000
0001
0010
0100
1000
0010
0000
0000
1000
0000
0000
0100
0000
,
0000
0001
0000
0000
1000
0010
0100
0001
0010
0000
0000
0001
0000
0000
0100
0000
,
0000
1000
0000
0000
0100
1000
0001
0000
1000
0000
0000
0010
0000
0000
0001
0000
,
0000
0100
0000
0010
1000
0000
0001
0000
1001
0000
0000
0010
0000
0000
1000
0000
,
0000
0001
0000
0000
1000
0010
0100
0001
0100
0000
0000
0010
0000
0000
1000
0000
,
0000
0001
0000
0000
0010
0001
1000
0100
0010
0000
0000
0001
0000
0000
0101
0000
,
0000
1010
0000
0001
1000
0000
0010
0100
0001
0000
0000
0011
0000
0000
0110
0000
,
0000
1100
0000
0000
1001
0000
0000
0000
1001
0000
0000
0000
0010
0000
1000
0000
,
0010
0100
0010
0001
0010
1000
0001
1000
,
0100
0010
0001
0100
0001
0010
1000
0010
,
1000
0100
1000
0001
0010
0100
0010
0001
,
0100
0000
0010
0000
1000
0000
0001
0000
0010
0001
0010
0100
0000
0000
1100
0000
,
0000
1000
0010
0100
0001
0000
2000
0000
0000
0000
3001
0000
0100
0000
1000
0000
,
0010
0100
0010
0100
0000
0001
1000
0000
0010
0000
1000
0100
0000
0100
0001
0000
,
0000
0010
0000
0001
1000
0000
0100
0000
1010
0000
0000
0101
0000
0000
0011
0000
,
0000
1100
0000
0001
1000
0010
0100
0000
0220
0000
0000
0000
0000
0000
0000
0000
,
0000
0000
0000
0000
0330
0000
0000
0000
2001
0000
0000
0001
0000
0000
0001
0000
,
0000
0001
0000
0000
3001
0000
1000
0000
0200
0000
0000
0010
0000
0000
0010
0000
,
0000
0010
0000
0000
0310
0000
0001
0000
2000
0000
0000
0010
0000
0000
0010
0000
,
0000
0010
0000
0000
3010
0000
0100
0000
0002
0000
0000
1000
0000
0000
1000
0000
,
0000
1000
0000
0000
1003
0000
0010
0000
0200
0000
0000
0001
0000
0000
1000
0000
,
0000
0301
0000
0000
0100
0000
0010
0000
2000
0000
0000
0001
0000
0000
0010
0000
,
0000
3001
0000
0000
1000
0000
0100
0000
0020
0000
0000
0001
0000
0000
1000
0000
,
0000
0031
0000
0000
0010
0000
0000
0000
0011
0000
0000
1100
0000
0000
0101
0000
,
0000
1010
0000
0000
0001
0000
0010
0000
0110
0000
0000
0000
1001
0000
0010
0000
,
0000
1000
0000
0000
0100
0010
0001
1000
0001
0000
0000
0010
0000
0000
1000
0000
,
0000
0001
0000
0000
1000
0010
1000
0100
0010
0000
0000
0001
0000
0000
1000
0000
,
0000
0001
0000
0010
0100
1000
0001
0000
0010
0000
0000
1000
0000
0000
0100
0000
,
0000
1000
0000
0001
0010
0000
0100
0000
1100
0000
0000
0001
0000
0000
0010
0000
,
0000
1000
0000
0000
0010
1000
0001
0100
0001
0000
0000
0010
0000
0000
1000
0000
,
0000
0100
0000
0000
1000
0010
0100
0001
0010
0000
0000
0100
0000
0000
0010
0000
,
0000
0001
0000
0000
1000
0000
0010
0100
0001
0000
0000
0011
0000
0000
0110
0000
,
0000
1100
0000
0000
1001
0000
0000
0000
1001
0000
0000
0000
0010
0000
1000
0000
,
0010
0100
0010
0001
0010
1000
0100
0001
,
1000
0001
0010
0100
0001
0100
0010
0100
,
0010
0001
0100
1000
0100
0010
0100
1000
,
0100
0000
0001
0000
0010
0000
1000
0000
0001
0000
0100
0010
0000
0010
1000
0000
,
0000
0000
0100
1000
0001
0000
0020
0000
0000
0000
0031
0000
0100
0000
1000
0000
,
0001
0100
0001
0100
0000
0010
1000
0000
0100
0000
0000
1000
0000
0000
0001
0000
,
0000
1000
0000
0010
0100
0000
0001
0000
0010
0000
0000
0001
0000
0000
1000
0000
,
0000
0001
0000
1000
0010
0000
0100
0000
0220
0000
0000
0000
0000
0000
0000
0000
,
0000
0000
0000
0000
,
0000
0000
0000
0000
,
0000
0330
0000
0000
;

//---------------dance-double - ----------------
#NOTES:
     dance-double:
     :
     Easy:
     7:
     :
00000000
00000000
00000000
00000000
,
00000000
00000000
00000000
00000000
,
00000000
00000000
00000000
00000000
,
00000000
00000000
00000000
00000000
,
00000000
00000000
00000000
00000000
,
00000000
00000000
00000000
00000000
,
00001000
00000010
00000001
00000100
,
00000010
00001000
00000001
00000000
,
00000010
00000010
00000100
00000100
,
00001000
00000001
00001000
00010000
,
01000000
00100000
00010000
00000100
,
00001000
00100000
00010000
00000000
,
00100000
10000000
01000000
00010000
,
00100000
01000000
10000000
00000000
,
10010000
00100000
00010000
00000100
,
00000110
00001000
00000001
00000010
,
00001001
00000010
00000110
00001000
,
00001100
00000101
00011000
00000000
,
00010000
00000000
00001000
01000000
,
00010000
00000000
00100000
00000000
,
01000000
00000000
00100000
00010000
,
10000000
00000000
00010000
00000000
,
00100000
00000000
00010000
10000000
,
01000000
00000000
10000000
00100000
,
10000000
00000000
00010000
00100000
,
00010000
00000000
00011000
00010000
,
00010000
00010000
00001000
00001000
,
00001000
00001000
00000100
00000100
,
00000001
00000010
00000001
00000001
,
00001000
00000100
00000010
00000100
,
00000010
00000001
00000100
00000100
,
00000010
00001000
00000001
00000001
,
00001000
00000001
00000011
00000110
,
00001100
00011000
00110000
00000000
,
11000000
00000000
01010000
00000000
,
10100000
00000000
10010000
00100000
,
10000000
00010000
10000000
00100000
,
00010000
00000100
00000001
00000010
,
00000001
00001000
00000010
00001000
,
00000010
00000100
00001000
00001000
,
00010000
00010000
01000000
01000000
,
00100000
00100000
00010000
10000000
,
00010000
10000000
00100000
01000000
,
00100000
01000000
00002000
00000000
,
00000000
00000000
00000000
00000000
,
00000000
00000000
00000000
00000000
,
00000000
00000000
00000000
00000000
,
00000000
00000000
00003000
00000000
,
00011000
00000000
00010000
00010000
,
00001000
00001000
00011000
00000010
,
00000001
00000100
00000001
00000010
,
00000001
00001000
00000100
00000010
,
00000100
00010000
00001000
00000100
,
00000001
00000010
00001000
00100000
,
00010000
01000000
00100000
01000000
,
00001000
00010000
01000000
01000000
,
10000000
00010000
01000000
00100000
,
01000000
00100000
01100000
00001000
,
00010000
00000100
00000010
00000010
,
00000001
00001000
00000001
00000100
,
00000010
00010000
00000100
00000100
,
00001000
00000001
00000010
00000001
,
00000010
00000100
00001000
00000010
,
00001000
01000000
10000000
10000000
,
00010000
00010000
10000000
00010000
,
10000000
10010000
10010000
00000000
,
01000000
00000000
00010000
00100000
,
00010000
00001000
00000100
00000000
,
00000001
00000010
00000001
00000100
,
00001000
00000000
00000010
00001000
,
00000010
00000100
00000001
00000010
,
00000001
00001000
01000000
00100000
,
00001000
00001000
00010000
00001000
,
00010000
01000000
02200000
00000000
,
00000000
03300000
00022000
00000000
,
00000000
00030000
00023000
00000000
,
00000000
00000000
00030200
00000000
,
00000000
00000000
00000320
00000000
,
00000000
00000000
00000031
00000100
,
00000001
00000000
00001000
00000100
,
00001000
00000000
00000010
00000100
,
00000010
00000000
00001000
00001000
,
00000001
00000100
00000110
00011000
,
01000000
10000000
00100000
10000000
,
01000000
00100000
00010000
00010000
,
01000000
00010000
00100000
01000000
,
10000000
00010000
00000100
00000100
,
00000010
00001000
00000001
00000010
,
00000001
00000100
00001000
00001000
,
00000001
00000001
00001000
00000001
,
00001000
00001001
00001001
00000000
,
00100000
00000000
10000000
01000000
,
00010000
01000000
00100000
00000000
,
10000000
01000000
10000000
10000000
,
00010000
00000000
01100000
00010000
,
01000000
00100000
10000000
01000000
,
10000000
00010000
00100000
00100000
,
00001000
00010000
00000010
00000010
,
00001000
00000001
00000220
00000000
,
00000000
00000000
00000000
00000000
,
00000000
00000000
00000000
00000000
,
00000000
00000330
00000000
00000000
;

//---------------dance-double - ----------------
#NOTES:
     dance-double:
     :
     Medium:
     12:
     :
00000000
00000000
00000000
00000000
,
00000000
00000000
00000000
00000000
,
00000000
00000000
00000000
00000000
,
00000000
00000000
00000000
00000000
,
00000000
00000000
00000000
00000000
,
00000000
00000000
00000000
00000000
,
00001000
00000000
00010000
00000000
01000000
00000000
10000000
00100000
,
00000000
01000000
00000000
00010000
00000000
00100000
00010000
00100000
,
00010000
00010000
00001000
00001000
,
00000010
00000000
00000010
00000000
00001000
00000000
00000001
00000100
,
00000010
00000000
00001000
00000000
00000100
00000000
00010000
00000010
,
00000000
00000100
00000000
00001000
00100000
01000000
00100000
01000000
,
10000000
00000000
00100000
00000000
00010000
00000000
01000000
00100000
,
00000000
10000000
00000000
00010000
00000000
00100000
00001000
00100000
,
00001000
00000000
00010000
00000010
00000100
00000000
00000010
00001000
,
00000001
00000000
00000010
00000001
00001000
00000000
00000010
00001000
,
00000100
00001000
00000001
00000000
00000100
00000010
00001000
00000000
,
00001100
00000000
00000000
00000101
00000000
00000000
00001100
00000000
00011000
00000000
00000000
00000000
00100000
00000000
10000000
00000000
,
00000000
10000000
00000000
00010000
00000000
01000000
00000000
00100000
,
00000000
01000000
00010000
00100000
00010000
00000000
10000000
01000000
,
00000000
00100000
00000000
00010000
00000000
01000000
00000000
00010000
,
00000000
10000000
01000000
00100000
00001000
00000000
00010000
00001000
,
00000000
00000100
00000000
00000100
00000000
00000010
00000000
00000010
,
00000000
00001000
00000001
00000010
00000001
00000000
00000100
00000010
,
00000000
00000010
00000000
00010000
00000000
00010000
00000000
00001000
,
00000000
00010000
00000000
01000000
01100000
00000000
00100000
00010000
,
00000000
01000000
00000000
00100000
00000000
10000000
00000000
01000000
,
00000000
10000000
00100000
01000000
00010000
00000000
00100000
00001000
,
00000000
00000100
00000000
00000001
00000000
00000010
00000000
00001000
,
00000000
00010000
00001000
00000100
00000010
00000000
00001000
00000001
,
00000000
00001000
00000000
00000100
00000000
00000010
00000000
00000001
,
00000000
00000100
00000010
00010000
01000000
00000000
00100000
00010000
,
00000000
00000000
01000000
00000000
00000000
00000000
00000000
00000000
10000000
00000000
00000000
10000000
00000000
00000000
00010000
00000000
,
00000000
00000000
00000000
00010000
00000000
00000000
00000000
00000000
00000000
00000000
00000000
00000000
01000000
00000000
00000000
00000000
00000000
00000000
00000000
00000000
00000000
00000000
00000000
00000000
01100000
00000000
00000000
00000000
00000000
00000000
00000000
00000000
10000000
00000000
00000000
00000000
00000000
00000000
00000000
00000000
01000000
00000000
00000000
00000000
00000000
00000000
00000000
00000000
,
01100000
00000000
00010000
00000000
00100000
00000000
01100000
00000000
00010000
00000000
00000100
00000000
,
00000110
00000000
00000000
00000000
00000010
00000000
00000000
00000000
00001000
00000000
00000000
00000000
00001001
00000000
00000000
00000010
00000000
00000000
00001000
00000000
00000000
00000100
00000000
00000000
,
00010000
00000010
00001000
00000000
00001100
00000010
00000100
00000010
,
00000001
00000100
00001000
00000000
01001000
00100000
10000000
01000000
,
10000000
00100000
00010000
00000000
01010000
10000000
00010000
10000000
,
01000000
00100000
00010000
00000000
10010000
00000000
00100000
00000000
,
10000000
00010000
10000000
00000000
01000000
00000000
00100000
00000000
,
00001000
00010000
00001000
00000000
00000100
00000000
00000001
00000000
,
00000010
00000100
00000010
00000000
00000001
00000000
00001000
00000000
,
00000010
00010000
00000010
00000000
00002000
00000000
00000000
00000000
,
00000000
00000000
00000000
00000000
,
00000000
00000000
00000000
00000000
,
00000000
00000000
00000000
00000000
,
00000000
00000000
00000000
00003000
,
00011000
00000000
00000000
00000000
00000000
00000000
00000000
00000000
00100000
00000000
00000000
00100000
00000000
00000000
00010000
00000000
,
00000000
10000000
00000000
00000000
00100000
00000000
01000000
00000000
01100000
00000000
00000000
00000000
10000000
00000000
00000000
00000000
,
00100000
10000000
01000000
00100000
00010000
00000000
01000000
00000000
,
00010000
00001000
00000100
00010000
00001000
00000000
00000010
00000001
,
00000000
00000001
00000100
00000010
00001000
00000000
00000100
00000010
,
00000000
00000010
00000001
00001000
00000010
00000000
00001000
00000000
,
00000100
00010000
00001000
01000000
00100000
00000000
01000000
00000000
,
00010000
00000000
00100000
00000000
00010000
00000000
10000000
00000000
01000000
00000000
00000000
01000000
00000000
00000000
10000000
00000000
,
00000000
00010000
00000000
00000000
01000000
00000000
00000000
00000000
00001000
00000000
00000000
00001000
00000000
00000000
00010000
00000000
,
00000000
00001000
00000000
00000000
00010000
00000000
00000100
00000000
00000110
00000000
00000000
00000000
00000001
00000000
00000000
00000000
,
00000010
00000001
00001000
00000010
00000100
00000000
00000010
00000000
,
00001000
00000100
00001000
00010000
01000000
00000000
00100000
10000000
,
00000000
10000000
01000000
00010000
00100000
00000000
01000000
00100000
,
00000000
00001000
00010000
00000100
00000010
00000000
00000001
00000000
,
00001000
00000010
00001000
00000001
00000100
00000000
00000010
00000000
,
00010000
00000000
00000100
00000000
00010000
00000000
00100000
00000000
10000000
00000000
00000000
10000000
00000000
00000000
00010000
00000000
,
00000000
00010000
00000000
00000000
01000000
00000000
00000000
00000000
00100000
00000000
00000000
10000000
00000000
00000000
01000000
00000000
,
00000000
00010000
00000000
00000000
10010000
00000000
00000000
00000000
10010000
00000000
00000000
00000000
00100000
00000000
10000000
00000000
,
00000000
01000000
00000000
00010000
00001000
00000100
00000001
00000000
,
00000010
00000000
00000001
00001000
00000010
00000000
00001000
00000100
,
00000000
00000100
00000001
00000000
00001000
00000010
00000000
00000010
,
00000001
00000000
00000000
00000000
00000100
00000000
00000010
00000000
00010000
00000000
00000000
00001000
00000000
00000000
01000000
00000000
,
00000000
00000000
00000000
00100000
00000000
00000000
20000000
00000000
00000000
00000000
31000000
00000000
10000000
00000000
00010000
00000000
,
00000000
00000000
00000000
00100000
00000000
00000000
01000000
00000000
00100000
00000000
00000000
00001000
00000000
00000000
00010000
00000000
,
00000000
00001000
00000000
00000000
00010000
00000000
00000200
00000000
00000000
00000000
00000000
00000310
00000000
00000000
00000001
00000000
,
00000000
00000100
00000000
00000000
00000010
00000000
00001000
00000000
00000220
00000000
00000000
00000000
00000000
00000000
00000000
00000000
,
00000000
00000330
00021000
00001000
,
00001000
00031000
00020000
00000100
,
00000100
00000000
00030100
00001000
00000002
00000000
00000010
00000000
,
00000010
00000013
00002000
00000100
,
00000100
00000000
00003100
00010000
00001000
00000000
01000000
00000000
,
00100000
10000000
00010000
00000000
00100000
00000000
00010000
00000000
,
00100000
01000000
10000000
00000000
00010000
00000000
00100000
00000000
,
00001000
00000000
01000000
00000000
00010000
00000000
00000000
00000000
00000010
00000000
00000000
00000010
00000000
00000000
00001000
00000000
,
00000000
00000001
00000000
00000000
00001000
00000000
00000100
00000000
00000010
00000000
00000000
00000000
00001001
00000000
00000010
00000000
,
00000000
00000010
00001000
00000100
00010000
00000000
01000000
00000000
,
00100000
00010000
10000000
00100000
01000000
00000000
00100000
00000000
,
10000000
01000000
00010000
00000000
00100000
00000000
00010000
00000000
,
00001000
00000100
00000010
00000000
00000011
00000000
00000100
00000010
,
00000000
00001000
00000100
00010000
01000000
00000000
10000000
00010000
,
00000000
00000000
00100000
00000000
00010000
00000000
01000000
00000000
00100000
00000000
00000000
10000000
00000000
00000000
00100000
00000000
,
00000000
01000000
00000000
00000000
00010000
00000000
00000000
00000000
00001000
00000000
00000000
00010000
00000000
00000000
00000010
00000000
,
00000000
00000100
00000000
00000000
00001001
00000000
00000000
00000000
00001001
00000000
00000000
00000000
00000010
00000000
00001000
00000000
,
00000000
00000100
00000000
00001000
00000001
00000010
00000100
00000000
,
00010000
00000000
00001000
00100000
01000000
00000000
10000000
00100000
,
00000000
00100000
00010000
00000000
10000000
01000000
00000000
01000000
,
00010000
00000000
00000000
00000000
00100000
00000000
00001000
00000000
00010000
00000000
00000000
00000010
00000000
00000000
00001000
00000000
,
00000000
00000000
00000000
00000100
00000000
00000000
00000020
00000000
00000000
00000000
00001030
00000000
00000010
00000000
00000002
00000000
,
00000000
00000000
00000000
00000103
00000000
00000000
00000010
00000000
00010000
00000000
00000000
00001000
00000000
00000000
00010000
00000000
,
00000000
00000000
01000000
00000000
10000000
00000000
00020000
00000000
00000000
00000000
00000000
00130000
00000000
00000000
00010000
00000000
,
00000000
00001000
00000000
00000000
00000010
00000000
00000100
00000000
00000220
00000000
00000000
00000000
00000000
00000000
00000000
00000000
,
00000000
00000000
00000000
00000000
,
00000000
00000000
00000000
00000000
,
00000000
00000330
00000000
00000000
;

//---------------dance-double - ----------------
#NOTES:
     dance-double:
     :
     Hard:
     17:
     :
00000000
00000000
00000000
00000000
,
00000000
00000000
00000000
00000000
,
00000000
00000000
00000000
00000000
,
00000000
00000000
00000000
00000000
,
00000000
00000000
00000000
00000000
,
00000000
00000000
00000000
00000000
,
00001000
00000000
00000010
00001000
00100000
00000000
10000000
11000000
,
00000000
00110000
00000000
01010000
00000000
01000000
01000000
00001000
,
00010000
00001000
00000100
00000001
00000010
00001000
01000000
00000000
,
00100000
00000000
00010000
00000000
10000000
00000000
00100000
00000000
01000000
00000000
00010000
00000000
00000010
00000000
00000001
00001000
,
00000001
00000000
00000010
00000001
00001000
00000000
00000010
00001010
,
00000000
00000000
00010100
00000000
00000000
00000000
01001000
00000000
10000000
01000000
10000000
00000000
00010000
00100000
00010000
00000000
,
01100000
00000000
00000000
00000000
00010000
00000000
00001000
00000000
00000100
00000000
00000001
00000000
00000010
00000100
00000010
00000000
,
00000000
00000000
00000011
00000000
00000000
00000000
00001001
00000000
00000000
00000000
00000010
00001000
00000010
00000000
00010000
00000000
,
01000000
00000000
10000000
00000000
00100000
00000000
01000000
00000000
10000000
00000000
01000000
00000000
00010000
00000000
00100000
01000000
,
00100000
00000000
00001000
00000000
00000100
00000000
00000001
00000000
00000010
00000000
00001000
00000000
00000010
00000000
00000001
00000100
,
00000001
00000000
00000000
00000000
00001000
00000100
00001000
00000100
00001000
00000000
00000000
00000000
00000010
00000100
00000010
00000100
,
00000010
00000000
00000000
00001010
00000000
00000000
00000101
00000000
00011000
00000000
00000000
00000000
00001000
00000000
00002000
00000000
,
00000000
00023000
00000000
02030000
00000000
23000000
00000000
30020000
,
00000000
00130000
00010000
01000000
10000000
01000000
00010000
00002000
,
00000000
00003200
00000000
00000302
00000000
00000203
00000000
00000320
,
00000000
00000031
00000100
00000010
00010000
00000100
00010000
02000000
,
00000000
03200000
00000000
00302000
00000000
00023000
00000000
00230000
,
00000000
10300000
00010000
01000000
00100000
10000000
00100000
01000000
,
00000000
00010000
00100000
00002000
00000000
00023000
00000000
00030020
,
00000000
00002030
00000000
00003001
00001001
00000010
00000100
00000010
,
00000001
00000010
00001000
00000010
00000100
00001000
00000100
00000001
,
00000100
00010000
00100000
01000000
00001000
01000000
00100000
01000000
,
10000000
00100000
10000000
01000000
00010000
01000000
00100000
00001000
,
00010000
00000010
00000001
00000010
00001000
00000100
00010000
01000000
,
00001000
01000000
00100000
01000000
00001000
01000000
10000000
00100000
,
01000000
00000000
10000000
00000000
01000000
00000000
00001000
00000000
00010000
00000010
00010000
00000000
00001000
01000000
00001000
00000000
,
00000010
00000100
00000010
00000000
00000001
00001000
00000010
00000100
00000001
00000000
00000000
00000011
00000000
00000000
00000110
00000000
,
00000000
00000000
00000000
00001100
00000000
00000000
00000000
00000000
00000000
00000000
00000000
00000000
00011000
00000000
00000000
00000000
00000000
00000000
01000000
00000000
00000000
00000000
00000000
00000000
10100000
00000000
00000000
00000000
10000000
00000000
00000000
00000000
01000000
00000000
00000000
00000000
00010000
00000000
00000000
00000000
00100000
00000000
00000000
00000000
00000000
00000000
00000000
00000000
,
00110000
01000000
10000000
00100000
00010000
00000000
01010000
00100000
10000000
01000000
00010000
00000000
,
11000000
00000000
00000000
00000000
00010000
00000000
00000000
00000000
00100000
00000000
00000000
00000000
10000000
00000000
00000000
00000000
01000000
00000000
00000000
00000000
00000000
00000000
00000000
00000000
00011000
00000000
00000000
00001000
00000000
00000000
00010000
00000000
00000000
00001000
00000000
00000000
00000100
00000000
00000000
00000001
00000000
00000000
00000010
00000000
00000000
00001000
00000000
00000000
,
00000000
00010000
00000000
01000000
00000000
00000000
10000000
10000000
10000000
00100000
01000000
00010000
00100000
10000000
00100000
00010000
,
00000000
01000000
00000000
00001000
00010000
00000000
00000010
00000100
00000010
00001000
00000001
00000000
00000010
00000100
00001000
00000001
,
00000000
00001000
00000000
01000000
00100000
00000000
00010000
10000000
00010000
00000000
01000000
00000000
00100000
10000000
00100000
01000000
,
00000000
00001000
00000000
00010000
00000010
00000100
00000001
00000000
00000011
00000000
00001000
00000000
00000010
00000000
00000100
00000000
,
00000010
00000001
00000010
00001000
00000100
00000001
00000100
00000010
,
00000100
00000001
00000100
00010000
00001000
00000100
00000001
00000100
,
00010000
10000000
00100000
01000000
00001000
00010000
01000000
00001000
,
01000000
00100000
00001000
00010000
00002000
00000000
00000000
00000000
,
00000000
00000000
00000000
00000000
,
00000000
00000000
00000000
00000000
,
00000000
00000000
00000000
00000000
,
00000000
00000000
00000000
00003000
,
00011000
00000000
00000000
00000000
00000000
00000000
00000000
00000000
00001010
00000000
00000000
00000101
00000000
00000000
00000011
00000000
,
00000000
00001100
00000000
00000000
00000010
00000100
00000001
00000000
00010010
00000000
00000000
00001000
00000000
00000000
00010000
00000000
,
00000000
01000000
00000000
00000000
10000000
00100000
01000000
00010000
00100000
00000000
00000000
01000000
00000000
00000000
10000000
00000000
,
00000000
00010000
00000000
00000000
01000000
00001000
00010000
00000100
00000010
00000000
00000000
00000001
00000000
00000000
00000100
00000000
,
00000000
00000010
00000000
00001000
00000001
00000100
00000010
00000000
00001000
00000000
00000000
00000100
00000000
00000000
00001000
00000000
,
00000000
00010000
00000000
00000000
00100000
10000000
01000000
00000000
10010000
00000000
00000000
00100000
00000000
00000000
00010000
00000000
,
00000000
01000000
00000000
00000000
00100000
10000000
00010000
01000000
00001000
00000000
00000000
00010000
00000000
00000000
00000010
00000000
,
00000000
00001000
00000000
00000000
00000100
00000010
00000001
00001000
00000010
00000000
00000000
00000100
00000000
00000000
00000101
00000000
,
00000000
00001100
00000000
00000000
00000101
00000000
00000010
00001000
00000001
00000000
00000000
00000100
00000000
00000000
00001010
00000000
,
00000000
00010100
00000000
00010000
00001000
00000000
01000000
00000000
01100000
00000000
00000000
10000000
00000000
00000000
01000000
00000000
,
00000000
00010000
00000000
00000000
00100000
00010000
00001000
00000100
00010000
00000000
00000000
00000010
00000000
00000000
00000100
00000000
,
00000000
00000001
00000000
00000000
00000010
00000100
00001000
00000001
00000100
00000000
00000000
00000010
00000000
00000000
00001000
00000000
,
00000000
00010000
00000000
00000000
10000000
01000000
00100000
00000000
00010000
00000000
00000000
01000000
00000000
00000000
00010000
00000000
,
00000000
10000000
00000000
00100000
10000000
00010000
01000000
00000000
01001000
00000000
00000000
00010000
00000000
00000000
00000100
00000000
,
00000000
00000010
00000000
00000000
00000001
00001000
00000100
00000010
00000100
00000000
00000000
00001000
00000000
00000000
00001010
00000000
,
00000000
00000101
00000000
00000000
00000010
00001000
00000001
00000100
00001000
00000000
00000000
00010000
00000000
00000000
01100000
00000000
,
00000000
10010000
00000000
00000000
01100000
00000000
10000000
00010000
00100000
00000000
00000000
00110000
00000000
00000000
11000000
00000000
,
00000000
01010000
00000000
00000000
10100000
00000000
00000000
00000000
10010000
00000000
00100000
00000000
01000000
00000000
00010000
00000000
,
01000000
10000000
01000000
00100000
00010000
00100000
01000000
00001000
,
00010000
00000010
00000100
00001000
00000100
00000001
00000010
00000100
,
00000001
00000100
00000010
00000100
00000001
00000100
00010000
00000010
,
00001000
00000000
00000001
00000000
00001000
00000000
01000000
00000000
00100000
00010000
00100000
01000000
00000000
10000000
00020000
00000000
,
00000000
00000000
01030000
00100000
10000000
00000000
00020000
00000000
00000000
00000000
00130000
00000000
00010000
00000000
00000100
00000000
,
00000000
00000001
00000010
00000001
00000000
00001000
00000100
00000000
00000010
00000000
00000000
00000010
00000000
00000000
00000001
00000000
,
00000000
00001000
00000000
00010000
01000000
00000000
00100000
00000000
00001000
00000000
00000000
00001000
00000000
00000000
00010000
00000000
,
00000000
01000000
00000000
00000000
10000000
00000000
00010000
00000000
02200000
00000000
00000000
00000000
00000000
00000000
00000000
00000000
,
00000000
00000000
00000000
00000000
03300000
00000000
00000000
00000000
00021000
00000000
00000000
00001000
00000000
00000000
00001000
00000000
,
00000000
00001000
00000000
00000000
00031000
00000000
00010000
00000000
00000020
00000000
00000000
00000100
00000000
00000000
00000100
00000000
,
00000000
00000100
00000000
00000000
00000130
00000000
00000001
00000000
00002000
00000000
00000000
00000100
00000000
00000000
00000100
00000000
,
00000000
00000100
00000000
00000000
00003100
00000000
00010000
00000000
00000020
00000000
00000000
00000100
00000000
00000000
00000100
00000000
,
00000000
00000100
00000000
00000000
00000130
00000000
00000001
00000000
00000020
00000000
00000000
00001000
00000000
00000000
00000001
00000000
,
00000000
00001030
00000000
00000000
00000010
00000000
00000100
00000000
00020000
00000000
00000000
00000100
00000000
00000000
01000000
00000000
,
00000000
00030100
00000000
00000000
00010000
00000000
00001000
00000000
02000000
00000000
00000000
10000000
00000000
00000000
00010000
00000000
,
00000000
10000000
00000000
00000000
03010000
00000000
01000000
00100000
10000000
00000000
00000000
11000000
00000000
00000000
00110000
00000000
,
00000000
01010000
00000000
00100000
10000000
00010000
01000000
00000000
01100000
00000000
00000000
00000000
01001000
00000000
00010000
00000000
,
00000000
00001000
00000000
00000000
00000100
00000001
00000010
00001000
00000010
00000000
00000000
00000001
00000000
00000000
00000100
00000000
,
00000000
00000010
00000000
00000000
00001000
00000100
00010000
00000010
00000100
00000000
00000000
00000001
00000000
00000000
00001000
00000000
,
00000000
01000000
00000000
00100000
01000000
10000000
00010000
00000000
00100000
00000000
00000000
10000000
00000000
00000000
00010000
00000000
,
00000000
00100000
00000000
00000000
00010000
10000000
01000000
00000000
00101000
00000000
00000000
00010000
00000000
00000000
00000010
00000000
,
00000000
00000100
00000000
00000000
00000010
00001000
00000001
00000100
00000001
00000000
00000000
00000010
00000000
00000000
00010000
00000000
,
00000000
10000000
00000000
00000000
00100000
10000000
01000000
00010000
00001000
00000000
00000000
00010000
00000000
00000000
00010010
00000000
,
00000000
00000101
00000000
00000000
00001100
00000000
00000001
00000100
00000010
00000000
00000000
00001010
00000000
00000000
00000101
00000000
,
00000000
00000011
00000000
00000000
00001100
00000000
00000000
00000000
00001001
00000000
00000010
00000000
00001000
00000000
00000100
00000000
,
00000001
00000100
00000010
00001000
00000010
00000001
00000100
00000010
,
00000001
00000010
00010000
00001000
00010000
01000000
00100000
00001000
,
01000000
10000000
01000000
00010000
00100000
10000000
00100000
01000000
,
00100000
00000000
10000000
00000000
00100000
00000000
00001000
00000000
00010000
00000010
00010000
00000100
00000000
00001000
00000001
00000000
,
00000000
00000000
00000010
00000001
00000010
00000000
00000200
00000000
00000000
00000000
00000301
00000000
00000100
00000000
00001000
00000000
,
00000010
00000000
00010000
00001000
00000000
00001000
01000000
00000000
00100000
00000000
00000000
10000000
00000000
00000000
01000000
00000000
,
00000000
00010000
00000000
00000000
00100000
01000000
10000000
00000000
10100000
00000000
00000000
01010000
00000000
00000000
11000000
00000000
,
00000000
00110000
00000000
00000000
00001000
00010000
00000010
00000000
00000220
00000000
00000000
00000000
00000000
00000000
00000000
00000000
,
00000000
00000000
00000000
00000000
,
00000000
00000000
00000000
00000000
,
00000000
00000330
00000000
00000000
;
