#TITLE:JOMANDA + VALLIS-NERIA + Lisa-RICCIA;
#SUBTITLE:(Orchestra Arr.);
#ARTIST:onoken;
#BANNER:JOMANDA + VALLIS-NERIA + Lisa-RICCIA (Orchestra Arr.)-bn.png;
#BACKGROUND:JOMANDA + VALLIS-NERIA + Lisa-RICCIA (Orchestra Arr.)-bg.png;
#JACKET:JOMANDA + VALLIS-NERIA + Lisa-RICCIA (Orchestra Arr.)-jacket.png;
#MUSIC:JOMANDA + VALLIS-NERIA + Lisa-RICCIA (Orchestra Arr.).ogg;
#SAMPLESTART:199.975;
#SAMPLELENGTH:20;
#DISPLAYBPM:128:180;
#BPMS:0=147.75,124=147.875,144=147.938,160=147.667,172=148,176=149,200=148,208=147.5,220=147.25,228=147,248=147.5,252=148,256=148.4,260=149,280=148.57,292=147.8,324=168,340=166.667,348=168,352=170,364=167.8,404=167.5,408=169,416=167,428=170,432=167.9,440=167.3,460=168.1,468=169,492=168,532=167.8,568=167.35,584=167.789,596=168.5,612=168,628=180,640=178,676=177,708=178.06,784=177.778,804=177.5,812=179,844=175,856=140,860=138,864=128,872=135,884=132,896=131.111,920=133,940=132.125,944=131.5;
#BGCHANGES:;

//---------------dance-single - ----------------
#NOTES:
     dance-single:
     :
     Beginner:
     6:
     :
0000
0000
0000
0000
,
0000
0000
0000
0000
,
0000
0000
0000
0000
,
0000
0000
0000
0000
,
0000
0000
0000
0000
,
0000
0000
0000
0000
,
0000
0000
0000
0000
,
0000
0000
0000
0000
,
0010
0000
1000
0000
,
0100
0000
0001
0000
,
1000
0000
0010
0000
,
0001
0000
0100
0000
,
0001
0000
1000
0000
,
0010
0000
0100
0000
,
0001
0000
1000
0000
,
0010
0010
0010
0000
,
1001
0000
0000
0000
,
0100
0000
0000
0000
,
0001
0000
1000
0000
,
0001
0001
0001
0000
,
0100
0000
0000
0000
,
0010
0000
0000
0000
,
1000
0000
0100
0000
,
1000
1000
1000
0000
,
1001
0000
0010
0000
,
1000
0000
0100
0000
,
1000
0000
0001
0000
,
0100
0000
0010
0000
,
0100
0000
0001
0000
,
0010
0000
0001
0000
,
1000
1000
1000
0000
,
0001
0001
0001
0000
,
0110
0000
0100
0000
,
0010
0000
1000
0000
,
0100
0100
0100
0000
,
0010
0010
0010
0000
,
0100
0000
0010
0000
,
0001
0000
0100
0000
,
1000
1000
1000
0000
,
0001
0001
0001
0000
,
0110
0000
0000
1000
,
1000
0000
0001
0000
,
0010
0000
0001
0000
,
0100
0100
0100
0000
,
0001
0000
0010
0000
,
0001
0000
0100
0000
,
1000
1000
1000
0000
,
0001
0001
0001
0000
,
1001
0000
0110
0000
,
1000
1000
1000
0000
,
0001
0000
0010
0000
,
0001
0000
0100
0000
,
1000
0000
0010
0000
,
0100
0100
0000
0000
,
0001
0001
0001
0000
,
1000
1000
1000
1000
,
0000
0000
0000
0000
,
0100
0000
0000
0000
,
0010
0000
0000
0000
,
0001
0000
0000
0000
,
1000
0000
0001
0000
,
0100
0000
0000
0000
,
0010
0000
0000
0000
,
0100
0000
0001
0000
,
1000
1000
1000
1000
,
0000
1001
0000
0000
,
0010
0010
0010
0000
,
1000
0000
0001
0000
,
1000
0000
0100
0000
,
0110
0000
0001
0000
,
0100
0100
0100
0000
,
0001
0001
0001
0000
,
0010
0010
0010
0000
,
1001
0000
0110
0000
,
1000
1000
1000
0000
,
0100
0000
1000
0000
,
0001
0000
0010
0000
,
0001
0000
0100
0000
,
1000
1000
0000
0000
,
0010
0010
0010
0000
,
0100
0100
0100
0000
,
0110
0000
0000
0000
,
0000
0000
0001
0000
,
1001
0000
0000
0000
,
0000
0000
0000
1000
,
1000
0000
0001
0000
,
1000
0000
0010
0010
,
0010
0000
0100
0000
,
0001
0001
0001
0000
,
0110
0000
0000
0000
,
0000
0000
0000
0100
,
0100
0000
0010
0000
,
0001
0000
1000
0000
,
0001
0000
0000
0000
,
0000
1000
1000
0000
,
0010
0010
0000
0000
,
0100
0000
0001
0000
,
1000
1000
1000
0000
,
0001
0000
0100
0000
,
0001
0000
0001
0000
,
0010
0000
0001
0000
,
1000
1000
1000
1000
,
2000
0000
3000
0000
,
0010
0010
0010
0010
,
0020
0000
0030
0000
,
0100
0000
0001
0000
,
1000
1000
1000
0000
,
0010
0010
0010
0000
,
0100
0000
0001
0000
,
0100
0100
0100
0100
,
0200
0000
0300
0000
,
0001
0001
0001
0001
,
0002
0000
0003
0000
,
0010
0000
0001
0000
,
0100
0000
1000
0000
,
0010
0000
0010
0000
,
1000
0000
0001
0000
,
1001
0000
0000
0100
,
0100
0000
0010
0000
,
1000
0000
0001
0000
,
0010
0000
0001
0001
,
0001
0000
0100
0000
,
1000
0000
0010
0010
,
0010
0000
1000
0000
,
0100
0000
1000
0000
,
0001
0001
0000
0010
,
0010
0000
0001
0000
,
0100
0100
0000
0010
,
0010
0000
1001
0000
,
0110
0000
0000
0000
,
1000
0000
0001
0000
,
0100
0000
0010
0000
,
0100
0000
0001
0000
,
1000
1000
1000
0000
,
0100
0000
1000
0000
,
0001
0001
0000
0000
,
0010
0010
0010
0000
,
0001
0001
0001
0000
,
0100
0000
1000
0000
,
0010
0000
0010
0000
,
1000
0000
0001
0000
,
0010
0010
0010
0010
,
0020
0000
0030
0000
,
0001
0001
0001
0001
,
0002
0000
0003
0000
,
0100
0000
0001
0000
,
0010
0000
0100
0000
,
1000
0000
0010
0000
,
0001
0001
0001
0000
,
0100
0100
0100
0100
,
0200
0000
0300
0000
,
1000
1000
1000
1000
,
2000
0000
3000
0000
,
0001
0000
0100
0000
,
1000
0000
0010
0000
,
1000
0000
0001
0000
,
0100
0000
0010
0000
,
1001
0000
0000
0000
,
0000
0000
1000
0000
,
0001
0001
0000
0000
,
0000
0000
0100
0100
,
0100
0000
0010
0000
,
1000
0000
0001
0000
,
0010
0000
0001
0000
,
0100
0000
1000
0001
,
1000
0000
0010
0000
,
1000
0000
0001
0100
,
0001
0000
0010
0000
,
1000
0000
0100
1000
,
0000
1001
0000
1001
,
0000
0110
0000
0110
,
0000
1000
0000
0001
,
0000
0100
0100
0000
,
0010
0010
0010
0000
,
1000
0000
0001
0000
,
0010
0010
0010
0000
,
0001
0000
0100
0000
,
1000
1000
1000
0000
,
0001
0000
0100
0000
,
0010
0010
0010
0000
,
1000
0000
0110
0000
,
1000
0100
1000
0000
,
0010
0000
0100
0001
,
0100
0000
0001
0000
,
0010
0100
0010
0000
,
0001
0001
0001
0000
,
0100
0010
0100
0000
,
0010
1000
0010
0000
,
1000
0001
0000
0100
,
0100
0000
0001
0000
,
1000
0001
0010
0000
,
0001
0000
0100
0000
,
0010
0000
1000
0100
,
1000
1000
1000
0000
,
0001
0000
0100
0000
,
0010
1000
0001
0000
,
1001
0000
0000
0000
,
0110
0000
0000
0000
,
0001
0000
0001
0000
,
0001
0000
0000
0000
,
1000
0000
1000
0000
,
1000
0000
0000
0000
,
0010
0000
0000
0000
,
1000
0000
0001
0000
,
0100
0000
0010
0000
,
1000
0100
1000
0000
,
0001
0100
0001
0000
,
1000
0010
1000
0000
,
0001
0010
0001
0000
,
1000
0001
1000
0000
,
0010
0100
0010
0000
,
1001
0000
0000
0000
,
0110
0000
0000
0000
,
0000
0000
0000
0000
,
0001
0000
0100
0000
,
1000
1000
0000
0010
,
0010
0000
1000
0000
,
0100
0000
1000
0000
,
0001
0000
0010
0000
,
0001
0000
0100
0000
,
0010
0000
0100
0000
,
1000
0000
0001
0000
,
1000
0000
0100
0000
,
0001
0000
0010
0000
,
0001
0100
0001
0000
,
1000
0001
1000
0000
,
0010
1000
0010
0000
,
1000
0001
0010
0000
,
0001
0000
0100
0000
,
1000
1000
1000
0000
,
0010
1000
0100
0000
,
1000
0001
0000
0010
,
0010
0001
0100
0000
,
0001
0001
0001
0000
,
1000
0000
0100
0000
,
1000
0000
0001
0100
,
0001
0010
1000
0100
,
1000
0000
0001
0000
,
0100
0100
0100
0000
,
0110
0000
0000
0000
,
0001
0000
0000
0000
,
1000
0000
0001
0000
,
1001
0000
0000
0000
;

//---------------dance-single - ----------------
#NOTES:
     dance-single:
     :
     Easy:
     9:
     :
0000
0000
0000
0000
,
0000
0000
0000
0000
,
0000
0000
0000
0000
,
0000
0000
0000
0000
,
0000
0000
0000
0000
,
0000
0000
0000
0000
,
0000
0000
0000
0000
,
0000
0000
0000
0000
,
0010
1000
0100
0001
,
0100
0010
0100
0100
,
0001
0010
0001
0100
,
1000
0010
1000
1000
,
0100
0010
0100
1000
,
0010
0100
0001
0001
,
0010
0001
0100
1000
,
1001
0000
0000
0110
0000
0000
0000
0000
,
2000
0000
0000
0002
0000
0000
3003
0000
,
0200
0000
0000
0000
0000
0320
0000
0000
,
2030
0000
0000
0200
0000
0000
3300
0000
,
1000
0010
0001
0100
,
0020
1000
0100
1030
,
0002
0000
0010
0000
1003
0001
0000
0000
,
0011
0000
0000
1100
0000
0000
0000
0010
,
1000
0100
0001
0010
,
0001
0100
1000
0010
,
1000
0100
1000
0001
,
0010
0001
0010
0100
,
1000
0010
1000
0100
,
0001
1000
0100
0010
,
0100
1000
0010
0001
,
1000
0000
0010
1000
0000
0001
0000
0000
,
0101
1100
0101
1100
,
0010
0000
1000
0001
0000
0000
0100
0010
,
0100
0000
0001
0000
0010
0000
1000
0100
,
1000
0000
0010
0100
0000
0001
0000
0000
,
0010
0000
0001
0000
1000
0001
1000
0000
,
0010
0000
1000
0000
0100
0000
1000
0001
,
1000
0000
0010
0000
0001
0100
0001
0000
,
0010
0000
0010
0000
0001
0100
0001
0000
,
1010
0101
1010
0101
,
1000
0000
0100
1000
0000
0000
0001
0100
,
0001
0000
0010
0000
0100
1000
0100
0000
,
1000
0000
0010
0000
0100
0001
0100
0000
,
0001
0000
0010
0000
0001
1000
0001
0000
,
0010
0000
0001
0100
0000
0000
0010
1000
,
0010
0000
0100
0000
0001
0000
1000
0010
,
1000
0000
0100
0000
0001
1000
0001
0000
,
0101
1010
0101
1010
,
2002
0000
3000
0010
0000
1003
0000
0010
,
0100
0000
1000
0000
0001
0000
1000
0010
,
0100
0001
0010
1000
,
0100
0000
1000
0000
0001
0000
0100
0010
,
0100
0001
0010
1000
,
0100
0000
1000
0002
0000
0000
0013
0100
,
1000
1000
0001
0001
,
0110
0000
1001
0000
0110
0000
2000
0002
,
0000
0000
0000
3003
,
0020
0000
0000
2000
0000
0000
3030
0000
,
0002
0000
0000
0000
0000
0203
0000
0000
,
0320
0000
0000
0130
0000
0000
0001
1000
,
0001
0010
1000
0100
,
2000
0000
0000
0002
0000
0000
3003
0000
,
0200
0000
0000
0000
0000
0320
0000
0000
,
0230
0000
0000
0002
0000
0000
0303
0000
,
0011
1100
0011
1100
,
1001
0110
1000
0100
,
0001
0000
0010
0000
0001
0000
1000
0100
,
0010
0000
0100
0000
1000
0010
0100
0000
,
0001
0000
0010
0000
0001
1000
0010
0100
,
0001
0000
0010
0000
0001
0000
1000
0100
,
1000
0000
0010
0000
0100
0001
0010
0000
,
0001
0000
0010
0000
0001
1000
0100
0000
,
1010
0011
1010
0011
,
2002
0000
3000
0100
0000
1003
0000
0100
,
0010
0000
1000
0000
0100
0000
0001
1000
,
0100
0010
0001
0100
,
0010
0000
1000
0000
0001
0000
1000
0100
,
0010
0000
0001
0000
0100
0000
0010
2000
,
0000
3100
1000
0001
,
0010
0000
0010
0000
0001
1000
0001
0000
,
0110
0000
1001
0000
1000
0010
0100
0001
,
0020
0100
0100
0100
,
0130
0000
0000
1000
0001
0000
1001
0000
,
0200
0010
0010
0010
,
0310
0000
0000
1000
0001
0000
0010
0100
,
1000
1000
0001
0001
,
0100
0100
0010
0010
,
1000
0010
0001
0100
,
0001
1000
0001
1000
0002
0000
0003
0000
,
0110
0001
0010
1000
,
0100
0010
0001
0100
,
0001
0010
0001
0100
,
1000
0010
1000
0001
,
0010
0010
0001
0100
,
1000
0000
0010
0000
1000
0000
0000
0101
,
0000
1000
0001
0000
0000
0100
0010
0000
,
1000
0100
0001
0010
,
0001
0010
0001
0100
,
1000
0000
0010
0000
1000
0000
0001
0100
,
0002
0000
0000
2000
0000
0000
3003
0000
,
0010
0000
1000
0000
0001
0100
0001
0100
,
0010
0100
0000
0101
0000
1100
0000
0202
,
0000
0000
0000
0303
,
1000
0001
0000
0011
0000
1010
0000
0022
,
0000
0000
0000
0033
,
0100
0000
0000
0010
0000
0000
1000
0000
,
0001
0100
0001
0000
1000
0100
1000
0000
,
0001
1000
0001
0000
0010
0100
0010
0000
,
0002
0000
0203
0000
0320
0000
1030
0001
,
1000
0100
0000
1100
0000
0011
0000
2200
,
0000
0000
0000
3300
,
0010
0001
0000
1001
0000
0110
0000
2002
,
0000
0000
0000
3003
,
0010
0000
0000
1000
0000
0000
0001
0000
,
0100
0010
0100
0000
0001
1000
0001
0000
,
2000
0000
0000
3010
0000
0100
0000
0001
,
1000
0000
0100
0000
0001
0010
0100
1000
,
0010
0000
1000
0001
0000
0100
0010
0000
,
1000
0100
0000
0000
1100
0000
0101
0000
,
0001
0000
0010
0100
0000
1000
0001
0000
,
1000
0010
0000
0000
1010
0000
0101
0000
,
0010
0000
0001
1000
0000
0100
0010
0000
,
0001
0100
0000
0000
1010
0000
0011
0000
,
1000
0000
0100
1000
0000
0010
0100
0000
,
0001
1000
0000
0000
1100
0000
0011
0000
,
0100
0000
0010
1000
0000
0001
0100
0000
,
0001
0010
0000
0001
1000
0000
1001
0000
,
0010
0000
1000
0010
0000
0100
0001
0000
,
1000
0001
1000
0001
2000
0000
3000
0000
,
0110
0001
0010
0001
,
0100
1000
0010
1000
,
0100
1000
0010
0001
,
1000
0010
0001
1000
,
0100
0010
0100
0010
,
0001
0000
0100
0000
0001
1000
0000
0010
,
0000
1000
0002
0000
0000
0000
0103
0010
,
1000
0100
0001
0010
,
0001
1000
0010
1000
,
0100
0010
0001
0100
,
1001
0000
0000
0110
0000
0000
1000
0001
,
1000
0100
0001
0010
,
0001
1000
0000
1100
0000
0110
0000
0022
,
0000
0000
0000
0033
,
0100
0010
0000
1010
0000
1001
0000
2200
,
0000
0000
0000
3300
,
0010
0000
0000
0001
0000
0000
1000
0000
,
0100
1000
0010
0000
0100
0001
0010
0000
,
0001
1000
0001
0000
0100
0010
0100
0000
,
0001
0010
0001
1000
,
0001
0100
0000
0101
0000
1001
0000
2200
,
0000
0000
0000
3300
,
1000
0010
0000
1010
0000
0110
0000
0202
,
0000
0000
0000
0303
,
0010
0000
0000
0001
0000
0000
1000
0000
,
0001
0100
0010
0000
1000
0100
0010
0000
,
0002
0000
0000
1003
0000
0010
0000
0100
,
0001
0000
0010
0000
0001
1000
0010
0100
,
0020
0000
0000
0000
,
0030
1000
0000
0001
0000
0100
0010
0000
,
1001
2002
0000
0000
,
0003
0010
0000
3001
1000
0000
1000
0000
,
0110
0110
0001
0100
,
0001
0010
0001
1000
,
1010
0000
0000
0101
0000
0000
0011
0000
,
0000
1100
0000
0000
1000
0001
1000
0001
,
1000
0000
0010
0000
1000
0000
0100
0001
,
0000
0010
0001
0000
1000
0000
0100
0000
,
1000
0000
0010
0000
0100
0000
0001
1000
,
0000
0100
1000
0000
0010
0000
0001
0000
,
0100
1001
0100
1001
,
0010
0110
0010
0110
,
1000
0010
0001
0100
,
0001
0000
0010
0100
1000
0000
0001
1000
,
0001
0000
0100
0010
0000
1000
0000
0001
,
0000
0010
0001
0000
0102
0000
1003
0000
,
2100
0000
3001
1000
0000
0010
0000
0100
,
0000
0010
1000
0000
1001
0000
0110
0000
,
1001
0000
0010
0000
1000
0100
0000
0001
,
0000
0010
0001
0000
1000
0001
0000
0110
,
0000
0000
1000
0000
0010
0100
0000
0001
,
0000
1000
0001
0000
0010
0100
0010
0100
,
1000
0000
0001
0100
0000
0001
0000
1000
,
0000
0010
0100
0000
1020
0000
1030
0000
,
0201
0000
0310
0100
0000
0001
0000
1000
,
0000
0001
0100
0000
0110
0000
1001
0000
,
0110
0000
1000
0001
0000
0010
0000
0001
,
0000
0100
0010
0000
1000
0001
0000
1010
,
0000
0000
0001
0000
1000
0100
0000
1000
,
0000
0002
0200
0000
0003
0000
0310
1000
,
0010
0000
1000
0100
0000
0001
0000
0010
,
0002
2003
3002
2003
,
3010
0000
1000
0001
0000
1000
0000
0100
,
0000
0010
0000
0001
0000
1000
0001
0100
,
0000
0010
1000
0000
1100
0000
0101
0000
,
0010
0000
1000
0100
0000
0001
0100
0000
,
0010
0000
1000
0001
0000
0100
0000
2020
,
0000
0000
0000
0030
,
3001
0010
0001
0100
,
1000
0010
1000
0001
,
0100
0010
0100
0001
,
0010
0100
1000
0001
,
0100
0010
0100
0001
,
0010
0000
0100
0000
1000
0001
0000
1001
,
0000
0000
0010
0000
1000
0000
0000
0001
,
0000
1000
0100
0000
1000
0000
0001
0000
,
0010
0001
0010
0100
,
1000
0010
1000
0001
,
1000
0100
1000
0001
,
0010
0001
0100
0010
,
1000
0100
1000
0000
0001
0100
0001
0000
,
0010
0001
0100
0000
0001
1000
0000
1001
,
0000
0000
0000
0000
0000
0000
0000
0110
,
0000
0002
2000
0000
0000
0000
0000
0000
,
0000
0000
0000
3003
,
0001
0000
0010
0000
0001
1000
0000
0010
,
0000
2000
0200
0000
3000
0000
1300
0001
,
1000
0000
0000
0010
0000
0100
0000
0001
,
0000
0010
0001
0100
,
1000
0001
0100
0010
,
0100
0001
0010
0010
,
0001
1000
0001
0100
,
0010
1000
0100
0000
,
1000
0000
0010
0000
1000
0000
0000
0001
,
0000
1000
0100
0000
1000
0001
1000
0001
,
0100
0000
0010
0000
1000
0100
0000
0001
,
0000
0010
0001
0100
,
0001
0000
1000
0000
0100
0010
0000
1000
,
0000
0100
1000
0000
0001
0000
0001
0000
,
0001
0000
1000
0000
0001
0100
0000
0000
,
0010
0000
1000
0000
0100
0010
0000
0000
,
0001
0000
0100
0000
0001
1000
0000
0000
,
0010
1000
0002
0000
0000
0000
1003
0100
,
0010
0000
0001
0100
0000
0010
0000
1000
,
0200
0320
0230
0320
,
0031
0000
0100
0001
0000
1000
0000
0100
,
0000
1000
0000
0010
0100
0000
0001
1000
,
0000
1100
0110
0011
,
1001
0000
0100
0001
0000
1000
0010
0000
,
1000
0000
0100
0000
1000
0010
0100
0002
,
0000
0000
0000
0000
,
0013
0000
0000
0010
0000
0100
0000
0100
,
0000
1000
0000
0001
0000
0000
2000
0002
,
0000
0000
0000
0000
,
0000
0000
0000
0000
,
0000
0000
3003
0000
;

//---------------dance-single - ----------------
#NOTES:
     dance-single:
     :
     Medium:
     13:
     :
0000
0000
0000
0000
,
0000
0000
0000
0000
,
0000
0000
0000
0000
,
0000
0000
0000
0000
,
0000
0000
0000
0000
,
0000
0000
0000
0000
,
0000
0000
0000
0000
,
0000
0000
0000
0000
,
0010
0000
1000
0100
0001
0000
0101
0000
,
0000
1100
0000
0000
0001
1000
0001
1000
,
0010
0000
1000
0100
0001
0000
0011
0000
,
0000
1010
0000
1000
0010
0000
0100
0000
,
0010
0000
1000
0100
0001
0000
1100
0000
,
0000
0011
0000
1000
0001
1000
0001
1000
,
0010
0000
1000
0100
0001
0000
1010
0000
,
0001
0000
0000
1000
0000
0000
0001
0000
0000
0000
0000
0000
0000
0000
0000
0000
,
2001
0000
0000
3020
0000
0100
0130
0000
,
0002
0000
0013
0100
1000
0010
0100
0000
,
0202
0000
0300
2000
0000
0000
3003
0000
,
0020
2030
3002
0203
,
0301
0010
0100
1000
0000
1000
0001
0000
,
0100
0010
1000
0001
0000
0110
0000
0000
,
2000
0000
0000
0002
3000
0000
0013
0100
,
2000
3020
0230
0302
,
0013
0000
0001
1000
0000
0100
0001
0010
,
0000
0011
0000
1100
0000
0001
0100
1000
,
0010
0000
0100
0001
0000
0010
0001
1000
,
0000
1100
0000
0101
0000
0010
1000
0100
,
0001
0000
0010
1000
0000
0100
1000
0001
,
0000
1001
0000
0110
0000
1000
0100
0001
,
0010
0000
0001
2000
0000
0200
3000
0000
,
1000
0000
0000
1000
0000
0000
0001
0000
0000
0001
0000
0000
1300
0000
0001
0000
,
1001
0000
0000
0010
0000
0000
1000
0000
0000
0100
0000
0000
1000
0000
0001
0000
,
0010
0000
0000
0001
0000
0000
0100
0000
0000
0001
0000
0000
1000
0000
0100
0000
,
0010
0000
0000
0010
0000
0000
0001
0000
0000
0100
0000
0000
1000
0000
0000
0000
,
0010
0000
0000
1000
0000
0000
0100
0000
0000
1000
0000
0000
0001
0000
0100
0000
,
0010
0000
0000
1000
0000
0000
0001
0000
0000
1000
0000
0000
0010
0000
0000
0000
,
0100
0000
0000
0001
0000
0000
0010
0000
0000
0100
0000
0000
1000
0000
0001
0000
,
0010
0000
0000
0001
0000
0000
0100
0000
0000
0001
0000
0000
1000
0000
0000
0000
,
0010
0000
0000
0010
0000
0000
1000
0000
0000
0100
0000
0000
1000
0000
0001
0000
,
0101
0000
0000
0010
0000
0000
1000
0000
0000
0010
0000
0000
0100
0000
0001
0000
,
0010
0000
0000
0001
0000
0000
0100
0000
0000
0010
0000
0000
1000
0000
0000
0000
,
0100
0000
0000
0100
0000
0000
0010
0000
0000
0100
0000
0000
1000
0000
0001
0000
,
0100
0000
0000
0010
0000
0000
0100
0000
0000
0001
0000
0000
1000
0000
0001
0000
,
0010
0000
0000
0001
0000
0000
1000
0000
0000
0001
0000
0000
1000
0000
0100
0000
,
0001
0000
0000
0010
0000
0000
0001
0000
0000
0100
0000
0000
0010
0000
1000
0000
,
0100
0000
0000
1000
0000
0000
0001
0000
0000
1000
0000
0000
0100
0000
0000
0000
,
1100
0000
0000
0110
0000
0000
0011
0000
0000
0101
0000
0000
1010
0000
1000
0000
,
0002
0000
0013
1001
0000
0110
0000
1000
,
0002
0000
0103
0000
1010
0000
0001
0100
,
0010
1000
0100
0010
0000
0001
1000
0000
,
0010
0010
0000
1000
0001
0010
0001
1000
,
0010
0000
0000
1000
0000
0000
0001
0000
0010
0000
0000
0001
0000
0000
1000
0000
,
0000
0000
0010
0000
0100
0000
0010
0000
1000
0000
0000
0100
0000
0000
0001
0000
,
0010
0000
0000
0010
0000
0000
0001
0000
0000
0100
0000
0000
0001
0000
1000
0000
,
1100
0000
0000
0101
0000
0000
0011
0000
0000
0110
0000
0000
1100
0000
0001
0000
,
0000
0202
0000
0003
,
2300
0000
0000
0000
0000
0000
0200
0000
0000
0000
0000
3000
0000
0000
0000
0000
,
0302
0000
1003
0010
0000
0200
0000
0000
,
0302
0000
0000
0000
0000
0000
2000
0000
0003
0000
0000
0000
3010
0100
0010
0100
,
0020
2030
3002
0203
,
0320
0000
0000
0200
0000
0000
0330
0000
,
0002
0000
0000
1000
0000
0200
0303
0000
,
2000
0000
0000
0002
0000
0000
3003
0000
,
1010
0000
0000
1010
0000
0000
0101
0000
0000
0101
0000
0000
1000
0000
0001
0000
,
1001
0000
0000
0000
0110
0000
1000
0000
0000
0001
0000
0000
0100
0000
0010
0000
,
1000
0000
0000
0100
0000
0000
1000
0000
0000
0001
0000
0000
0010
0000
0100
0000
,
0010
0000
0000
0100
0000
0000
1000
0000
0000
0001
0000
0000
0001
0000
0000
0000
,
1000
0000
0000
0001
0000
0000
0010
0000
0000
0100
0000
0000
1000
0000
0010
0000
,
0001
0000
0000
0100
0000
0000
1000
0000
0000
0001
0000
0000
1000
0000
0100
0000
,
0010
0000
0000
0100
0000
0000
0010
0000
0000
0001
0000
0000
0100
0000
1000
0000
,
0010
0000
0000
1000
0000
0000
0100
0000
0000
0001
0000
0000
0010
0000
0000
0000
,
0001
0000
0000
0001
0000
0000
1000
0000
0000
1000
0000
0000
0010
0000
0100
0000
,
0110
0000
0010
2000
0000
3002
0000
0013
,
0001
1000
0100
0000
1010
0000
0001
0100
,
1000
0000
0010
0100
0000
0100
0001
0000
,
0010
0010
0000
0001
1000
0010
1000
0001
,
0100
0000
0000
0100
0000
0000
0010
0000
1000
0000
0000
0001
0000
0000
0010
0000
,
0000
0000
0001
0000
0100
0000
0001
0000
1000
0000
0000
1000
0000
0000
1000
0000
,
1100
0000
0000
1100
0000
0000
0101
0000
0000
0101
0000
0000
1000
0000
0001
0000
,
0011
0000
0000
1100
0000
0000
0101
0000
0000
1010
0000
0000
0010
0000
0100
0000
,
1002
0100
1000
0100
,
1003
0000
0010
0100
0001
0100
0010
0000
,
1000
0100
0001
0000
0010
0000
0100
0000
,
1000
0001
1000
0001
0000
0010
0100
1000
,
1001
1001
0110
0110
,
1010
1010
0101
0101
,
0011
0011
1100
1100
,
1001
0000
0000
1000
0000
0001
0000
0200
0000
0000
0000
0000
0300
0000
0000
0000
,
0110
0001
0100
0010
1000
0100
1000
0001
,
0000
0010
0000
0100
0000
1000
0010
0001
,
0010
0000
1000
0001
0000
1000
0000
0010
,
0000
0010
0000
0100
0000
0101
0000
1000
,
0001
0100
0010
0100
0001
0010
0100
1000
,
0000
0010
1000
0010
1000
0000
0100
0002
,
0000
1000
2000
0000
3003
0010
0100
0001
,
2000
0000
3010
0100
0001
1000
0100
0010
,
0100
1000
0010
1000
0100
0010
0001
1000
,
0000
0010
0000
0001
0100
0010
0100
0001
,
2000
0000
0000
0002
3000
0000
0100
0103
,
0020
0000
2030
0000
3100
0010
0001
1000
,
0001
2000
0000
0010
0000
0100
0000
3001
,
0010
0100
1000
0000
0010
0100
0001
0000
,
1000
0010
0000
0100
0000
0001
0000
1000
,
0001
0000
0010
0000
0001
0000
0000
0000
1000
0000
0000
1000
0000
0000
1000
0000
,
0002
0000
1003
0020
0000
0130
0002
0000
,
1003
0010
1000
0010
0100
0001
0100
0001
,
0010
0000
0100
0000
1000
0000
0000
0001
0000
0001
0000
0000
0100
0000
0010
0000
,
2000
0000
3001
1000
0200
0000
0310
0001
,
0100
0020
0000
1000
0000
0001
0000
0130
,
0010
1000
0100
0000
0010
0001
1000
0000
,
0001
1000
0000
0100
0000
1000
0000
0001
,
0010
0000
0100
0000
1000
0000
0000
0000
0001
0000
0000
0100
0000
0000
0010
0000
,
2000
0000
3100
0020
0000
0031
2000
0000
,
3010
0100
0010
0100
0001
1000
0001
1000
,
0200
0000
0000
0000
0300
0000
1000
0000
0001
0000
0101
0000
0000
1100
0000
0000
,
0101
0000
0000
0010
0000
0000
1000
0000
0001
0000
0010
0000
0001
0000
1000
0000
,
0001
0010
0001
0100
0000
0010
1000
0100
,
1000
0001
0000
0100
0001
0010
1000
0010
,
0001
1000
0001
0010
0000
0001
0100
0010
,
1000
0001
0000
1000
0100
0001
0100
1000
,
0010
1000
0010
0100
0000
0001
0010
0001
,
1000
0100
0010
0001
0010
0100
1000
0000
,
0010
1000
0001
0100
0000
0001
0100
1000
,
0001
0000
0010
0000
0100
0000
1000
0000
0100
0000
0010
0000
0001
1000
0001
1000
,
0001
0010
0001
1000
0000
0100
1000
0010
,
1000
0001
0000
0100
0010
0100
0010
1000
,
0100
1000
0001
0100
0000
0010
1000
0001
,
1001
0000
0000
1000
0000
0001
0000
0200
0000
0000
0000
0000
0300
0000
0000
0000
,
0110
0010
0100
0010
1000
0100
1000
0001
,
0000
0010
0000
0100
0000
0010
0001
1000
,
1010
0000
0001
0101
0000
0010
1000
1100
,
0000
0002
0000
0203
0000
0302
0000
1003
,
0010
0100
0010
1000
0100
0010
0001
1000
,
0000
0010
1000
0000
1000
0100
0010
0002
,
0000
1000
2000
0000
3003
0010
0100
0001
,
2000
0000
3001
0010
0200
0000
1300
0010
,
1000
0100
0010
0100
0001
0100
1000
0001
,
0000
0100
0000
1000
0010
0100
0010
1000
,
1100
0000
0000
0011
0000
0000
1000
0001
,
0200
0000
0320
0000
1030
0010
1000
0001
,
0010
0010
0000
0011
0000
0110
0000
2200
,
0000
0300
0000
0100
3100
0000
1000
0001
,
1000
1000
0000
1010
0000
0110
0000
0202
,
0000
0000
0300
0000
1003
0000
0001
0000
0100
0000
0000
0010
0000
0000
1000
0000
,
0002
0000
0013
2000
0000
3100
0020
0000
,
0031
0100
0010
0100
0001
0010
1000
0100
,
1000
0000
0010
0000
0100
0000
0000
0001
0000
0001
0000
0000
1000
0000
0100
0000
,
0020
0000
0130
0010
0002
0000
1003
0100
,
0001
0001
0000
0101
0000
1010
0000
2200
,
0000
0000
3000
0010
0010
0000
1300
0001
,
0100
0010
0000
1001
0000
0110
0000
1001
,
0001
0000
0000
0001
0000
0000
0001
0000
1000
0000
0000
1000
0000
0000
1000
0000
,
0020
0000
1030
0002
0000
0013
0200
0000
,
1300
0010
0100
0010
1000
0010
0100
0001
,
0020
0000
0031
1000
0002
0000
0103
0010
,
1000
0000
0000
0000
0100
0000
1000
0000
0001
0000
0100
0010
0100
0000
0002
0000
,
2000
0000
0000
0000
0000
0000
0000
0003
,
0000
0010
0000
3001
0100
0010
0100
0001
,
2000
0000
0020
0000
0000
0000
0000
3000
,
0000
0000
0100
0000
0000
0000
1000
0000
1030
0000
0000
0001
0000
0000
0010
0000
,
0001
0000
0101
0000
1000
0010
1000
0001
,
0000
0010
0100
1000
0100
0010
0100
1000
,
0001
1000
0000
0010
0100
0000
0010
1000
,
0000
0100
1000
0100
1000
0100
1000
0001
,
1010
0000
0001
0100
1000
0000
0010
1000
,
0000
1000
0100
0001
0100
1000
0010
0000
,
0100
0000
0001
0010
1000
0000
0100
0010
,
0000
0001
0100
1000
0100
0001
0100
0010
,
1000
0100
1000
0100
0010
0001
0100
0010
,
0000
1000
1100
0000
0001
0100
0101
0000
,
0001
1000
0100
0010
0100
1000
0010
0001
,
1000
0001
0010
0100
1000
0000
1000
0001
,
1002
0000
0100
0203
0000
0320
0000
2030
,
0000
0000
3100
0000
1000
0000
0100
0000
1000
0000
0000
0001
0000
0000
1000
0000
,
0020
0000
1030
0002
0000
0103
0000
1001
,
0000
0000
0001
0000
0010
0000
0001
0000
1000
0000
0000
1000
0000
0000
0010
0000
,
0200
0000
0002
0000
0303
2000
0000
3200
,
0000
1300
0100
1000
0001
0100
0000
0110
,
0000
0010
1000
0010
0100
0100
0000
0101
,
0000
0001
0010
0001
1000
0100
1000
0100
,
0020
0000
0031
0200
0000
0320
0000
2030
,
0000
0000
0001
0000
3001
0000
1000
0000
0010
0000
0000
1000
0000
0000
0100
0000
,
0020
0000
1030
0010
0000
0011
0000
1020
,
0000
0000
0100
0000
0130
0000
0010
0000
1000
0000
0000
0001
0000
0000
1000
0000
,
0100
0000
0010
0100
0000
1000
0000
0001
,
0000
1000
0010
1000
0010
0100
0000
0001
,
0000
1000
0100
1000
0100
0010
0000
0002
,
0000
0103
0020
0000
1030
0010
1000
0001
,
0200
0000
0301
1000
0000
0100
0000
1000
,
0002
0000
0010
0000
1000
0000
0103
0010
,
1000
0000
0001
0100
0000
0010
1000
0100
,
0000
0100
0000
1000
0001
0010
0001
1000
,
0010
0010
0010
0000
1001
0000
0110
0000
,
1001
0000
1000
0010
0000
0001
0100
0010
,
1000
0100
1000
0001
0000
0100
0000
2020
,
0000
0000
0000
0030
,
3001
0000
0100
0010
0000
0100
0000
0001
,
0000
1000
0010
0000
1000
0000
0001
0000
,
0010
0000
0001
0100
0000
0010
0000
1000
,
0000
0100
1000
0000
0010
0000
0100
0000
,
0001
0000
0001
0000
1000
0100
0000
0010
,
0000
0010
0100
0000
1000
0001
0000
0100
,
0000
0010
0100
0000
0001
0010
0000
1000
,
0000
0100
1000
0000
0001
0100
0001
0100
,
0001
0010
0100
1000
0000
1010
0000
0101
,
0000
0000
0001
0000
0010
0000
0100
0000
1000
0000
0000
0010
0000
0000
1000
0000
,
0100
0010
0001
1000
0000
1100
0000
0011
,
0000
0000
0100
0000
0001
0000
0010
0000
0001
0000
0000
1000
0000
0000
0100
0000
,
1000
1000
0100
0100
0010
0010
0001
0001
,
0100
0010
0100
0010
0100
0010
0000
2002
,
0000
0000
0003
0000
3010
0100
0000
0110
,
0000
0002
2000
0000
0000
0000
0000
0000
,
0000
0000
0000
0003
,
3002
0000
0023
0000
1030
0010
0001
0200
,
0000
0010
0020
0000
0330
0000
1000
0001
,
0100
0000
0010
0100
0000
0001
0000
1000
,
0000
0100
1000
0100
1000
0000
0001
0000
,
0100
0000
0010
1000
0000
0100
0000
0001
,
0000
0010
0001
0000
0100
0000
1000
0000
,
0001
0000
1000
0010
0000
0100
0000
0010
,
0000
1000
0100
1000
0100
1000
0000
0001
,
0000
1000
0010
0100
0001
0010
0000
0001
,
0000
1000
0100
0000
1000
0001
1000
0001
,
1000
0010
0100
0001
0010
0100
0000
2000
,
0000
0000
3001
0000
0100
0000
0010
0000
0100
0000
0000
0001
0000
0000
1000
0000
,
0002
0000
0013
0100
1000
0001
0000
0100
,
0010
0000
1000
0000
0010
0000
1000
0000
0001
0000
0000
0001
0000
0000
0001
0000
,
2000
0000
3010
0100
0000
1001
0000
0110
,
0000
1000
0100
1000
0001
0001
0000
0200
,
0000
0310
1000
0010
1000
0001
0000
1100
,
0000
0002
0200
0000
0003
0000
0310
1000
,
0110
0000
0001
0100
0000
0010
0000
1000
,
0200
0000
2300
0000
3002
0000
0103
0010
,
1000
0100
1000
2000
0000
3002
0000
0023
,
0000
0032
0000
0103
0010
0100
0001
1000
,
0010
1000
0100
0000
0110
0001
1000
0000
,
0010
1000
0010
1000
0000
0100
0010
0001
,
1000
0010
0100
0010
1000
0100
0010
0022
,
0000
0000
0000
0030
,
1003
0010
0001
0200
0000
0320
0000
0100
,
0000
0130
0000
0110
0000
1000
0001
2020
,
0000
0000
0000
0000
,
0000
0000
0000
0000
,
0000
0000
3030
0000
;

//---------------dance-single - ----------------
#NOTES:
     dance-single:
     :
     Hard:
     17:
     :
0000
0000
0000
0000
,
0000
0000
0000
0000
,
0000
0000
0000
0000
,
0000
0000
0000
0000
,
0000
0000
0000
0000
,
0000
0000
0000
0000
,
0000
0000
0000
0000
,
0000
0000
0000
0000
,
0010
0000
1000
0100
0001
0100
1000
0010
,
0000
0101
0000
1100
0000
0001
0100
1000
,
0010
0000
1000
0100
0001
0100
1000
0010
,
0000
1100
0000
0101
0010
1000
0001
0100
,
0010
0000
1000
0100
0001
0100
1000
0010
,
0000
1010
0000
0011
0001
0100
0010
1000
,
0100
0000
1000
0010
0001
0010
1000
0001
,
0011
0000
0000
0110
0000
0000
1100
0000
0000
0000
0001
0000
0000
0000
0100
0000
,
1020
0000
1000
1000
0000
0001
0001
0000
,
2030
0000
3100
0010
0001
0100
1000
0000
,
1002
0000
0010
0013
0001
0100
1000
0000
,
0010
0000
1000
0000
0100
0000
1000
0001
1000
0000
0010
0000
0100
0000
0000
0000
,
0001
0100
0010
1000
0002
0100
0103
0000
,
0010
0000
1000
0000
0001
0000
0100
0000
0000
0000
0011
0000
1000
0000
0000
0001
,
2000
0000
0010
0000
3010
0000
0200
0000
0001
0000
0001
0000
0301
0000
0010
0100
,
2000
0000
3002
0000
0023
0100
0230
0000
,
0310
0001
0100
0200
0000
0310
1000
0001
,
0000
0011
0000
1100
0001
0100
1000
0010
,
2000
0001
3001
0200
0000
0310
1000
0200
,
0000
2300
0000
3002
0000
0010
0013
0001
,
0110
1000
0001
0002
0000
0103
0010
1000
,
0000
0100
0000
0001
0100
1000
1000
0001
,
0110
1000
0001
0001
0000
0200
0310
0000
,
1010
0000
0000
0101
0000
0000
0011
0000
0000
1100
0000
0000
1001
0000
0110
0000
,
1002
0000
0000
2003
0000
0000
3002
0000
0000
0023
0000
0000
0031
1000
0001
1000
,
0010
0000
0000
1000
0000
0000
0101
0000
0000
1100
0000
0000
0010
0100
0010
0100
,
0001
0000
0000
0010
0000
0000
1100
0000
0000
0110
0000
0000
0001
1000
0100
0000
,
2000
0000
0000
3020
0000
0000
0032
0000
0000
0203
0000
0000
0301
1000
0001
0000
,
0021
0000
0000
0230
0000
0000
2300
0000
0000
3002
0000
0000
1003
0010
1000
0010
,
0200
0000
0000
0302
0000
0000
2003
0000
0000
3002
0000
0000
0013
0100
0010
0100
,
1000
0000
0000
0001
0000
0000
1001
0000
0000
1010
0000
0000
1100
0000
0010
0100
,
0020
0000
0000
0032
0000
0000
0203
0000
0000
2300
0000
0000
3010
0000
0100
0000
,
0210
0000
0000
0302
0000
0000
2003
0000
0000
3200
0000
0000
1300
0001
1000
0001
,
0200
0000
0000
0320
0000
0000
0230
0000
0000
0302
0000
0000
1003
0100
1000
0100
,
2000
0000
0000
3002
0000
0000
0023
0000
0000
0032
0000
0000
0013
0100
1000
0000
,
2100
0000
0000
3001
0000
0000
0102
0000
0000
2003
0000
0000
3010
0000
0100
0001
,
2000
0000
0000
0001
0000
0000
0010
0000
0000
0001
0000
0000
3100
1000
0001
1000
,
0200
0000
0000
0320
0000
0000
0032
0000
0000
2003
0000
0000
3001
0100
0010
0000
,
1010
0000
0000
1100
0000
0000
0101
0000
0000
0011
0000
0000
0110
0000
1000
0001
,
1000
0000
0000
0001
0000
0000
0011
0000
0000
0110
0000
0000
1100
0000
0010
0000
,
1001
0100
0010
1010
0001
0100
1000
0100
,
0001
0000
1000
0010
1000
0100
0010
0001
,
0110
1000
0001
0101
1000
0010
0100
0001
,
0001
1000
0100
0110
1001
0100
0010
1000
,
0001
0100
0000
0100
1000
0000
0010
0000
0001
0100
0010
0100
0001
0000
1000
0000
,
1000
0000
0010
0000
0100
0000
0001
0000
0010
0001
1000
0010
0000
1000
0100
0000
,
0011
0000
0000
0101
0000
0000
1010
0000
0000
1100
0000
0000
0110
0000
1001
0000
,
0110
0000
0000
1010
0000
0000
0101
0000
0000
0011
0000
0000
1100
0000
1001
0000
,
0000
0200
0020
0000
0000
0000
0000
0330
,
1000
0010
0100
0002
0000
0000
0000
0000
,
0013
0001
1000
0010
0000
0200
0301
1000
,
0020
0000
0000
0000
0000
0000
2000
0000
0030
0000
0000
0000
3001
1000
0001
1000
,
0002
0023
0230
2300
,
3001
1000
0010
0200
0000
0000
0000
0000
,
0301
0100
0010
1000
0000
0002
1003
0000
,
2020
0000
0000
0000
3030
0000
0202
0000
0000
0303
0001
1000
0100
0000
0000
0000
,
0011
0000
0000
0101
0000
0000
1010
0000
0000
1100
0000
0000
1001
0000
0110
0000
,
1001
0000
0000
0000
0011
0000
2000
0000
0000
3002
0000
0000
0013
0001
1000
0010
,
0200
0000
0000
0302
0000
0000
0023
0000
0000
2030
0000
0000
3100
0010
0001
1000
,
0020
0000
0000
0230
0000
0000
0320
0000
0000
2030
0000
0000
3001
1000
0010
0000
,
2000
0000
0000
3002
0000
0000
0023
0000
0000
0230
0000
0000
0310
0001
1000
0001
,
0200
0000
0000
0302
0000
0000
2003
0000
0000
3020
0000
0000
1030
0100
0010
0001
,
2000
0000
0000
3002
0000
0000
2003
0000
0000
3020
0000
0000
0130
0001
0010
0001
,
1000
0000
0000
0010
0000
0000
1001
0000
0000
0101
0000
0000
0011
0000
0001
0100
,
0001
0000
0000
1000
0000
0000
0110
0000
0000
1001
0000
0000
0110
0000
1000
0000
,
0101
0010
1000
1100
0001
0100
1000
0010
,
0100
0000
0001
0000
0010
0000
1000
0000
0001
0000
0010
0000
1000
0001
0100
0010
,
1000
0001
0100
1010
0001
0100
0011
1000
,
1000
0000
0001
0000
0010
0000
1100
0000
0011
0000
0100
0000
0010
1000
0001
0000
,
1000
0100
0010
0001
0000
0100
0010
0000
0100
0001
0010
1000
0000
1000
0100
0000
,
0110
0000
0001
0000
0100
0000
1000
0000
0010
1000
0100
0010
0000
0001
1000
0000
,
0011
0000
0000
1001
0000
0000
1100
0000
0000
0101
0000
0000
0110
0000
1010
0000
,
1100
0000
0000
0011
0000
0000
1010
0000
0000
0101
0000
0000
1001
0000
0110
0000
,
1001
0100
0010
0000
1000
0100
0001
0010
,
0001
0010
0100
1000
0010
0100
0001
0000
,
0011
1000
0100
0000
1000
0010
0100
0001
,
0010
0000
0100
0000
1000
0000
0001
0000
0100
0000
0010
1000
0010
1000
0010
1000
,
0001
0000
0000
0000
0100
0001
0000
0000
0010
0100
0000
0000
1000
0010
0000
0000
,
1000
0001
0000
0000
0010
0001
0000
0000
0100
0010
0000
0000
1000
0100
0000
0000
,
0001
0010
1000
0100
1000
0010
0001
0000
,
0100
0000
0010
1000
0000
1001
0000
1001
0000
0000
0000
0000
0000
0000
0000
0000
,
0110
0000
0001
1000
0100
0000
0010
0000
1000
0000
0010
0000
0001
0000
0200
0000
,
0000
0000
0320
0000
0000
0000
2030
0000
0000
0000
3001
0100
0001
0000
1000
0000
,
0001
0100
1000
0002
0000
0013
0100
2000
,
0000
3200
0000
0310
0001
2000
0000
0100
,
3100
0000
1000
0010
1000
0000
0001
0000
0100
0000
0010
0000
1000
0000
0001
0000
,
0000
0010
0001
0100
1000
0001
1010
0101
,
1001
0000
0010
0000
1000
0000
0101
0000
0010
0000
2000
3200
0320
0000
0032
0000
,
0203
0000
0000
2300
0000
0000
3200
0000
0000
0302
0000
0000
0023
0000
0000
0031
1000
0001
2000
0000
0000
3020
0000
0000
,
0130
0000
0010
1000
0001
0000
0010
0000
1000
0000
0100
0000
1000
0000
0002
0000
,
0000
0023
0000
1000
1030
0010
0001
0100
,
0220
0000
0330
2002
0000
3003
1100
0101
,
1000
0010
0001
0010
1000
0100
0001
0100
,
1000
1000
0000
1010
0000
1001
0000
0101
,
0010
0000
1000
0001
1000
0000
0100
0000
0010
0001
0010
0100
1000
0001
0100
0000
,
0110
0110
0000
1001
0000
1010
0000
1100
,
0001
0000
0010
0100
1000
0000
0001
0000
0100
0000
0000
0010
0000
0000
1000
0000
,
0002
0000
0013
0100
1000
0000
0002
0000
0013
0100
1000
0000
0002
0000
0100
0000
,
0103
0010
0001
0010
1000
0010
0100
0001
,
0020
0000
0032
0000
2003
0000
3000
1010
0000
1010
0000
0000
1000
0000
0001
0000
,
0010
0000
0100
1000
0001
0000
0100
0000
0001
0000
1000
0010
0100
0000
0001
0000
,
0011
0011
0000
1001
0000
0110
0000
1010
,
0001
0000
1000
0100
0010
0000
0001
0000
1000
0010
0100
0010
1000
0001
0100
0000
,
0110
1000
0000
0001
0000
0011
0000
1100
,
0001
0000
0010
0100
1000
0000
0001
0000
0100
0000
0010
1000
0000
1000
0001
0000
,
2000
0000
3100
0010
0001
0000
2000
0000
3100
0010
0001
0000
2000
0000
0010
0000
,
3010
0100
0001
0010
1000
0100
1000
0001
,
0200
0000
0000
0000
0000
0000
0001
0000
0302
0000
0020
0003
0000
0230
0000
0000
,
2300
0000
0000
0000
0000
0000
0000
0000
0000
3001
0000
0000
0100
0000
0000
0000
0000
0000
0010
0000
0000
0000
0000
0000
1000
0000
0000
0000
0000
0000
0100
0000
0010
0000
0100
0000
0010
0000
0000
0000
0000
0000
0001
0000
0000
0000
0000
0000
,
0100
0100
0010
0010
1001
0100
0100
0001
,
1000
1000
0010
0100
0110
0001
1000
0100
,
0010
0010
0001
0001
1100
0010
0010
0100
,
1001
0000
0000
0010
0000
0000
1000
0000
0000
0100
0000
0000
0001
0000
0000
0001
0000
0000
0001
0000
0000
1000
0001
1000
,
0001
0010
1000
0100
0011
1000
0100
0001
,
0020
0230
2300
3020
2030
3200
0302
2003
,
3010
0001
0100
1000
1010
0001
0100
0010
,
1000
0000
1000
0000
0001
0000
0100
0000
0100
0000
0010
0000
1000
0001
0010
0001
,
0100
0010
1000
1000
1100
0001
0001
0100
,
1010
0101
1000
0001
0011
0100
1010
0100
,
0110
0001
1000
1000
1001
0100
0100
0001
,
0010
0000
0001
1000
0000
1001
0000
1001
0000
0000
0000
0000
0000
0000
0000
0000
,
0110
0000
1000
0100
0001
0000
0010
0000
0001
0000
0100
0000
1000
0000
0020
0000
,
0000
2030
0000
3002
0000
0013
0001
0011
,
1100
0001
0100
2000
0000
3010
1000
0002
,
0000
0023
0000
0130
1000
0002
0000
0103
,
0010
0000
1000
0001
1000
0000
0100
0000
0010
0000
0001
0000
1000
0000
0010
0000
,
0000
0100
0001
0010
1000
0001
0100
0010
,
0010
1000
0001
2010
0000
3200
2300
3002
,
0023
0000
0000
0230
0000
0000
0320
0000
0000
0032
0000
0000
2003
0000
0000
3001
0100
0001
0200
0000
0000
0320
0000
0000
,
1030
0000
0001
0100
0010
0000
1000
0000
0100
0000
0001
0000
0100
0000
0020
0000
,
0000
0032
0000
2003
3020
2030
3002
0103
,
0202
0000
0303
2200
0000
3300
1001
0110
,
1000
0010
0001
0100
0001
0010
1000
0100
,
0001
0001
0000
0100
1010
0001
0000
1000
,
1000
0000
0010
1000
0001
0000
0100
0000
0010
1000
0001
0010
0001
1000
0100
0000
,
0110
0001
0000
0010
1100
1000
0000
0100
,
0010
0000
0001
0100
1000
0000
0010
0000
1000
0000
0010
0100
0000
0100
0001
0000
,
2000
0000
3100
0010
0001
0000
2000
0000
3100
0010
0001
0000
2000
0000
0100
0000
,
3100
0001
0010
0001
0100
1000
0100
0001
,
2000
0000
3002
0000
0203
0000
0300
0101
0000
0101
0000
0000
0010
0000
0100
0000
,
0001
0000
1000
0100
0010
0000
0001
0000
0100
0000
0001
1000
0010
0000
0100
0000
,
1001
0010
0000
1000
0011
0100
0000
0001
,
0010
0000
0100
0010
0001
0000
1000
0000
0010
1000
0010
1000
0100
0010
0001
0000
,
1100
0010
0000
0100
1010
0001
0000
1000
,
0001
0000
0100
0000
1000
0000
0010
0000
0100
0000
0010
1000
0000
0010
0100
0000
,
0002
0000
0013
0100
1000
0000
0002
0000
0013
0100
1000
0000
0002
0000
0010
0000
,
0013
0100
0001
0100
1000
0010
1000
0001
,
2010
0000
0000
0000
3001
0000
0100
0000
0011
0000
1000
0000
0001
1000
0000
0010
,
0200
0000
0000
0000
0000
0000
0000
0000
0000
0302
0000
0000
0000
0000
0000
0000
0000
0000
0013
0000
0000
0000
0000
0000
0001
0000
0000
0000
0000
0000
1000
0000
0100
0000
1000
0000
0100
0000
0000
0000
0000
0000
0010
0000
0000
0000
0000
0000
,
0110
0000
0001
0100
0001
0010
1000
0100
,
0000
0000
0110
0000
0000
0000
0010
0000
0011
0000
1000
0000
1100
0000
0001
1000
,
0100
0000
1001
0010
1000
0100
1000
0001
,
0000
0000
0011
0000
0000
0000
1100
0000
0101
0000
0000
1100
0000
0001
0010
0100
,
1000
0000
0011
0010
1000
0001
0100
0020
,
0000
1030
0100
0001
0010
0100
1000
0110
,
0110
0000
0001
1100
0000
0010
1001
0110
,
0000
0000
0101
0000
0010
0000
1000
0000
0100
0000
0010
0001
1000
0010
0100
0001
,
1000
0010
0001
0010
0100
1000
0100
0001
,
0010
0000
0100
0000
0001
0000
0100
0000
0010
0000
1000
0000
0010
0000
0001
0100
,
0010
0001
0010
0100
1000
0100
0010
1000
,
0100
0000
0001
0000
0100
0000
0010
0000
0100
0000
0001
0000
0100
0000
1000
0001
,
1000
0010
1001
0010
1000
0100
1001
0001
,
0010
0100
0110
0001
1000
0010
0110
1000
,
0001
0100
0001
0100
0010
1000
0010
1000
0100
1000
0100
1000
0001
0010
0001
0010
,
0001
1000
0001
1000
0010
0100
0010
0100
0001
1000
0010
0000
1000
0001
0100
0000
,
0010
0000
0010
0000
1000
0000
0001
0010
0100
0000
1000
0000
0001
0000
0100
0000
,
0020
0000
1000
0000
1030
0000
0001
0000
0100
0000
0010
1000
0000
0010
1000
0000
,
0100
0000
1000
0000
0001
0000
0001
0000
0010
0001
1000
0000
0010
0000
0100
0000
,
0010
0000
1000
0000
0100
0000
0010
0000
0011
0000
0000
1100
0000
0000
0101
0000
,
1001
0000
0010
0000
1000
0000
0100
0000
0001
0010
0100
0000
1000
0000
0001
0000
,
0100
1000
1000
0001
0101
0110
0000
1010
,
0001
0000
1000
0000
1000
0000
0010
1000
0100
0000
0001
0000
0100
0000
0110
0000
,
0000
0001
1000
0000
1100
0110
0011
0110
,
1100
0000
0001
0000
1000
0000
1000
0010
0100
0000
0001
0000
0010
0000
1000
0000
,
0100
0000
0010
0000
0001
0000
1000
0000
0110
0000
1000
0001
0000
0100
0010
0000
,
0200
0000
0001
0000
0301
0000
1000
0000
0010
1000
0001
0000
0100
0000
0010
1000
,
0002
0000
0100
0000
0103
0000
0010
0000
1000
0000
0100
1000
0000
1000
0001
0000
,
0010
0000
0001
0000
0100
0000
1000
0000
0010
1000
0001
0000
0100
0000
0010
0000
,
1000
0100
0100
0010
0011
1001
0000
1010
,
0100
1000
1000
0001
0101
0011
0000
1100
,
0001
0000
0100
0000
1000
0000
0010
0100
0010
0000
1000
0000
0001
0000
0001
0000
,
0001
0000
0010
0001
1000
0000
0010
0000
1000
0100
0010
0100
1000
0000
0001
0000
,
0200
0000
0010
0000
0320
0000
1000
0000
2030
0000
0001
0000
3001
0000
0010
0100
,
1000
0000
0001
1000
0100
0000
0010
0000
0001
1000
0100
1000
0001
0000
0010
0000
,
0001
0000
0100
0000
1000
0000
0010
0000
0100
0000
0010
0100
0001
0000
1000
0000
,
0100
0000
1000
0010
0001
0000
0010
0000
1000
0001
0100
0001
1000
0000
0010
0000
,
0100
0000
0001
0000
0010
0000
0010
0000
0001
0000
0100
0000
1000
0000
0010
1000
,
0001
0000
0100
0010
1000
0000
0001
0000
1010
0000
0100
0000
0001
0000
0022
0000
,
0000
0000
0000
0000
0030
0000
1003
0001
,
2000
0000
0010
0010
0000
0100
0000
3001
,
0000
0000
1000
0000
0010
0000
1000
0000
0001
0000
0000
0100
0000
0000
0010
0000
,
0200
0000
0301
0010
1000
0100
0000
0020
,
0000
0000
0001
0000
0031
0000
0000
0000
1000
0000
0000
0001
0000
0000
1000
0000
,
0010
1000
0100
0010
0000
0001
0100
1000
,
0000
0010
1000
0010
1000
0010
0000
0001
,
0000
1000
0100
0010
0100
1000
0001
0100
,
0000
0010
0010
0000
1000
0100
0010
0001
,
0100
1000
0001
0001
0010
0010
1000
0100
,
0001
0100
1000
0100
0001
0010
0010
1000
,
0010
0001
0010
1000
0100
0100
1000
0001
,
0001
1000
0010
1000
0001
0010
0100
0100
,
1000
0010
1000
0010
1000
0100
1000
0100
0010
0001
0010
0001
0100
0001
0100
0001
,
1000
0001
1000
0001
0100
0010
0100
0010
1000
0000
1100
0000
0000
0000
0101
0000
,
0000
1000
0010
1000
0100
0010
0001
0011
,
0000
0100
2020
0000
0000
0000
0000
0000
,
0000
0000
0000
0030
,
3001
0010
1000
0010
0100
0010
0001
1000
,
0000
0020
0200
0000
0030
0000
0301
1000
,
0001
0100
1000
1000
0010
0100
0001
0010
,
0001
0000
0100
0000
0001
0000
1000
0000
0020
0000
0000
2030
0000
0000
3001
0000
,
1000
0010
1000
0002
0000
0203
0000
0320
,
0000
0000
1030
0000
0100
0000
1000
0000
0001
0000
0000
1000
0000
0000
0001
0000
,
0010
0001
1000
2000
0000
3200
0000
0310
,
0001
0100
0001
0100
1000
0001
0100
0010
,
1000
1000
1000
0100
1000
0001
0100
0020
,
0000
1030
0001
0000
0010
0001
0100
1000
,
0001
0010
0001
0100
1000
0010
1000
0001
,
0100
0000
1000
0000
0100
0000
0001
0000
0100
0000
0000
0010
0000
0000
1000
0000
,
0001
0010
1000
0100
0010
0100
1000
0001
,
0100
0000
0010
0000
1000
0000
0010
0000
0200
0000
0000
0302
0000
0000
1003
0000
,
0001
0010
0001
0100
1000
0001
1000
0100
,
0010
0100
0100
0010
0001
1000
0000
1010
,
0001
0100
0100
0100
0010
0010
1000
0001
,
0100
0000
0010
0000
0010
1000
0100
0010
0001
1000
0001
0000
0100
0000
0010
0000
,
0110
0001
1000
0010
0100
1000
0100
0001
,
0020
0100
0230
1000
2300
0001
3001
0100
,
1000
0010
1000
0001
0100
1000
0100
0001
,
0010
0100
0010
0001
1000
0100
1000
0001
,
0101
1000
0001
0000
0001
0010
1000
0000
,
0100
1000
0010
0100
0001
1000
1000
0001
,
0010
0001
0001
0100
1000
1000
0010
0202
,
0000
0000
0000
0300
,
1003
0010
0001
0101
0000
0110
0000
1010
,
0000
0101
0000
0011
0000
1100
1001
2020
,
0000
0000
0000
0000
,
0000
0000
0000
0000
,
0000
0000
3030
0000
;
