#VERSION:0.83;
#TITLE:Istanbul;
#SUBTITLE:(Not Constantinople);
#ARTIST:They Might Be Giants;
#TITLETRANSLIT:;
#SUBTITLETRANSLIT:;
#ARTISTTRANSLIT:;
#GENRE:;
#ORIGIN:;
#CREDIT:;
#BANNER:Istanbul (Not Constantinople)-bn.png;
#BACKGROUND:Istanbul (Not Constantinople)-bg.png;
#PREVIEWVID:;
#JACKET:Istanbul (Not Constantinople)-jacket.png;
#CDIMAGE:;
#DISCIMAGE:;
#LYRICSPATH:;
#CDTITLE:;
#MUSIC:Istanbul (Not Constantinople).ogg;
#OFFSET:0.000000;
#SAMPLESTART:18.981001;
#SAMPLELENGTH:20.000000;
#SELECTABLE:YES;
#DISPLAYBPM:113.000000:116.000000;
#BPMS:0.000=113.800,
50.000=114.400,
66.000=112.700,
74.000=115.500,
79.000=113.000,
83.000=114.000,
98.000=114.500,
105.000=114.200,
117.000=113.000,
122.000=114.400,
138.000=113.700,
154.000=114.200,
169.000=113.000;
#STOPS:;
#DELAYS:;
#WARPS:;
#TIMESIGNATURES:0.000=4=4;
#TICKCOUNTS:0.000=4;
#COMBOS:0.000=1;
#SPEEDS:0.000=1.000=0.000=0;
#SCROLLS:0.000=1.000;
#FAKES:;
#LABELS:0.000=Song Start;
#BGCHANGES:4.000=Istanbul (Not Constantinople).avi=1.000=1=0=0=StretchNoLoop==CrossFade==,
188.875=Istanbul (Not Constantinople)-bg.png=1.000=0=0=0=StretchNoLoop====,
99999=-nosongbg-=1.000=0=0=0 // don't automatically add -songbackground-
;
#KEYSOUNDS:;
#ATTACKS:
;

//---------------dance-single - ----------------
#NOTEDATA:;
#CHARTNAME:;
#STEPSTYPE:dance-single;
#DESCRIPTION:;
#CHARTSTYLE:;
#DIFFICULTY:Beginner;
#METER:2;
#RADARVALUES:0.098715,0.114965,0.029197,0.019465,0.000000,71.000000,68.000000,3.000000,2.000000,0.000000,0.000000,0.000000,0.000000,0.000000,0.098715,0.114965,0.029197,0.019465,0.000000,71.000000,68.000000,3.000000,2.000000,0.000000,0.000000,0.000000,0.000000,0.000000;
#CREDIT:;
#DISPLAYBPM:113.000000:116.000000;
#NOTES:
0000
0000
0000
0000
,
0000
0000
0000
0000
,
0000
0000
0000
0000
,
0001
0000
0000
0000
,
1000
0000
0000
0000
,
0001
0000
0000
0000
,
1000
0000
0000
0000
,
0002
0000
0000
0003
,
0000
0000
0000
0000
,
0010
0000
0000
0000
,
0100
0000
0000
0000
,
0010
0000
0000
0000
,
0100
0000
0000
0000
,
0010
0000
0100
0000
,
0010
0000
0100
0000
,
1000
0000
0001
0000
,
1000
0000
0001
0000
,
1000
0000
0001
0000
,
1000
0000
0001
0000
,
0002
0000
0000
0003
,
0000
0000
0000
0000
,
1000
0000
0000
0000
,
1001
0000
0000
0000
,
0110
0000
0000
0000
,
0010
0000
0100
0000
,
0010
0000
0100
0000
,
1000
0000
0001
0000
,
1000
0000
0001
0000
,
1000
0000
0001
0000
,
0010
0000
0000
0010
,
0010
0000
0000
0000
,
1000
0000
1000
0000
,
0001
0000
0001
0000
,
0000
0000
0010
0000
,
0010
0000
0010
0000
,
1000
0000
1000
0000
,
0100
0000
0100
0000
,
0010
0000
0010
0000
,
0001
0000
0001
0000
,
1000
0000
1000
0000
,
0100
0000
0100
0000
,
0001
0000
0001
0000
,
0001
0000
1000
0000
,
1000
0000
0100
0000
,
0010
0000
0000
0001
,
0001
0001
0000
0000
,
0000
0000
0000
0000
,
0000
1001
0000
0000
;

//---------------dance-single - ----------------
#NOTEDATA:;
#CHARTNAME:;
#STEPSTYPE:dance-single;
#DESCRIPTION:;
#CHARTSTYLE:;
#DIFFICULTY:Easy;
#METER:5;
#RADARVALUES:0.189088,0.275915,0.097325,0.136254,0.000000,136.000000,126.000000,10.000000,14.000000,0.000000,0.000000,0.000000,0.000000,0.000000,0.189088,0.275915,0.097325,0.136254,0.000000,136.000000,126.000000,10.000000,14.000000,0.000000,0.000000,0.000000,0.000000,0.000000;
#CREDIT:;
#DISPLAYBPM:114.000000;
#NOTES:
0000
0000
0000
0000
,
0000
0000
0000
0000
,
0000
0000
0000
0000
,
1000
0010
0100
0000
,
0001
0010
0100
0000
,
1000
0010
0100
0000
,
0200
0000
0000
0300
,
0002
0000
0000
0000
,
0000
0000
0000
0003
,
1000
1000
0100
0010
,
0001
0001
0010
0100
,
1000
1000
0100
0010
,
0001
0000
0110
0000
,
0001
0001
0100
0010
,
1000
1000
0010
0100
,
0001
0001
0100
0010
,
1000
0000
1001
0000
,
0010
1001
0100
0000
,
0110
0000
1001
0000
,
2000
0000
0000
3000
,
0002
0000
0000
0003
,
0010
0100
1000
1000
,
0100
0010
0001
0001
,
0010
0100
1000
1000
,
0100
0100
0200
0300
,
0010
0010
0200
0000
,
0000
0310
0002
0000
,
0000
1003
0200
0000
,
0000
1300
0020
0000
,
0000
0130
0000
1001
,
0110
0000
2000
0000
,
0000
3001
0200
0000
,
0000
0310
2000
0000
,
0000
3100
0010
0100
,
0010
0001
1000
0100
,
0001
0100
1000
0010
,
0001
0010
1000
0100
,
0001
0200
0010
0010
,
0010
0310
0100
0010
,
0001
0001
0100
0010
,
1000
1000
0010
0100
,
0001
0001
1000
1000
,
0100
0000
1000
0010
,
0100
0001
0010
0100
,
1000
0001
1001
1001
,
1001
0020
0000
0000
,
0000
0000
0000
0000
,
0000
0030
0000
0000
;

//---------------dance-single - ----------------
#NOTEDATA:;
#CHARTNAME:;
#STEPSTYPE:dance-single;
#DESCRIPTION:;
#CHARTSTYLE:;
#DIFFICULTY:Medium;
#METER:8;
#RADARVALUES:0.275289,0.367887,0.194649,0.253044,0.043796,198.000000,178.000000,20.000000,26.000000,0.000000,0.000000,0.000000,0.000000,0.000000,0.275289,0.367887,0.194649,0.253044,0.043796,198.000000,178.000000,20.000000,26.000000,0.000000,0.000000,0.000000,0.000000,0.000000;
#CREDIT:;
#DISPLAYBPM:114.000000;
#NOTES:
0000
0000
0000
0000
,
0000
0000
0000
0000
,
0000
0000
0000
0000
,
0020
0000
0031
0000
,
0002
0000
0103
0000
,
0200
0000
0310
0000
,
0020
0000
1030
0000
,
2000
0000
3001
0000
,
0002
0000
0103
0000
,
0100
0010
0100
0000
0010
1000
0010
0000
,
1000
0001
1000
0000
0001
1000
0001
0000
,
1000
0100
1000
0000
0100
0010
0100
0000
,
0010
0001
0010
0000
0001
1000
0001
0000
,
1000
0100
1000
0000
0100
0010
0100
0000
,
0010
0001
0010
0000
0001
1000
0001
0000
,
1000
0100
1000
0000
0001
0100
0001
0000
,
1000
0100
0001
0100
1000
0000
0000
0000
,
2001
0100
3001
0000
,
1002
0100
1003
0000
,
0010
0000
0100
0000
0010
0000
0000
1000
0000
0001
0000
1000
0000
0000
0000
0000
,
2100
0001
0100
3001
,
0010
0001
1000
0001
0100
0000
0010
0000
,
0100
0001
1000
0001
0010
0000
0100
0000
,
1000
0001
0100
0001
0010
0000
0100
0000
,
0010
0001
0100
0001
2000
0000
3000
0000
,
0001
1000
0001
1000
0002
0000
1000
0000
,
0100
1003
2010
0001
,
0010
3000
0120
1000
,
0100
0030
0220
0000
,
0000
0000
0330
0000
0110
0000
2000
3000
,
0000
0002
0000
0003
0000
0000
0000
0000
2010
0000
0000
0000
0100
0000
0000
0000
,
0010
3000
0012
0100
,
0010
0003
0120
0001
,
0100
0030
0010
0100
,
1000
0001
1000
0001
2000
0000
0001
0000
,
3001
0000
0000
0100
0020
0000
0100
0000
,
0130
0000
0000
0000
0000
0000
0000
0000
0001
0000
1000
0000
0001
0000
0000
1000
,
0000
0001
0000
1000
0000
0000
0000
0000
0101
0000
0000
0000
1100
0000
0000
0000
,
0000
0000
0000
0000
0010
0100
0010
0000
,
0100
0001
0100
0000
0001
1000
0001
0000
,
1000
0001
1000
0000
0001
0010
0001
0000
,
0010
0100
0010
0000
0100
1000
0100
0000
,
1000
0001
1000
0000
1001
0000
0110
0000
,
0101
1100
0220
0000
,
0000
0000
0000
0000
0000
0000
0000
0000
0000
0000
0000
0000
0000
0000
0000
0000
0330
0000
0000
0000
0000
0000
0000
0000
1001
0000
0000
0000
0000
0000
0000
1001
,
0000
0000
0000
2002
0000
0000
0000
0000
0000
0000
0000
0000
0000
0000
0000
0000
,
0000
0000
0000
0000
,
0000
3003
0000
0000
;

//---------------dance-single - ----------------
#NOTEDATA:;
#CHARTNAME:;
#STEPSTYPE:dance-single;
#DESCRIPTION:;
#CHARTSTYLE:;
#DIFFICULTY:Hard;
#METER:11;
#RADARVALUES:0.369833,0.436866,0.223846,0.360101,0.209248,266.000000,243.000000,23.000000,37.000000,0.000000,0.000000,0.000000,0.000000,0.000000,0.369833,0.436866,0.223846,0.360101,0.209248,266.000000,243.000000,23.000000,37.000000,0.000000,0.000000,0.000000,0.000000,0.000000;
#CREDIT:;
#DISPLAYBPM:114.000000;
#NOTES:
0000
0000
0000
0000
,
0000
0000
0000
0000
,
0000
0000
0000
0000
,
0020
0000
2030
0000
,
3002
0000
0023
0000
,
0230
0000
0302
0000
,
0203
0000
2300
0000
,
3020
0000
0230
0302
,
2003
0000
0000
0000
3100
1000
0010
0001
,
0010
0000
1000
0000
0001
0000
0010
0100
0000
1000
0000
0100
0010
0000
0001
0000
,
0100
0000
0001
0000
1000
0000
0010
0100
0000
0001
0000
0100
0010
0000
1000
0000
,
0100
0000
0010
0000
0001
0000
0000
1000
0000
0001
0000
1000
0001
0000
0100
0000
,
1000
0100
0001
1000
0100
0001
0100
1000
,
0010
0000
1000
0000
0001
0000
0010
0100
0000
0001
0000
0100
0010
0000
0001
0000
,
0100
0000
0001
0000
1000
0000
0010
0100
0000
1000
0000
0100
0010
0000
1000
0000
,
0100
0000
0010
0000
0001
0000
0000
0100
0000
0010
0000
0100
0010
0000
0001
0000
,
0010
1000
0001
0010
0100
0000
1000
0001
,
0011
0000
1001
0000
0101
0000
0000
1000
,
0010
1000
0001
1000
0200
0000
0000
0000
,
0310
0000
0100
0000
0010
0000
0100
1000
0000
0010
0000
0100
0001
0000
0000
0000
,
0010
0100
1000
0001
0100
0010
0001
0010
,
1000
0100
0010
0001
0100
0010
0100
0010
,
1000
0001
0010
0100
1000
0100
1000
0001
,
0100
0010
0100
0001
1000
0001
1000
0100
,
0010
0001
1000
0001
0200
0000
0300
0001
,
1000
0100
0001
0100
2000
0000
3002
0000
,
1003
0001
2010
0001
,
3100
0110
0012
1000
,
0103
0110
1020
0001
,
1030
0000
0000
1100
0000
0000
0011
0000
0000
1000
0100
1000
,
0000
0000
0000
0001
0000
0000
0000
0100
0000
0000
0000
0001
0000
0000
0000
0000
0000
0000
0000
0000
0000
0000
0000
0000
0102
0000
0000
0000
0000
0000
0000
0000
0000
0000
0000
0000
1000
0000
0000
0000
0000
0000
0000
0000
0000
0000
0000
0000
,
0013
0110
2100
0001
,
3010
0110
0201
1000
,
0301
0000
0000
0000
0011
0000
0000
0000
1100
0000
0000
0000
1001
0000
0000
0010
,
1000
0001
0100
0001
2000
0000
3002
0000
,
2003
0000
3000
0010
0200
0000
0320
0000
,
0230
0000
0000
0000
0300
0000
0000
0000
0010
0000
0100
0000
0001
1000
0000
0100
,
0000
0010
0000
0001
1000
0000
0000
0000
0101
0000
0000
0000
2200
0000
0000
0000
,
0000
0000
3300
0000
0000
0000
0010
0000
0100
0000
1000
0000
0001
0000
0100
0010
,
0000
0001
0000
0010
0100
0000
0001
0000
0010
0000
0001
0000
1000
0000
0100
0010
,
0000
1000
0000
0010
0100
0000
1000
0000
0010
0000
0100
0000
0001
0000
0000
0010
,
0000
0100
0000
0010
0100
0000
0001
0000
0100
0000
1000
0000
0001
0000
0100
0000
,
0020
0000
0000
0130
0002
0000
2003
0000
,
3002
0000
0000
0000
1003
0000
0100
0020
0000
0000
0000
0000
0000
0000
0000
0000
,
0000
0000
0000
0000
0000
0000
0000
0000
0000
0000
0000
0000
0000
0000
0000
0000
0030
0000
0000
0000
0000
0000
0000
0000
0110
0000
0000
0000
0000
0000
0000
1001
,
0000
0000
0000
0220
0000
0000
0000
0000
0000
0000
0000
0000
0000
0000
0000
0000
,
0000
0000
0000
0000
,
0000
0330
0000
0000
;

//---------------dance-double - ----------------
#NOTEDATA:;
#CHARTNAME:;
#STEPSTYPE:dance-double;
#DESCRIPTION:;
#CHARTSTYLE:;
#DIFFICULTY:Easy;
#METER:5;
#RADARVALUES:0.183526,0.229929,0.126522,0.136254,0.000000,132.000000,119.000000,13.000000,14.000000,0.000000,0.000000,0.000000,0.000000,0.000000,0.183526,0.229929,0.126522,0.136254,0.000000,132.000000,119.000000,13.000000,14.000000,0.000000,0.000000,0.000000,0.000000,0.000000;
#CREDIT:;
#DISPLAYBPM:114.000000;
#NOTES:
00000000
00000000
00000000
00000000
,
00000000
00000000
00000000
00000000
,
00000000
00000000
00000000
00000000
,
00001000
00000000
00010000
00000000
,
00100000
00000000
00010000
00000000
,
00001000
00000000
00000100
00000000
,
00001000
00000000
00010000
00000000
,
00001000
00000000
00000100
00000001
,
00000020
00000000
00000000
00000030
,
00001000
00001000
00010000
00010000
,
01000000
01000000
00010000
00010000
,
00001000
00001000
00000010
00000010
,
00000100
00000100
00001000
00001000
,
00010000
00010000
01000000
01000000
,
00010000
00010000
10000000
10000000
,
01000000
01000000
00100000
00100000
,
00010000
00010000
00011000
00000000
,
00002000
00003200
00000302
00000003
,
00000200
00002300
00023000
00030000
,
00002000
00000000
00000000
00003000
,
00020000
00000000
00000000
00030000
,
00100000
00000000
01000000
01000000
,
00010000
00000000
00001000
00001000
,
00010000
00000000
00100000
00100000
,
00010000
00010000
00000100
00000000
,
00000100
00000100
00020000
00000000
,
00000000
00030000
00001000
00000000
,
00000000
00011000
00010100
00000000
,
00000000
00001100
00001001
00000000
,
00000100
00000000
00000010
00000001
,
00000100
00000000
00001001
00000000
,
00000000
00001100
00011000
00000000
,
00000000
00011000
01010000
00000000
,
00000000
10010000
10000000
00100000
,
01000000
00010000
10000000
00000000
,
01000000
00000000
00100000
00010000
,
00100000
00000000
00010000
01000000
,
00010000
01000000
00001000
00010000
,
00001000
00010000
00000100
00001000
,
00000010
00000100
00000001
00000010
,
00000001
00000100
00000010
00010000
,
00001000
00100000
00010000
01000000
,
00001000
00010000
00022000
00000000
,
00000000
00000000
00033000
00000000
,
00001000
00010000
00001000
00022000
,
00000000
00000000
00000000
00000000
,
00000000
00000000
00000000
00000000
,
00000000
00033000
00000000
00000000
;

//---------------dance-double - ----------------
#NOTEDATA:;
#CHARTNAME:;
#STEPSTYPE:dance-double;
#DESCRIPTION:;
#CHARTSTYLE:;
#DIFFICULTY:Medium;
#METER:8;
#RADARVALUES:0.232189,0.298908,0.136254,0.399031,0.024331,167.000000,153.000000,14.000000,41.000000,0.000000,0.000000,0.000000,0.000000,0.000000,0.232189,0.298908,0.136254,0.399031,0.024331,167.000000,153.000000,14.000000,41.000000,0.000000,0.000000,0.000000,0.000000,0.000000;
#CREDIT:;
#DISPLAYBPM:114.000000;
#NOTES:
00000000
00000000
00000000
00000000
,
00000000
00000000
00000000
00000000
,
00000000
00000000
00000000
00000000
,
00002000
00000000
00003020
00000000
,
00000230
00000000
00000302
00000000
,
00000203
00000000
00000320
00000000
,
00002030
00000000
00023000
00000000
,
02030000
00000000
03200000
10000000
,
20300000
00000000
00000000
30000000
,
00010000
01000000
00010000
00000000
00001000
00000100
00001000
00000000
,
00001000
00000010
00001000
00000000
00010000
00100000
00010000
00000000
,
10000000
10000000
01000000
00010000
,
00001000
00000100
00001000
00010000
,
00100000
01000000
00002000
00000000
00000000
00000000
00003000
00000000
,
00010000
00001000
00020000
00000000
00000000
00000000
00030000
00000000
,
00001000
00000100
00001000
00000000
00000100
00000001
00000200
00000000
,
00000300
00000000
00001000
00001000
00011000
00000000
00010000
00000000
,
02010000
00010000
00010000
03000000
,
00021000
00001000
00001000
00030000
,
00002100
00000100
00000100
00003100
,
00000102
00000100
00000100
00000103
,
00000100
00000010
00000100
00000010
00002000
00000000
00003000
00000000
,
00010000
01000000
00010000
01000000
00200000
00000000
00300000
00000000
,
10000000
01000000
10000000
01000000
00200000
00000000
00300000
00000000
,
00010000
01000000
00010000
00002000
00010000
00000000
00003000
00000000
,
00000100
00000010
00000100
00000010
00000200
00000000
00000000
00000000
,
00000000
00000300
00012000
00010000
,
00010000
00003000
01020000
01000000
,
01000000
00030000
00210000
00010000
,
00010000
00000000
00300000
00000000
00001000
00010000
00001000
00000000
,
01000000
00000000
02020000
00000000
,
00000000
03030000
00022000
00000000
,
00000000
00033000
00002200
00000000
,
00000000
00003300
00000001
00001000
,
00000001
00001000
00000001
00001000
00000001
00000000
00000100
00000000
,
00001000
00000000
00000000
00100000
00010000
00000000
10000000
00000000
,
00200000
00000000
00000000
00000000
00300000
00000000
00000000
00000000
00010000
00000000
00100000
00000000
00001000
00000000
00000000
00010000
,
00000000
00000100
00000000
00002000
00000000
00000000
00000000
00000000
00000100
00000000
00000000
00000000
00000100
00000000
00000000
00000000
,
00000100
00000000
00003100
00000000
00010000
00001000
00010000
00002000
,
00000000
00000000
00003000
00000000
00001000
00010000
00001000
00020000
,
00000000
00000000
00030000
01000000
00100000
01000000
00100000
00002000
,
00000000
00000000
00003000
00000100
00000010
00000100
00000010
00002000
,
00000000
00003000
00000001
00001000
,
00000001
00000000
00001000
00000100
00020000
00000000
00000000
00000000
,
00000000
00000000
00000000
00000000
00000000
00000000
00000000
00000000
00000000
00000000
00000000
00000000
00000000
00000000
00000000
00000000
00030000
00000000
00000000
00000000
00000000
00000000
00000000
00000000
00011000
00000000
00000000
00000000
00000000
00000000
00000000
00011000
,
00000000
00000000
00000000
00022000
00000000
00000000
00000000
00000000
00000000
00000000
00000000
00000000
00000000
00000000
00000000
00000000
,
00000000
00000000
00000000
00000000
,
00000000
00033000
00000000
00000000
;

//---------------dance-double - ----------------
#NOTEDATA:;
#CHARTNAME:;
#STEPSTYPE:dance-double;
#DESCRIPTION:;
#CHARTSTYLE:;
#DIFFICULTY:Hard;
#METER:11;
#RADARVALUES:0.365662,0.436866,0.194649,0.389298,0.214114,263.000000,243.000000,20.000000,40.000000,0.000000,0.000000,0.000000,0.000000,0.000000,0.365662,0.436866,0.194649,0.389298,0.214114,263.000000,243.000000,20.000000,40.000000,0.000000,0.000000,0.000000,0.000000,0.000000;
#CREDIT:;
#DISPLAYBPM:114.000000;
#NOTES:
00000000
00000000
00000000
00000000
,
00000000
00000000
00000000
00000000
,
00000000
00000000
00000000
00000000
,
00000002
00000000
00000203
00000000
,
00002300
00000000
00203000
00000000
,
00320000
00000000
20030000
00000000
,
32000000
00000000
03020000
00000000
,
00032000
00000000
00023000
00032000
,
00023000
00000000
00000000
00000000
00030100
00001000
00000010
00000001
,
00000010
00000000
00001000
00000000
00000100
00000000
00000010
00000100
00000000
00001000
00000000
00000100
00000010
00000000
00001000
00000000
,
00010000
00000000
01000000
00000000
10000000
00000000
00100000
01000000
00000000
00010000
00000000
01000000
00100000
00000000
10000000
00000000
,
00010000
00000000
00100000
00000000
00001000
00000000
00000000
00010000
00000000
00001000
00000000
00010000
00001000
00000000
00000100
00000000
,
00000001
00000100
00001000
00000001
00000010
00001000
00000010
00000001
,
00000010
00000000
00001000
00000000
00000100
00000000
00000010
00000100
00000000
00000001
00000000
00000100
00000010
00000000
00001000
00000000
,
00010000
00000000
01000000
00000000
10000000
00000000
00100000
01000000
00000000
10000000
00000000
01000000
00100000
00000000
10000000
00000000
,
00010000
00000000
01000000
00000000
00001000
00000000
00000000
00010000
00000000
00001000
00000000
00010000
00001000
00000000
00000010
00000000
,
00000001
00000010
00000100
00001000
00000001
00000000
00001000
00000001
,
00000200
00000000
00002300
00000000
00023000
00000000
00030000
00001000
,
00100000
00001000
00010000
00001000
02000000
00000000
00000000
00000000
,
03010000
00000000
10000000
00000000
00010000
00000000
10000000
00100000
00000000
01000000
00000000
00010000
01000000
00000000
00000000
00000000
,
00100000
01000000
00010000
00100000
10000000
00100000
00010000
10000000
,
01000000
00010000
00001000
00010000
00000100
00010000
00001000
00000100
,
00000001
00000100
00001000
00010000
00001000
00100000
00001000
00010000
,
01000000
10000000
01000000
00010000
00001000
00010000
00000100
00010000
,
00001000
00000100
00000001
00001000
00000002
00000000
00000003
00001000
,
00000010
00000000
00000100
00000000
00000001
00000000
00000100
00000000
00002000
00000000
00000000
00000000
00003000
00020000
00000000
00000000
,
00031000
00010000
00102000
00010000
,
01003000
01001000
01020000
10000000
,
00130000
01100000
21000000
00010000
,
30100000
00000000
00000000
01010000
00000000
00000000
00110000
00000000
00000000
00100000
00001000
00100000
,
00000000
00000000
00000000
00001000
00000000
00000000
00000000
00010000
00000000
00000000
00000000
00001000
00000000
00000000
00000000
00000000
00000000
00000000
00000000
00000000
00000000
00000000
00000000
00000000
00020100
00000000
00000000
00000000
00000000
00000000
00000000
00000000
00000000
00000000
00000000
00000000
00001000
00000000
00000000
00000000
00000000
00000000
00000000
00000000
00000000
00000000
00000000
00000000
,
00030010
00010010
00002010
00000001
,
00003100
00000110
00000012
00001000
,
00000103
00000000
00000000
00000000
00001010
00000000
00000000
00000000
00001100
00000000
00000000
00000000
00011000
00000000
00000000
00001000
,
00010000
01000000
10000000
00010000
20000000
00000000
32000000
00000000
,
03020000
00000000
00030000
00001000
00020000
00000000
02030000
00000000
,
23000000
00000000
00000000
00000000
30000000
00000000
00000000
00000000
01000000
00000000
00010000
00000000
00001000
00010000
00000000
00001000
,
00000000
00010000
00000000
00001000
00000100
00000000
00000000
00000000
00000101
00000000
00000000
00000000
00000022
00000000
00000000
00000000
,
00000000
00000000
00000033
00000000
00000000
00000000
00001000
00000000
00000100
00000000
00001000
00000000
00000010
00000000
00000100
00000010
,
00000000
00000001
00000000
00000010
00000100
00000000
00001000
00000000
00010000
00000000
00100000
00000000
10000000
00000000
01000000
00100000
,
00000000
10000000
00000000
00100000
01000000
00000000
10000000
00000000
00010000
00000000
00100000
00000000
00001000
00000000
00000000
00010000
,
00000000
00001000
00000000
00010000
00001000
00000000
00000100
00000000
00000001
00000000
00000100
00000000
00000010
00000000
00001000
00000000
,
00000002
00000000
00000003
00000010
00000200
00000000
00020300
00000000
,
00032000
00000000
00000000
00000000
00013000
00000000
01000000
20000000
00000000
00000000
00000000
00000000
00000000
00000000
00000000
00000000
,
00000000
00000000
00000000
00000000
00000000
00000000
00000000
00000000
00000000
00000000
00000000
00000000
00000000
00000000
00000000
00000000
30000000
00000000
00000000
00000000
00000000
00000000
00000000
00000000
00110000
00000000
00000000
00000000
00000000
00000000
00000000
00011000
,
00000000
00000000
00000000
00002200
00000000
00000000
00000000
00000000
00000000
00000000
00000000
00000000
00000000
00000000
00000000
00000000
,
00000000
00000000
00000000
00000000
,
00000000
00003300
00000000
00000000
;

//---------------dance-single - ----------------
#NOTEDATA:;
#CHARTNAME:;
#STEPSTYPE:dance-single;
#DESCRIPTION:;
#CHARTSTYLE:;
#DIFFICULTY:Challenge;
#METER:15;
#RADARVALUES:0.578386,0.666354,0.311439,0.311439,0.725068,416.000000,384.000000,32.000000,32.000000,0.000000,0.000000,0.000000,0.000000,0.000000,0.578386,0.666354,0.311439,0.311439,0.725068,416.000000,384.000000,32.000000,32.000000,0.000000,0.000000,0.000000,0.000000,0.000000;
#CREDIT:;
#DISPLAYBPM:113.000000:116.000000;
#NOTES:
// measure 0
0000
0000
0000
0000
,  // measure 1
0000
0000
0000
0000
,  // measure 2
0000
0000
0000
0000
,  // measure 3
0001
1000
0100
1000
0100
0000
0000
0010
0001
0010
0100
0000
0000
0000
0000
0000
,  // measure 4
0000
0000
0000
0000
1000
0010
0100
0010
1000
0100
0010
0001
0100
0001
1000
0001
,  // measure 5
0200
0320
2030
3002
,  // measure 6
0023
0000
0000
0000
0000
0230
0000
0000
,  // measure 7
2300
3002
2003
0000
,  // measure 8
3010
0100
0002
0200
0000
0000
0003
0000
1000
0000
0010
0000
0001
0000
0310
0000
,  // measure 9
1000
0000
1100
0000
0011
0000
0100
0010
0000
1000
0000
0001
0010
0001
1000
0010
,  // measure 10
0100
0000
0101
0000
1010
0000
0001
0010
0000
0100
0000
1000
0010
1000
0001
0100
,  // measure 11
0010
0000
0110
0000
1001
0000
0000
1000
0000
0100
0000
1000
0010
0100
0001
1000
,  // measure 12
0001
0100
0010
1000
0000
0000
0100
0010
0001
1000
0000
0010
0000
0000
0000
0000
,  // measure 13
0100
0000
0101
0000
1100
0000
1000
0001
0000
1000
0000
0010
0100
0001
1000
0010
,  // measure 14
0100
0000
1010
0000
0011
0000
0010
0100
0000
1000
0000
0010
1000
0001
0100
0001
,  // measure 15
0010
0000
0100
1000
0000
0000
0010
1000
0000
0001
0000
0100
0010
1000
0001
0010
,  // measure 16
0001
1000
0100
0000
1000
0000
1001
0000
0110
0000
0000
0000
1000
0000
0001
0000
,  // measure 17
0200
0000
0320
0000
2030
0000
3000
0001
,  // measure 18
0002
0100
2003
0100
3002
0000
0003
0000
,  // measure 19
0011
0000
0110
0000
1100
0000
0010
1000
0000
0001
0000
1000
0100
0000
0000
0000
,  // measure 20
0010
0001
0010
0000
0100
0000
1000
0000
0010
0100
0010
0000
1000
0000
1001
0000
,  // measure 21
0010
0000
1000
0000
0001
0000
0010
0100
0000
0100
0000
0100
1000
0010
1000
0001
,  // measure 22
0100
0000
0010
0000
1000
0000
0100
0010
0000
0010
0000
0010
0001
1000
0001
0100
,  // measure 23
0010
0000
1000
0000
0100
0000
0000
1000
0000
1000
0000
1000
0001
0100
0001
0010
,  // measure 24
0100
0000
1000
0010
0100
0010
1000
0001
0010
0000
0100
2000
0000
0000
0001
0000
,  // measure 25
3001
0000
1000
0010
0100
0010
0100
0001
2000
0000
0010
0000
0000
0000
0100
0000
,  // measure 26
0000
0000
0010
0000
0000
0000
3001
0000
1010
0000
0010
0100
0001
0000
0000
0010
,  // measure 27
0001
1000
0001
0000
0100
0000
0010
0000
0101
0000
1000
0001
0100
0000
0000
0010
,  // measure 28
1000
0001
1000
0000
0100
0000
0010
0000
0011
0000
0000
0000
1000
0001
0100
0010
,  // measure 29
1000
0000
0000
0001
0000
0000
0100
0000
0000
0010
0000
0000
1000
0000
0000
0100
0000
0000
0010
0000
0000
0001
0000
0000
0100
0000
0000
0010
0000
0000
0100
0000
0000
0000
0000
0000
0001
0000
0000
0000
0001
0000
0000
0000
0001
0000
0000
0000
,  // measure 30
0000
0000
0000
1000
0000
0000
0000
1000
0000
0000
0000
1000
0000
0000
0000
0000
0000
0000
0010
0000
0000
0000
0000
0000
1001
0000
0000
0000
0000
0000
0110
0000
0000
0000
0000
0000
1001
0000
0000
0000
0000
0000
0000
0000
0000
0010
0000
0000
,  // measure 31
0000
1000
0000
0100
1000
0001
0010
0001
0100
0000
0101
0000
1100
0000
0000
0001
,  // measure 32
0000
0010
0000
0001
0100
0010
1000
0001
0010
0100
0010
0100
1000
0001
1000
0001
,  // measure 33
0100
0010
1000
0001
0010
0100
1000
0001
0100
0000
0000
0000
0100
0000
0000
0010
,  // measure 34
1000
0100
1000
0001
0200
0000
0320
0000
,  // measure 35
2030
0000
3000
0001
0002
0000
0023
0000
,  // measure 36
0230
0000
0000
0000
0300
0000
0000
0000
1100
0000
0110
0000
0011
0000
0000
1000
,  // measure 37
0000
0001
0000
1000
0100
0000
0000
0000
0010
0001
0100
0000
0010
1000
0100
0000
,  // measure 38
1000
0001
1000
0001
1000
0001
1000
0001
0100
0000
0010
0000
1010
0000
0001
1000
,  // measure 39
0000
0100
0000
0010
0001
0100
0010
1000
0100
0000
0010
0000
0011
0000
1000
0001
,  // measure 40
0000
1000
0000
0010
0100
0010
1000
0001
0010
0000
0100
0000
1100
0000
0000
0001
,  // measure 41
0000
1000
0000
0010
1000
0100
0010
0001
0100
0000
0001
1000
0001
0010
0100
1000
,  // measure 42
0010
0000
0100
0002
0000
0000
1003
0000
1001
0000
0000
0000
0100
0010
0000
0000
,  // measure 43
1000
0000
0100
0000
1000
0000
0001
0200
0010
0000
1000
0000
0010
0000
0001
0000
,  // measure 44
0010
0000
0000
0000
1000
0000
0000
0000
0010
0000
0000
0000
0301
0000
0000
0000
0100
0000
0010
0000
0100
0000
0000
0000
0002
0000
0000
0000
0000
0000
0000
2003
,  // measure 45
0000
0000
0000
0000
0000
0000
3002
0000
0000
0000
0000
0000
0000
0000
0000
0000
0000
0000
0000
0020
0000
0000
0000
0000
0000
0000
0000
0000
0000
0000
0030
0000
,  // measure 46
0000
2000
0000
0000
0000
0000
0000
0000
0000
0000
0000
0000
0000
0000
0000
0000
,  // measure 47
0000
0000
0000
0000
3003
0000
0000
1001
0000
0000
0000
0000
0000
0000
0000
0000
0000
0000
0000
0000
0000
0000
0000
0000
0000
0000
0000
0000
0000
0000
0000
0000
;

//---------------dance-double - ----------------
#NOTEDATA:;
#CHARTNAME:;
#STEPSTYPE:dance-double;
#DESCRIPTION:;
#CHARTSTYLE:;
#DIFFICULTY:Challenge;
#METER:15;
#RADARVALUES:0.578386,0.666354,0.311439,0.311439,0.725068,416.000000,384.000000,32.000000,32.000000,0.000000,0.000000,0.000000,0.000000,0.000000,0.578386,0.666354,0.311439,0.311439,0.725068,416.000000,384.000000,32.000000,32.000000,0.000000,0.000000,0.000000,0.000000,0.000000;
#CREDIT:;
#DISPLAYBPM:113.000000:116.000000;
#NOTES:
00000000
00000000
00000000
00000000
,
00000000
00000000
00000000
00000000
,
00000000
00000000
00000000
00000000
,
00100000
00001000
00010000
00001000
00000100
00000000
00000000
00000001
00000010
00000001
00001000
00000000
00000000
00000000
00000000
00000000
,
00000000
00000000
00000000
00000000
00000100
00010000
00001000
00010000
00000100
00010000
00001000
01000000
00001000
00010000
00001000
00100000
,
02000000
23000000
30020000
02030000
,
03200000
00000000
00000000
00000000
00000000
20300000
00000000
00000000
,
30020000
00230000
00302000
00000000
,
00013000
00001000
00020000
00000020
00000000
00000000
00030000
00000000
00000001
00000000
00000100
00000000
00010000
00000000
00000100
00000000
,
00001030
00000000
00001010
00000000
00000101
00000000
00000010
00001000
00000000
00000100
00000000
00010000
00001000
00010000
00000010
00000100
,
00000001
00000000
00000011
00000000
00001100
00000000
00001000
00000010
00000000
00000100
00000000
00000010
00010000
00001000
01000000
00010000
,
00100000
00000000
01100000
00000000
10010000
00000000
00000000
01000000
00000000
00100000
00000000
01000000
00001000
00010000
00000010
00001000
,
00000100
00000010
00000001
00001000
00000000
00000000
00000010
00010000
00001000
00100000
00000000
01000000
00000000
00000000
00000000
00000000
,
10000000
00000000
11000000
00000000
01010000
00000000
00100000
01000000
00000000
00010000
00000000
10000000
00100000
10000000
01000000
00100000
,
00001000
00000000
00011000
00000000
00010010
00000000
00000100
00000001
00000000
00000010
00000000
00000100
00001000
00000010
00010000
00001000
,
01000000
00000000
00100000
01000000
00000000
00000000
00001000
00010000
00000000
00000010
00000000
00001000
00000100
00000010
00000001
00000100
,
00000001
00000010
00001000
00000000
00000100
00000000
00000110
00000000
00001001
00000000
00000000
00000000
00000010
00000000
00001000
00000000
,
00000200
00000000
00020300
00000000
00032000
00000000
00003000
01000000
,
02000000
00001000
03200000
10000000
02300000
00000000
03000000
00000000
,
10100000
00000000
10010000
00000000
11000000
00000000
00100000
00010000
00000000
01000000
00000000
00100000
10000000
00000000
00000000
00000000
,
00010000
01000000
00010000
00000000
00100000
00000000
01000000
00000000
10000000
00100000
10000000
00000000
00010000
00000000
00011000
00000000
,
00000010
00000000
00001000
00000000
00000100
00000000
00001000
00000001
00000000
00000010
00000000
00000001
00000100
00000010
00010000
00000100
,
00001000
00000000
00000010
00000000
00000100
00000000
00000001
00000010
00000000
00000100
00000000
00010000
00001000
01000000
00010000
00100000
,
01000000
00000000
10000000
00000000
00010000
00000000
00000000
01000000
00000000
00100000
00000000
01000000
00010000
10000000
00010000
00100000
,
01000000
00000000
00100000
00001000
00010000
00000010
00001000
00000001
00000100
00000000
00000010
00020000
00000000
00000000
00001000
00000000
,
00031000
00000000
01000000
00010000
00100000
00001000
00010000
00000010
00000200
00000000
00010000
00000000
00000000
00000000
00000001
00000000
,
00000000
00000000
00001000
00000000
00000000
00000000
00000301
00000000
00000110
00000000
00001000
00000001
00000100
00000000
00000000
00000010
,
00001000
00000100
00010000
00000000
00001000
00000000
01000000
00000000
01010000
00000000
10000000
00010000
01000000
00000000
00000000
00010000
,
00100000
00010000
10000000
00000000
01000000
00000000
00100000
00000000
00101000
00000000
00000000
00000000
00001000
00010000
00000010
00000100
,
00000010
00000000
00000000
00001000
00000000
00000000
00000010
00000000
00000000
00000100
00000000
00000000
00000001
00000000
00000000
00000010
00000000
00000000
00000001
00000000
00000000
00001000
00000000
00000000
00000100
00000000
00000000
00010000
00000000
00000000
00000100
00000000
00000000
00000000
00000000
00000000
00010000
00000000
00000000
00000000
00010000
00000000
00000000
00000000
00010000
00000000
00000000
00000000
,
00000000
00000000
00000000
00001000
00000000
00000000
00000000
00001000
00000000
00000000
00000000
00001000
00000000
00000000
00000000
00000000
00000000
00000000
00100000
00000000
00000000
00000000
00000000
00000000
00011000
00000000
00000000
00000000
00000000
00000000
01100000
00000000
00000000
00000000
00000000
00000000
10010000
00000000
00000000
00000000
00000000
00000000
00000000
00000000
00000000
01000000
00000000
00000000
,
00000000
00010000
00000000
00100000
01000000
10000000
00010000
10000000
00100000
00000000
01010000
00000000
10100000
00000000
00000000
10000000
,
00000000
01000000
00000000
10000000
00100000
01000000
00001000
00010000
00000010
00000100
00000010
00000100
00000001
00001000
00000001
00001000
,
00000010
00000100
00000001
00001000
00000010
00000100
00000001
00001000
00000100
00000000
00000000
00000000
00000100
00000000
00000000
00010000
,
00001000
01000000
00001000
00010000
00000020
00000000
00002030
00000000
,
00003200
00000000
00000300
00010000
00020000
00000000
00032000
00000000
,
00203000
00000000
00000000
00000000
00300000
00000000
00000000
00000000
00110000
00000000
01100000
00000000
11000000
00000000
00000000
00100000
,
00000000
10000000
00000000
00010000
01000000
00000000
00000000
00000000
00010000
00100000
01000000
00000000
10000000
00100000
01000000
00000000
,
00001000
00010000
00001000
00010000
00001000
00010000
00001000
00010000
00000010
00000000
00000100
00000000
00010010
00000000
00000100
00000001
,
00000000
00000010
00000000
00000001
00001000
00000100
00010000
00001000
01000000
00000000
00100000
00000000
10100000
00000000
01000000
00010000
,
00000000
00100000
00000000
00010000
10000000
00100000
01000000
00001000
00010000
00000000
00000010
00000000
00000101
00000000
00000000
00000001
,
00000000
00000010
00000000
00000001
00001000
00000010
00010000
00001000
01000000
00000000
00100000
01000000
00010000
00100000
00001000
00010000
,
00000100
00000000
00000010
00000002
00000000
00000000
00001003
00000000
00001001
00000000
00000000
00000000
00000010
00010000
00000000
00000000
,
00001000
00000000
01000000
00000000
00100000
00000000
10000000
02000000
00001000
00000000
00100000
00000000
10000000
00000000
00100000
00000000
,
00010000
00000000
00000000
00000000
00100000
00000000
00000000
00000000
13000000
00000000
00000000
00000000
00010000
00000000
00000000
00000000
01000000
00000000
00100000
00000000
01000000
00000000
00000000
00000000
00002000
00000000
00000000
00000000
00000000
00000000
00000000
00023000
,
00000000
00000000
00000000
00000000
00000000
00000000
00032000
00000000
00000000
00000000
00000000
00000000
00000000
00000000
00000000
00000000
00000000
02000000
00000000
00000000
00000000
00000000
00000000
00000000
00000000
00000000
00000000
00000000
00000000
00000000
03000000
00000000
,
00000000
00000020
00000000
00000000
00000000
00000000
00000000
00000000
00000000
00000000
00000000
00000000
00000000
00000000
00000000
00000000
,
00000000
00000000
00000000
00000000
00003030
00000000
00000000
00011000
00000000
00000000
00000000
00000000
00000000
00000000
00000000
00000000
00000000
00000000
00000000
00000000
00000000
00000000
00000000
00000000
00000000
00000000
00000000
00000000
00000000
00000000
00000000
00000000
;
