#VERSION:0.83;
#TITLE:Issues;
#SUBTITLE:;
#ARTIST:Julia Michaels;
#TITLETRANSLIT:;
#SUBTITLETRANSLIT:;
#ARTISTTRANSLIT:;
#GENRE:;
#ORIGIN:;
#CREDIT:;
#BANNER:Issues-bn.png;
#BACKGROUND:Issues-bg.png;
#PREVIEWVID:;
#JACKET:Issues-jacket.png;
#CDIMAGE:;
#DISCIMAGE:;
#LYRICSPATH:;
#CDTITLE:;
#MUSIC:Issues.ogg;
#OFFSET:0.000000;
#SAMPLESTART:41.446999;
#SAMPLELENGTH:20.000000;
#SELECTABLE:YES;
#DISPLAYBPM:114.000000;
#BPMS:0.000=114.000;
#STOPS:;
#DELAYS:;
#WARPS:;
#TIMESIGNATURES:0.000=4=4;
#TICKCOUNTS:0.000=4;
#COMBOS:0.000=1;
#SPEEDS:0.000=1.000=0.000=0;
#SCROLLS:0.000=1.000;
#FAKES:;
#LABELS:0.000=Song Start;
#BGCHANGES:;
#KEYSOUNDS:;
#ATTACKS:
;

//---------------dance-single - ----------------
#NOTEDATA:;
#CHARTNAME:;
#STEPSTYPE:dance-single;
#DESCRIPTION:;
#CHARTSTYLE:;
#DIFFICULTY:Hard;
#METER:14;
#RADARVALUES:0.511231,0.588103,0.404173,0.151565,0.442064,425.000000,377.000000,48.000000,18.000000,0.000000,0.000000,0.000000,0.000000,0.000000,0.511231,0.588103,0.404173,0.151565,0.442064,425.000000,377.000000,48.000000,18.000000,0.000000,0.000000,0.000000,0.000000,0.000000;
#CREDIT:;
#DISPLAYBPM:114.000000;
#NOTES:
0000
0000
0000
0000
,
0000
0000
0000
0000
,
0000
0000
0000
0000
,
0000
0000
0000
0000
0000
0000
0000
0010
,
1000
0000
0001
0000
0000
0000
0000
0000
0101
0000
0010
0000
1000
0000
0000
0001
,
1000
0000
0100
0000
0000
0000
0000
0000
1010
0000
0000
0000
0000
0000
0001
1000
,
0100
0000
1000
0001
1000
0000
0100
0000
0011
0000
0000
0000
0000
0000
0001
0100
,
0001
0000
1000
0010
1000
0000
0100
0000
1100
0000
0000
0000
0000
0000
0001
0010
,
0001
0000
1000
0000
0000
0000
0000
0000
0110
0000
1000
0000
0001
0000
0000
0010
,
0100
0000
1000
0000
0000
0000
0000
0000
1001
0000
0000
0000
0000
0000
0100
0010
,
0100
0000
0001
0100
0001
0000
1000
0000
1100
0000
0000
0000
0000
1000
0100
0010
,
0001
0000
0100
0010
0100
0000
0001
0000
1010
0000
0000
0000
0000
0000
0000
0100
,
0002
1003
0101
0000
,
2000
0000
0100
0000
3100
0000
0000
0000
1010
0000
0000
0100
0001
0000
1000
0000
,
0001
0000
0001
1000
1100
0110
0011
0110
,
1100
0000
0000
0000
0000
0000
0000
0000
1001
0000
0000
0000
0100
0000
0000
0001
,
0020
0130
0110
0000
,
2000
0000
0001
0000
3001
0000
0000
0000
0101
0000
0000
0010
1000
0000
0001
0000
,
1000
0000
1000
0001
0011
0110
1100
0110
,
0011
0000
0000
0000
0000
0000
0000
0000
1001
0000
0000
0100
0010
1000
0000
0002
,
0000
0000
0103
0000
0000
0000
0010
0000
0110
0000
1000
0000
0001
1000
0000
0100
,
0020
0000
0000
0000
0030
0000
0001
0000
1001
0000
0000
0100
0010
1000
0000
0200
,
0000
0000
0310
0001
0000
0000
0010
0100
0000
0000
1000
0001
0000
0000
1000
0100
,
0010
0000
0001
1000
0000
0001
1000
0000
0101
0000
0010
0000
1000
0000
0001
2000
,
0000
0000
3100
0000
0000
0000
0010
0000
0011
0000
0001
0000
1000
0010
0000
0200
,
0000
0000
0301
0000
0000
0000
1000
0000
1010
0000
0000
0000
0100
0010
0000
0002
,
0000
0000
1003
0001
0000
0000
1000
0010
0000
0000
0100
0001
0000
0000
1000
0100
,
0010
0000
0001
1000
0000
0001
1000
0000
0110
0000
0000
0100
0001
1000
0000
0020
,
0000
0130
0000
0001
1010
0000
0000
0000
,
1001
0000
0000
0000
0000
0000
0000
0000
0000
1000
0000
0000
0100
0000
0000
0010
0000
0000
0100
0000
0000
0010
0000
0000
0001
0000
0000
0000
1000
0000
0000
0000
0010
0000
0000
0000
0100
0000
0000
0000
0000
0000
0100
0000
0000
0000
0000
0000
,
0001
0000
0010
0200
1000
0000
0001
0000
,
1300
0000
1001
0000
,
0002
0000
0000
0000
1003
1000
1000
0001
,
0100
0000
0000
0000
0000
0000
0000
0000
0000
0010
0000
0000
1000
0000
0000
0001
0000
0000
1000
0000
0000
0001
0000
0000
0100
0000
0000
0000
0010
0000
0000
0000
1000
0000
0000
0000
0001
0000
0000
0000
0000
0000
0001
0000
0000
0000
0000
0000
,
0010
0000
0001
0200
0010
0000
1000
0000
,
0301
0000
0110
0000
,
2000
0000
0000
0000
3001
0001
0001
1000
,
0100
0000
0000
0000
0000
0000
0000
0000
1001
0000
0000
1000
0010
0100
0000
0001
,
2000
0000
0000
0000
3010
0000
1000
0000
0101
0000
0010
0000
0100
0001
0000
1000
,
0100
0000
0000
0000
0010
0000
0001
0000
0011
0000
0000
1000
0001
1000
0000
0010
,
0100
0000
0001
0010
0001
0000
1000
0010
1000
0000
0100
0010
0001
0000
0100
0010
,
1000
0000
0001
0100
0000
0010
1000
0000
1100
0000
0010
0000
0001
0000
1000
0001
,
0100
0000
0000
0010
1000
0000
0001
0000
1010
0000
0100
0000
0001
1000
0000
0100
,
0010
0000
0001
0000
0100
0000
0010
0000
0101
0000
0000
0000
1000
0001
0000
1000
,
0100
0000
0010
0001
0100
0000
0010
1000
0100
0000
1000
0001
1000
0000
0010
0100
,
0001
0000
0010
0001
1000
0000
0000
0000
1001
0000
0000
1000
0010
0100
0000
0001
,
1000
0001
0010
0100
1100
1000
0010
0100
,
0001
0000
0000
0000
0000
0000
0000
0000
0000
0010
0000
0000
0001
0000
0000
1000
0000
0000
0010
0000
0000
1000
0000
0000
0100
0000
0000
0000
0010
0000
0000
0000
0001
0000
0000
0000
1000
0000
0000
0000
0000
0000
0010
0000
0000
0000
0000
0000
,
0100
0001
0010
0100
0110
0000
1000
0001
,
0100
0000
0001
0010
0000
0100
1000
0000
1100
0000
0000
0010
1000
0001
0000
0100
,
0010
0100
0001
1000
0101
0000
0010
1000
,
0100
0000
0000
0000
0000
0000
0000
0000
0000
1000
0000
0000
0001
0000
0000
0010
0000
0000
0001
0000
0000
0100
0000
0000
0010
0000
0000
0000
1000
0000
0000
0000
0001
0000
0000
0000
1000
0000
0000
0000
0000
0000
0100
0000
0000
0000
0000
0000
,
0010
0001
1000
0010
1010
0001
1000
0100
,
0010
0000
0000
0000
0001
0000
0000
0000
0011
0000
0000
0100
0010
1000
0000
0002
,
0000
1003
0010
0200
0000
0000
0301
0000
,
0110
0000
0000
0000
0000
0000
0000
0000
0000
0001
0000
0000
0010
0000
0000
0100
0000
0000
1000
0000
0000
0010
0000
0000
1000
0000
0000
0000
0001
0000
0000
0000
0100
0000
0000
0000
0010
0000
0000
0000
0000
0000
0010
0000
0000
0000
0000
0000
;

//---------------dance-single - ----------------
#NOTEDATA:;
#CHARTNAME:;
#STEPSTYPE:dance-single;
#DESCRIPTION:;
#CHARTSTYLE:;
#DIFFICULTY:Medium;
#METER:10;
#RADARVALUES:0.376506,0.423434,0.252608,0.151565,0.042101,313.000000,283.000000,30.000000,18.000000,0.000000,0.000000,0.000000,0.000000,0.000000,0.376506,0.423434,0.252608,0.151565,0.042101,313.000000,283.000000,30.000000,18.000000,0.000000,0.000000,0.000000,0.000000,0.000000;
#CREDIT:;
#DISPLAYBPM:114.000000;
#NOTES:
0000
0000
0000
0000
,
0000
0000
0000
0000
,
0000
0000
0000
0000
,
0000
0000
0000
0000
0000
0000
0000
0010
,
1000
0001
0000
0000
0000
0010
0200
0000
,
1300
0001
0000
0000
1010
0000
0000
0001
,
0100
0010
1000
0200
0000
0300
0000
0010
,
0001
1000
0001
0200
0000
0300
0000
0010
,
1000
0100
0000
0000
0000
1000
0002
0000
,
0103
0010
0000
0000
0101
0000
0000
0010
,
1000
0100
1000
0002
0000
0003
0000
0010
,
0001
0100
0010
2000
0000
3000
0000
0000
,
1100
0101
0010
0000
,
0110
0000
1001
0000
0100
0000
0001
1000
,
0001
0000
0001
0000
1000
1000
1000
1000
,
1000
0000
0110
0000
,
0101
1010
0100
0000
,
1100
0000
0011
0000
0100
0000
0001
1000
,
0001
0000
0001
0000
0100
0100
0100
0100
,
0100
0000
0000
0000
1001
0000
0010
1000
,
0001
0000
0010
0001
0011
0000
1000
0001
,
0100
0000
0010
1000
1100
0000
1000
0001
,
0010
0001
0100
0001
0010
0001
1000
0010
,
0100
0000
0001
1000
0000
0001
1000
0000
0010
0000
0100
0000
0100
0000
0001
0000
,
1000
0000
0001
0100
0110
0000
1000
0001
,
0010
0000
0001
0100
0101
0000
1000
0010
,
0100
0001
1000
0001
0100
0010
1000
0100
,
0010
0000
0001
1000
0000
0001
1000
0000
0100
0000
0000
0000
1000
0000
0001
0000
,
0100
0000
0000
0010
1001
0000
0000
0000
,
0110
0000
0001
1000
0001
0010
0100
1000
,
0000
0000
0010
0200
0000
0000
0301
0000
,
2000
0000
3010
0000
,
2000
0000
0000
0000
3001
0010
0100
0010
,
0001
0000
1000
0010
1000
0100
0010
0001
,
0000
0000
0100
0020
0000
0000
1030
0000
,
0002
0000
1003
0000
,
0200
0000
0000
0000
0310
0001
1000
0001
,
0100
0000
0101
1100
,
0001
0000
1000
0010
0110
0000
0100
0001
,
0010
0000
0100
1000
1010
0000
0001
0100
,
0001
0010
0001
1000
0010
0100
0010
1000
,
0001
0000
1000
0010
0000
1000
0010
0000
0100
0000
0001
0000
0001
0000
1000
0000
,
0001
0000
0100
0010
0101
0000
1000
0001
,
1000
0000
0100
0010
0011
0000
1000
0001
,
1000
0010
0100
0010
1000
0001
0010
0100
,
1000
0000
0001
0000
1001
0000
0100
0010
,
1000
0000
0001
1000
0110
0000
0100
0001
,
0010
0000
0001
1000
0001
0010
0100
1000
,
0020
0000
0030
1000
2100
0000
3000
0001
,
0100
0000
0010
1000
0000
0010
1000
0000
0001
0000
0000
0000
0010
0000
0100
0000
,
1000
0000
0010
0100
0101
0000
2000
0000
,
3002
0000
0013
0001
0010
0100
1000
0001
,
0100
0000
0010
1000
0001
0001
1000
1000
,
0010
0000
0100
0000
1010
0000
0001
1000
,
0101
0000
0000
0000
0200
0000
0020
0000
0000
0300
0000
0000
1000
0000
0000
0000
,
0031
0000
0000
0000
0010
1000
0010
1000
0001
0000
1000
0000
0100
0000
0010
0000
;

//---------------dance-single - ----------------
#NOTEDATA:;
#CHARTNAME:;
#STEPSTYPE:dance-single;
#DESCRIPTION:;
#CHARTSTYLE:;
#DIFFICULTY:Easy;
#METER:7;
#RADARVALUES:0.242985,0.282290,0.303130,0.067362,0.000000,202.000000,166.000000,36.000000,8.000000,0.000000,0.000000,0.000000,0.000000,0.000000,0.242985,0.282290,0.303130,0.067362,0.000000,202.000000,166.000000,36.000000,8.000000,0.000000,0.000000,0.000000,0.000000,0.000000;
#CREDIT:;
#DISPLAYBPM:114.000000;
#NOTES:
0000
0000
0000
0000
,
0000
0000
0000
0000
,
0000
0000
0000
0000
,
0000
0000
0000
0000
,
1000
0000
1001
0000
,
0001
0000
1001
0000
,
0100
0010
0100
0000
,
0001
0010
0100
0000
,
1000
0000
0110
0000
,
0001
0000
0110
0000
,
0010
1000
0001
0000
,
1000
0100
0010
0000
,
0001
0001
0011
0000
,
1000
1000
1010
0000
,
0010
0010
1001
0110
,
1001
0000
0100
0000
,
0010
0010
1010
0000
,
0100
0100
0101
0000
,
1000
0001
1001
0110
,
1001
0000
0100
0000
,
0110
0000
0000
1000
0001
0000
0100
0000
,
0110
0000
0000
1000
0010
0000
0100
0000
,
0001
0001
1000
1000
,
0010
0100
1001
0000
,
0110
0000
0000
0001
1000
0000
0100
0000
,
0110
0000
0000
1000
0001
0000
0100
0000
,
0010
0010
0100
0100
,
0001
1000
1001
0000
,
1010
0000
0101
0000
,
0001
0000
0010
0100
,
2000
0000
3001
0000
,
0200
0000
0310
0000
,
0200
0000
0302
0000
,
1003
0001
1000
0100
,
0020
0000
0031
0000
,
2000
0000
3010
0000
,
0200
0000
0302
0000
,
0013
0000
0001
0000
,
1001
0000
0000
0100
0010
0000
1000
0000
,
1001
0000
0000
0010
0100
0000
0001
0000
,
1000
1000
0001
0001
,
0100
0010
0110
0000
,
1001
0000
0000
0100
0010
0000
0001
0000
,
1001
0000
0000
0010
0100
0000
1000
0000
,
0010
0010
0100
0100
,
0001
1000
0110
0000
,
1010
0000
0000
0001
1000
0000
0100
0000
,
1000
0000
0010
0100
0010
0000
1000
0000
,
0101
0000
0000
0001
0010
0000
0000
0100
,
1000
0001
1001
0000
,
1100
0000
0000
1000
0010
0000
0100
0000
,
0001
0000
1000
0100
1000
0000
0001
0000
,
0011
0000
0000
0001
0100
0000
0010
0000
,
1000
0000
1001
0000
,
0110
0000
1000
0001
,
1001
0000
0010
0000
0100
0000
0001
0010
;

//---------------dance-single - ----------------
#NOTEDATA:;
#CHARTNAME:;
#STEPSTYPE:dance-single;
#DESCRIPTION:;
#CHARTSTYLE:;
#DIFFICULTY:Beginner;
#METER:2;
#RADARVALUES:0.093826,0.115779,0.067362,0.000000,0.000000,78.000000,70.000000,8.000000,0.000000,0.000000,0.000000,0.000000,0.000000,0.000000,0.093826,0.115779,0.067362,0.000000,0.000000,78.000000,70.000000,8.000000,0.000000,0.000000,0.000000,0.000000,0.000000,0.000000;
#CREDIT:;
#DISPLAYBPM:114.000000;
#NOTES:
// measure 0
0000
0000
0000
0000
,  // measure 1
0000
0000
0000
0000
,  // measure 2
0000
0000
0000
0000
,  // measure 3
0000
0000
0000
0000
,  // measure 4
1000
0000
0000
0000
,  // measure 5
0001
0000
0000
0000
,  // measure 6
0100
0100
0000
0000
,  // measure 7
0100
0100
0000
0000
,  // measure 8
0001
0000
0000
0000
,  // measure 9
1000
0000
0000
0000
,  // measure 10
0010
0010
0000
0000
,  // measure 11
0010
0010
0000
0000
,  // measure 12
1000
1000
0000
0000
,  // measure 13
0001
0001
0000
0000
,  // measure 14
1000
0000
0100
0000
,  // measure 15
0010
0000
0000
0000
,  // measure 16
0001
0001
0000
0000
,  // measure 17
1000
1000
0000
0000
,  // measure 18
0001
0000
0010
0000
,  // measure 19
0100
0000
0000
0000
,  // measure 20
1001
0000
0000
0000
,  // measure 21
0110
0000
0000
0000
,  // measure 22
1000
0000
0001
0000
,  // measure 23
0100
0000
0000
0000
,  // measure 24
0110
0000
0000
0000
,  // measure 25
1001
0000
0000
0000
,  // measure 26
0001
0000
1000
0000
,  // measure 27
0010
0000
0000
0000
,  // measure 28
0100
0000
0000
0000
,  // measure 29
0010
0000
0000
0000
,  // measure 30
1000
0000
0000
0000
,  // measure 31
0001
0000
0000
0000
,  // measure 32
1000
0000
1000
0000
,  // measure 33
1000
0000
0000
0000
,  // measure 34
0010
0000
0000
0000
,  // measure 35
0100
0000
0000
0000
,  // measure 36
0001
0000
0001
0000
,  // measure 37
0001
0000
0000
0000
,  // measure 38
1001
0000
0000
0000
,  // measure 39
0110
0000
0000
0000
,  // measure 40
0010
0000
1000
0000
,  // measure 41
0100
0000
0000
0000
,  // measure 42
0110
0000
0000
0000
,  // measure 43
1001
0000
0000
0000
,  // measure 44
0001
0000
0100
0000
,  // measure 45
0010
0000
0000
0000
,  // measure 46
1000
0000
0000
0000
,  // measure 47
0001
0000
0000
0000
,  // measure 48
0010
0000
0010
0000
,  // measure 49
0010
0000
0000
0000
,  // measure 50
0100
0000
0000
0000
,  // measure 51
1000
0000
0000
0000
,  // measure 52
0001
0000
0001
0000
,  // measure 53
0001
0000
0000
0000
,  // measure 54
1000
0000
0000
0000
,  // measure 55
0010
0000
0000
0000
;
