#VERSION:0.83;
#TITLE:Into the Blue;
#SUBTITLE:;
#ARTIST:Kylie Minogue;
#TITLETRANSLIT:;
#SUBTITLETRANSLIT:;
#ARTISTTRANSLIT:;
#GENRE:;
#ORIGIN:;
#CREDIT:;
#BANNER:Into the Blue-bn.png;
#BACKGROUND:Into the Blue-bg.png;
#PREVIEWVID:;
#JACKET:Into the Blue-jacket.png;
#CDIMAGE:;
#DISCIMAGE:;
#LYRICSPATH:;
#CDTITLE:;
#MUSIC:Into the Blue.ogg;
#OFFSET:0.000000;
#SAMPLESTART:41.216999;
#SAMPLELENGTH:20.000000;
#SELECTABLE:YES;
#DISPLAYBPM:115.000000;
#BPMS:0.000=115.000;
#STOPS:;
#DELAYS:;
#WARPS:;
#TIMESIGNATURES:0.000=4=4;
#TICKCOUNTS:0.000=4;
#COMBOS:0.000=1;
#SPEEDS:0.000=1.000=0.000=0;
#SCROLLS:0.000=1.000;
#FAKES:;
#LABELS:0.000=Song Start;
#BGCHANGES:;
#KEYSOUNDS:;
#ATTACKS:
;

//---------------dance-single - ----------------
#NOTEDATA:;
#CHARTNAME:;
#STEPSTYPE:dance-single;
#DESCRIPTION:;
#CHARTSTYLE:;
#DIFFICULTY:Challenge;
#METER:14;
#RADARVALUES:0.493064,0.548882,0.149738,0.194659,0.415522,461.000000,441.000000,20.000000,26.000000,0.000000,0.000000,0.000000,0.000000,0.000000,0.493064,0.548882,0.149738,0.194659,0.415522,461.000000,441.000000,20.000000,26.000000,0.000000,0.000000,0.000000,0.000000,0.000000;
#CREDIT:;
#DISPLAYBPM:115.000000;
#NOTES:
0000
0000
0000
0000
,
0000
0000
0000
0000
,
1000
0000
0000
0001
0000
0000
0010
0000
0000
0000
0001
0000
0000
0000
0100
0000
,
0100
0000
0000
0010
0000
0000
1000
0000
0000
0000
0001
0000
0000
0000
0000
0000
,
0010
0000
0001
0000
0100
0010
0000
1000
0000
0000
0010
0000
0100
0000
0001
0000
,
0020
0001
1000
0001
,
0130
0000
1000
0000
0010
0000
0100
0001
0000
1000
0000
0001
0010
0000
0100
0000
,
1000
0000
0000
0010
0000
0000
1000
0000
0000
0000
0001
0100
0000
0001
0100
0000
,
0010
0000
1000
0000
0001
0000
1000
0100
0000
0010
0000
0001
0100
0000
0010
0000
,
2000
0100
0001
0100
,
3010
0000
1000
0000
0001
0010
0000
0100
0000
1000
0000
0010
0100
0000
0001
0000
,
1000
0000
0000
0001
0000
0000
0010
0000
0000
0000
0100
1000
0000
0100
1000
0000
,
0001
0000
0000
0100
0000
0000
1000
0000
0000
0000
0010
0000
0100
0000
0002
0000
,
0000
0000
1000
0000
2003
0000
0000
0000
0010
0000
0000
0100
0000
0000
0001
0000
,
3001
0000
0000
0010
0000
0000
0001
0000
0000
0000
0100
0000
0010
0000
2000
0000
,
0000
0100
3200
0000
0320
0000
0032
0000
,
0103
0000
0000
0001
0000
0000
1000
0000
0000
0000
0001
0000
0010
0000
0200
0000
,
0000
0000
1000
0000
2300
0000
0000
0000
0001
0000
0000
0100
0000
0000
0010
0000
,
3010
0000
0000
1000
0000
0000
0002
0000
0000
0000
1003
0000
0200
0000
0000
0000
,
0010
0000
0001
0000
0010
0000
1300
0001
,
0100
0000
0001
0010
0000
0010
0100
0000
1000
0000
1000
0000
1000
0000
0010
0000
,
0100
0000
0001
1000
0000
1000
0100
0000
0100
0010
0000
0010
0001
0000
1000
0000
,
0001
0000
0000
0100
0000
0000
0010
0000
0000
1000
0000
0000
0100
0010
0000
0010
,
0001
0000
1000
0010
0000
0010
0100
0000
0100
0001
0000
0001
1000
0001
0100
0010
,
1000
0000
0010
0100
0000
0100
0001
0000
0010
0000
0010
0000
0010
0000
0100
0000
,
1000
0000
0001
0100
0000
0100
0010
0000
0010
1000
0000
1000
0100
0000
0010
0000
,
0001
0000
0000
0100
0000
0000
1000
0000
0000
0010
0000
0000
0100
0001
0000
0001
,
1000
0000
0001
0010
0000
0100
1000
0000
0010
0000
0010
0000
0010
0100
0001
0000
,
0101
1000
0010
1100
0001
0010
1000
0100
,
0010
0000
0001
1000
0000
1000
0010
0000
0100
0000
0100
0000
0100
0000
0001
0000
,
0011
0100
1000
1010
0001
0100
0110
0010
,
1000
0000
0001
0100
0000
0100
0010
0000
1000
0000
1000
0000
1000
0000
0001
0000
,
0011
1000
0001
1010
0100
0001
1000
0100
,
0010
0000
0001
0100
0000
0100
0010
0000
1000
0000
1000
0000
1000
0000
0100
0000
,
1100
0001
1000
0101
0010
1000
1001
0000
,
0100
0000
0001
0010
0000
0100
1000
0000
0010
1000
0000
0010
0100
0001
1000
0000
,
0100
0000
0000
0010
0000
0000
0001
0000
0000
0000
1000
0000
0001
0000
0200
0000
,
0000
0010
0320
0000
0000
0000
0000
1030
,
0001
0000
0000
1000
0000
0000
0100
0000
0000
0000
0010
0000
0001
0000
2000
0000
,
0000
0001
3002
0000
0203
0000
0320
0000
,
1030
0000
0000
0100
0000
0000
0001
0000
0000
0000
0010
0000
0001
0000
2000
0000
,
0000
0000
0010
0000
3020
0000
0000
0000
0100
0000
0000
0001
0000
0000
1000
0000
,
1030
0000
0000
0100
0000
0000
0020
0000
0000
0000
0031
0000
2000
0000
0010
0000
,
0010
0000
0010
0000
0010
0000
3001
1000
,
0001
0000
1000
0100
0000
0010
0001
0000
0100
0000
0100
0000
0100
0000
0010
0000
,
1000
0000
0001
0100
0000
0001
0010
0000
0100
1000
0000
0001
1000
0000
0010
0000
,
0100
0000
0000
0001
0000
0000
0010
0000
0000
0100
0000
0000
1000
0010
0000
1000
,
0001
0000
0010
0100
0000
1000
0001
0000
0100
0010
0000
0100
0001
1000
0010
0100
,
0001
0000
0010
0100
0000
1000
0010
0000
0100
0000
0100
0000
0100
0000
0001
0000
,
0010
0000
0001
1000
0000
0001
0010
0000
0100
0010
0000
0001
1000
0000
0010
0000
,
0100
0000
0000
0001
0000
0000
0010
0000
0000
1000
0000
0000
0100
0010
0000
0010
,
0001
0000
1000
0001
0000
0100
0010
0000
1000
0000
1000
0000
1000
0001
0100
0000
,
0101
0010
1000
1010
0001
0100
1000
0000
,
0010
1000
0100
0001
0010
0100
1000
0001
,
0011
1000
0001
1100
0010
0100
1001
0000
,
0010
0000
1000
0100
0000
0100
0001
0000
0010
0000
0010
0000
0010
0000
0100
0000
,
1100
0001
1000
0011
0100
0001
1000
0000
,
0001
0010
1000
0100
0010
0001
0100
1000
,
1010
0001
1000
0101
0010
0100
0110
0000
,
0001
0000
1000
0010
0000
1000
0100
0000
0010
0001
0000
1000
0001
0000
0100
0000
,
0020
0000
0000
1000
0000
0000
1000
0000
0000
1000
0000
0000
0230
0000
0000
0001
,
0000
0000
1000
0000
0000
0001
0000
0000
0010
0000
0000
0010
0000
0000
0320
0000
,
0200
0000
0000
0000
,
0000
0000
0000
0330
;

//---------------dance-single - ----------------
#NOTEDATA:;
#CHARTNAME:;
#STEPSTYPE:dance-single;
#DESCRIPTION:;
#CHARTSTYLE:;
#DIFFICULTY:Hard;
#METER:11;
#RADARVALUES:0.378622,0.381831,0.059895,0.329423,0.168455,354.000000,346.000000,8.000000,44.000000,0.000000,0.000000,0.000000,0.000000,0.000000,0.378622,0.381831,0.059895,0.329423,0.168455,354.000000,346.000000,8.000000,44.000000,0.000000,0.000000,0.000000,0.000000,0.000000;
#CREDIT:;
#DISPLAYBPM:115.000000;
#NOTES:
0000
0000
0000
0000
,
0000
0000
0000
0000
,
1000
0000
0000
0001
0000
0000
0010
0000
0000
0000
0001
0000
0000
0000
0100
0000
,
0100
0000
0000
0010
0000
0000
1000
0000
0000
0000
0001
0000
0000
0000
0000
0000
,
0010
0001
1000
0001
0100
0010
1000
0001
,
0200
1000
0001
1000
,
0310
0100
0001
1000
0100
0010
0001
1000
,
0001
0000
0000
0100
0000
0000
0010
0000
0000
0000
1000
0000
0001
0000
0100
0000
,
0010
1000
0001
1000
0100
0010
0001
0100
,
0020
0001
1000
0001
,
0130
0001
0010
0001
0100
0010
1000
0001
,
0010
0000
0000
0100
0000
0000
1000
0000
0000
0000
0001
0000
0100
0000
0010
0000
,
1000
0000
0000
0100
0000
0000
1000
0000
0000
0000
0010
0000
0100
0000
0002
0000
,
0000
1000
2000
0000
0000
0000
3003
0010
,
1000
0000
0000
0100
0000
0000
0010
0000
0000
0000
0001
0000
0100
0000
2000
0000
,
0000
0010
3020
0000
0230
0000
0302
0000
,
0013
0000
0000
0100
0000
0000
1000
0000
0000
0000
0010
0000
1000
0000
0002
0000
,
0000
0100
0200
0000
0000
0000
0303
0001
,
1000
0000
0000
0010
0000
0000
1000
0000
0000
0000
0100
0000
0020
0000
0000
0000
,
0002
0000
0000
0000
0033
0000
1000
0001
,
0100
0000
0010
1000
0000
0010
1000
0000
0001
0000
0100
0000
0001
0000
1000
0000
,
0000
0000
0100
0000
0000
0010
0000
0000
0001
0000
0000
1000
0001
0000
0100
0000
,
0001
0000
0000
0010
0000
0000
0001
0000
0000
0100
0000
0000
0020
0000
0000
0000
,
1030
0000
0001
0000
0000
1000
0000
0000
0100
0000
0000
0010
0001
0000
0100
0000
,
0001
0000
1000
0010
0000
1000
0010
0000
0100
0000
0001
0000
1000
0000
0001
0000
,
0000
0000
0010
0000
0000
0001
0000
0000
1000
0000
0000
0010
0100
0000
0001
0000
,
1000
0000
0000
0100
0000
0000
1000
0000
0000
0010
0000
0000
0002
0000
0000
0000
,
0103
0000
0010
0000
0000
1000
0000
0000
0001
0000
0100
0000
0010
0000
1000
0000
,
2100
0000
3001
0200
0010
0000
1000
0000
,
0301
0100
0010
1000
0100
0010
0001
1000
,
0002
0000
0013
0100
1000
0000
1020
0000
,
0100
0000
1030
0001
1000
0100
1000
0010
,
0201
0000
0310
2000
0001
0000
0100
0000
,
3001
0010
0001
0100
0010
1000
0001
0100
,
0002
0000
1003
0100
0010
0000
0012
0000
,
0100
0000
0000
0000
1000
0000
0000
0000
0013
0000
0000
0100
0000
0001
1000
0000
,
0010
0000
0000
1000
0000
0000
0100
0000
0000
0000
0010
0000
0001
0000
2000
0000
,
0000
0100
0200
0000
0000
0000
3300
1000
,
0001
0000
0000
0010
0000
0000
0001
0000
0000
0000
0100
0000
0010
0000
2000
0000
,
0000
0001
3002
0000
0203
0000
0320
0000
,
0130
0000
0000
0001
0000
0000
0010
0000
0000
0000
0100
0000
1000
0000
0002
0000
,
0000
0100
0200
0000
0000
0000
0303
0010
,
1000
0000
0000
0001
0000
0000
1000
0000
0000
0000
0010
0000
0200
0000
0000
0000
,
0001
0000
0001
0000
0301
0000
1000
0001
,
0100
0000
0010
1000
0000
0010
1000
0000
0100
0000
0010
0000
0001
0000
1000
0000
,
0000
0000
0010
0000
0000
1000
0000
0000
0100
0000
0000
1000
0001
0000
0100
0000
,
0010
0000
0000
0100
0000
0000
0001
0000
0000
0000
1000
0000
0200
0000
0000
0000
,
0310
0000
0001
0000
0000
0100
0000
0000
0001
0000
0000
1000
0010
0000
0100
0000
,
0001
0000
1000
0100
0000
1000
0100
0000
0010
0000
0001
0000
0100
0000
0001
0000
,
0000
0000
1000
0000
0000
0001
0000
0000
1000
0000
0000
0010
0100
0000
0001
0000
,
1000
0000
0000
0100
0000
0000
0010
0000
0000
0001
0000
0000
0200
0000
0000
0000
,
0310
0000
1000
0000
0000
0001
0000
0000
1000
0000
0100
0000
0010
0000
0001
0000
,
0012
0000
0103
0002
1000
0000
0010
0000
,
0103
0001
0100
0010
1000
0001
1000
0100
,
0020
0000
0031
1000
0100
0000
1200
0000
,
0001
0000
1300
0100
1000
0010
0100
0001
,
0201
0000
0301
2000
0100
0000
0001
0000
,
3010
1000
0010
0100
0001
0010
0100
1000
,
0020
0000
1030
0001
0100
0000
1020
0000
,
0130
0000
0001
0000
0000
1000
0000
0000
0001
0000
0000
0010
0000
0000
0100
0000
,
2000
0000
0000
3002
,
0000
0000
0010
1000
,
0203
0000
0000
0000
,
0000
0000
0000
0300
;

//---------------dance-single - ----------------
#NOTEDATA:;
#CHARTNAME:;
#STEPSTYPE:dance-single;
#DESCRIPTION:;
#CHARTSTYLE:;
#DIFFICULTY:Medium;
#METER:8;
#RADARVALUES:0.287710,0.286373,0.149738,0.149738,0.000000,269.000000,249.000000,20.000000,20.000000,0.000000,0.000000,0.000000,0.000000,0.000000,0.287710,0.286373,0.149738,0.149738,0.000000,269.000000,249.000000,20.000000,20.000000,0.000000,0.000000,0.000000,0.000000,0.000000;
#CREDIT:;
#DISPLAYBPM:115.000000;
#NOTES:
0000
0000
0000
0000
,
0000
0000
0000
0000
,
1000
0000
0000
0001
0000
0100
0000
0000
,
0001
0000
0000
1000
0000
0100
0000
0000
,
0010
0000
0001
0000
0010
0000
0001
0100
,
1000
0010
1000
0001
,
1000
0000
0010
0000
1000
0000
0001
0100
,
0010
0000
0100
0000
0010
0000
0001
1000
,
0100
0000
0001
0000
0010
0000
0100
1000
,
0010
0001
1000
0010
,
1000
0000
0001
0000
0010
0000
0001
0010
,
0100
0000
0010
0000
0100
0000
0001
1000
,
0010
0000
1000
0000
0100
0000
0001
0010
,
0000
0001
2000
0000
0000
0000
3000
0000
,
1000
0000
0001
0000
0010
0000
0100
1000
,
0000
0010
0200
0000
0302
0000
2003
0000
,
3100
0000
0010
0000
0001
0000
1000
0001
,
0000
1000
0020
0000
0000
0000
0030
0000
,
0100
0000
0010
0000
1000
0001
0200
0000
,
0000
0000
0000
0000
0300
0000
0010
1000
,
0010
0000
0100
0000
0001
0010
1000
0000
,
0100
0000
0010
0000
0001
0000
0100
0001
,
1000
0000
0010
0000
1000
0100
0001
0000
,
0010
0000
0001
0000
1000
0000
0001
0100
,
0010
0000
1000
0000
0100
0010
0001
0000
,
0100
0000
0010
0000
0100
0000
0001
1000
,
0100
0000
1000
0000
0010
0100
0001
0000
,
1000
0000
0001
0000
0010
0100
1000
0000
,
1010
0000
0000
0101
0000
0000
0002
0000
,
0010
0000
1000
0000
0103
0001
0100
0000
,
0101
0000
0000
1100
0000
0000
1001
0000
,
0000
0000
0000
0010
1000
0001
1000
0000
,
1100
0000
0000
0011
0000
0000
0200
0000
,
1000
0000
0001
0000
0310
0100
0010
0000
,
1010
0000
0000
0011
0000
0000
0110
0000
,
1000
0000
0001
0000
1000
0000
0100
0010
,
0001
0000
0100
0000
0001
0000
1000
0010
,
0000
0100
0002
0000
0000
0000
0003
0000
,
0010
0000
0001
0000
0100
0000
0001
1000
,
0000
0010
2000
0000
3200
0000
0320
0000
,
0031
0000
0100
0000
0001
0000
1000
0100
,
0000
1000
0020
0000
0000
0000
0030
0000
,
0100
0000
0010
0000
0100
0001
2000
0000
,
0000
0000
0000
0000
3000
0000
1000
0100
,
0010
0000
0001
0000
0100
0001
1000
0000
,
0001
0000
0010
0000
0001
0000
0010
0100
,
1000
0000
0010
0000
1000
0100
0001
0000
,
0010
0000
0001
0000
1000
0000
0001
0100
,
0010
0000
1000
0000
0100
1000
0001
0000
,
0010
0000
0001
0000
0100
0000
0010
1000
,
0001
0000
0010
0000
1000
0100
0010
0000
,
0001
0000
0100
0000
0001
1000
0010
0000
,
1010
0000
0000
1100
0000
0000
2000
0000
,
0001
0000
0010
0000
3001
1000
0001
0000
,
0011
0000
0000
1100
0000
0000
1001
0000
,
0000
0000
0000
0100
0010
0100
0001
0000
,
0011
0000
0000
0101
0000
0000
0020
0000
,
1000
0000
0100
0000
1030
0010
1000
0000
,
1010
0000
0000
0101
0000
0000
0110
0000
,
0100
0001
0010
0100
,
2000
0000
0000
3002
,
0000
0000
2003
0000
,
3200
0000
0000
0000
,
0000
0000
0000
0300
;

//---------------dance-single - ----------------
#NOTEDATA:;
#CHARTNAME:;
#STEPSTYPE:dance-single;
#DESCRIPTION:;
#CHARTSTYLE:;
#DIFFICULTY:Easy;
#METER:5;
#RADARVALUES:0.174337,0.190915,0.000000,0.164711,0.000000,163.000000,163.000000,0.000000,22.000000,0.000000,0.000000,0.000000,0.000000,0.000000,0.174337,0.190915,0.000000,0.164711,0.000000,163.000000,163.000000,0.000000,22.000000,0.000000,0.000000,0.000000,0.000000,0.000000;
#CREDIT:;
#DISPLAYBPM:115.000000;
#NOTES:
// measure 0
0000
0000
0000
0000
,  // measure 1
0000
0000
0000
0000
,  // measure 2
1000
0000
0010
0000
,  // measure 3
0100
0000
0001
0000
,  // measure 4
0010
0001
0010
0100
,  // measure 5
1000
0000
0000
0000
,  // measure 6
0010
1000
0001
1000
,  // measure 7
0100
0100
0100
0000
,  // measure 8
0010
0001
0100
0010
,  // measure 9
1000
0000
0000
0000
,  // measure 10
0100
1000
0001
1000
,  // measure 11
0010
0010
0010
0000
,  // measure 12
1000
0000
0001
0000
,  // measure 13
0100
0010
1000
0000
,  // measure 14
0001
0000
0010
0000
,  // measure 15
1000
0100
1000
0001
,  // measure 16
0100
0000
0010
0000
,  // measure 17
1000
0001
1000
0000
,  // measure 18
0010
0010
2000
0002
,  // measure 19
0000
0000
3003
0100
,  // measure 20
0010
1000
0001
0001
,  // measure 21
0000
0010
0000
0100
,  // measure 22
1000
0010
1000
0001
,  // measure 23
0000
0100
0000
0010
,  // measure 24
0100
0100
0001
1000
,  // measure 25
0000
0100
0000
0010
,  // measure 26
0100
0010
0001
1000
,  // measure 27
0000
0000
0001
1000
,  // measure 28
0020
0000
0230
0000
,  // measure 29
0302
0000
1003
0100
,  // measure 30
1000
0010
1000
0002
,  // measure 31
0000
0000
0013
0100
,  // measure 32
2000
0000
3020
0000
,  // measure 33
0230
0000
0301
1000
,  // measure 34
0001
0010
0100
2000
,  // measure 35
0000
0000
0000
3000
,  // measure 36
0010
0000
1000
0000
,  // measure 37
0001
1000
0000
0000
,  // measure 38
0001
0000
0100
0000
,  // measure 39
1000
0010
0100
0001
,  // measure 40
0010
0000
0100
0000
,  // measure 41
1000
0010
1000
0000
,  // measure 42
0001
1000
0020
0200
,  // measure 43
0000
0000
0330
0010
,  // measure 44
1000
1000
0001
0001
,  // measure 45
0000
0010
0000
0100
,  // measure 46
1000
0010
0100
0001
,  // measure 47
0000
0010
0000
0001
,  // measure 48
1000
0001
1000
0100
,  // measure 49
0000
0010
0000
0010
,  // measure 50
0001
0100
0010
1000
,  // measure 51
0000
0000
0010
0100
,  // measure 52
0002
0000
2003
0000
,  // measure 53
3100
1000
0010
0100
,  // measure 54
0002
0000
0013
0100
,  // measure 55
2000
0000
3010
0100
,  // measure 56
0020
0000
2030
0000
,  // measure 57
3001
0010
0001
0100
,  // measure 58
0020
0000
1030
0001
,  // measure 59
1000
0000
0010
0000
,  // measure 60
2000
0000
0000
3002
,  // measure 61
0000
0000
0000
0000
,  // measure 62
0203
0000
0000
0000
,  // measure 63
0000
0000
0000
0300
;

//---------------dance-single - ----------------
#NOTEDATA:;
#CHARTNAME:;
#STEPSTYPE:dance-single;
#DESCRIPTION:;
#CHARTSTYLE:;
#DIFFICULTY:Beginner;
#METER:2;
#RADARVALUES:0.098399,0.143187,0.000000,0.074869,0.000000,92.000000,92.000000,0.000000,10.000000,0.000000,0.000000,0.000000,0.000000,0.000000,0.098399,0.143187,0.000000,0.074869,0.000000,92.000000,92.000000,0.000000,10.000000,0.000000,0.000000,0.000000,0.000000,0.000000;
#CREDIT:;
#DISPLAYBPM:115.000000;
#NOTES:
0000
0000
0000
0000
,
0000
0000
0000
0000
,
1000
0000
0000
0000
,
0001
0000
0000
0000
,
0010
0000
0001
0000
,
0100
0000
0000
0000
,
0010
0000
1000
0000
,
0100
0000
0010
0000
,
0001
0000
1000
0000
,
0001
0000
0000
0000
,
0100
0000
0010
0000
,
1000
0000
0001
0000
,
1000
0000
0100
0000
,
1000
0000
0000
0000
,
0001
0000
0001
0000
,
1000
0000
0100
0000
,
0010
0000
0010
0000
,
0001
0000
0000
0000
,
0100
0000
0010
0000
,
1000
0000
0000
0000
,
0001
0001
0001
0001
,
0000
0000
0000
0000
,
0100
0100
0100
0100
,
0000
0000
0000
0000
,
0010
0010
0010
0010
,
0000
0000
0000
0000
,
1000
1000
1000
1000
,
0000
0000
0010
0000
,
0200
0000
0000
0000
,
0300
0000
0010
0000
,
2000
0000
0000
0000
,
3000
0000
1000
0000
,
0002
0000
0000
0000
,
0003
0000
0100
0000
,
0020
0000
0000
0000
,
0030
0000
0000
0000
,
1000
0000
1000
0000
,
0001
0000
0000
0000
,
0010
0000
0100
0000
,
1000
0000
1000
0000
,
0001
0000
1000
0000
,
0010
0000
0000
0000
,
0100
0000
0010
0000
,
0100
0000
0000
0000
,
0001
0001
0001
0001
,
0000
0000
0000
0000
,
0100
0100
0100
0100
,
0000
0000
0000
0000
,
0010
0010
0010
0010
,
0000
0000
0000
0000
,
1000
1000
1000
1000
,
0000
0000
0100
0000
,
0020
0000
0000
0000
,
0030
0000
0100
0000
,
2000
0000
0000
0000
,
3000
0000
0010
0000
,
0200
0000
0000
0000
,
0300
0000
0001
0000
,
0002
0000
0000
0000
,
0003
0000
0000
0000
,
2000
0000
0000
0000
,
3000
0000
0000
0000
,
0200
0000
0000
0000
,
0000
0000
0000
0300
;
