#TITLE:IRRESISTIBLEMENT;
#ARTIST:WILDSIDE;
#BANNER:IRRESISTIBLEMENT-bn.png;
#BACKGROUND:IRRESISTIBLEMENT-bg.png;
#JACKET:IRRESISTIBLEMENT-jacket.png;
#MUSIC:IRRESISTIBLEMENT.ogg;
#SAMPLESTART:11.56;
#SAMPLELENGTH:20;
#DISPLAYBPM:166;
#BPMS:0=166.006;
#BGCHANGES:0=IRRESISTIBLEMENT.mp4=1=0=0=0,
;

//---------------dance-single - ----------------
#NOTES:
     dance-single:
     :
     Beginner:
     3:
     :
0000
0000
0000
0000
,
0000
0000
0000
0000
,
0000
0000
0000
0000
,
0000
0000
0000
0000
,
0000
0000
0000
0000
,
0000
0000
0000
0000
,
1000
0000
0000
0000
,
0001
0000
0000
0000
,
0010
0000
0100
0000
,
1000
0000
0001
0000
,
0000
0000
0010
0000
,
0001
0000
1000
0000
,
0000
0000
0001
0000
,
1000
0000
0000
0000
,
0001
0000
0000
0000
,
1000
0000
0001
0000
,
0010
0000
0100
0000
,
0000
0000
1000
0000
,
0100
0000
0010
0000
,
0000
0000
1000
0000
,
0100
0000
0000
0000
,
0010
0000
0000
0000
,
1000
0000
0000
0000
,
0001
0000
0000
0000
,
0000
0100
0000
0100
,
0000
1000
0000
0000
,
0000
0010
0000
0010
,
0000
0001
0000
0000
,
0000
1000
0000
1000
,
0000
0100
0000
0100
,
0000
0001
0000
0001
,
0000
0010
0000
0010
,
0000
0000
1001
0000
,
0010
0000
0010
0000
,
1000
0000
1000
0000
,
0100
0000
0100
0000
,
0001
0000
0001
0000
,
0010
0000
0010
0000
,
0001
0000
0000
0000
,
0100
0000
0000
0000
,
1000
0000
1000
0000
,
0001
0000
0001
0000
,
1000
0000
1000
0000
,
0001
0000
0001
0000
,
0100
0000
0100
0000
,
1000
0000
0000
0000
,
0010
0000
0000
0000
,
0001
0000
0001
0000
,
1000
0000
0001
0000
,
1000
0000
1000
0000
,
0001
0000
1000
0000
,
0100
0000
0010
0000
,
1000
0000
0000
0000
,
0001
0000
0000
0000
,
0010
0000
0010
0000
,
0100
0000
0010
0000
,
0100
0000
0100
0000
,
0010
0000
0100
0000
,
1000
0000
0001
0000
,
0010
0000
0000
0000
,
0100
0000
0000
0000
,
1001
0000
0000
0000
,
0000
0000
0000
0000
;

//---------------dance-single - ----------------
#NOTES:
     dance-single:
     :
     Easy:
     5:
     :
0000
0000
0000
0000
,
0000
0000
0000
0000
,
0000
0000
0000
0000
,
0000
0000
0000
0000
,
0000
0000
0000
0000
,
0000
0000
0000
0000
,
1000
1000
0000
0000
,
0001
0001
0000
0000
,
0010
0000
0100
0000
,
1000
1000
0001
0001
,
0100
0000
0010
0000
,
0001
0001
1000
1000
,
0001
0000
0001
0000
,
2000
0000
3000
0000
,
0002
0000
0003
0000
,
1000
0000
0001
0000
,
0010
0010
0100
0100
,
0001
0000
1000
0000
,
0100
0100
0010
0010
,
1000
0000
1000
0000
,
0200
0000
0300
0000
,
0020
0000
0030
0000
,
2000
0000
3000
0000
,
0002
0000
0003
0000
,
0000
0100
0000
0100
,
0001
1000
0100
0000
,
0000
0010
0000
0010
,
1000
0001
0010
0000
,
0000
1000
0000
1000
,
0001
0100
0001
0100
,
0000
0001
0000
0001
,
1000
0010
1000
0010
,
1001
0000
1001
0000
,
0010
0010
0100
0000
,
1000
0001
1000
0001
,
0100
0100
0010
0000
,
0001
1000
0001
1000
,
0010
0000
0010
0000
,
0002
0000
0003
0000
,
0200
0000
0300
0000
,
0001
0001
1000
0000
,
0001
0100
0001
0100
,
1000
1000
0010
0000
,
0001
0010
0001
0010
,
0100
0000
0100
0000
,
2000
0000
3000
0000
,
0020
0000
0030
0000
,
0001
0000
0001
0000
,
1000
0010
0001
0010
,
1000
0000
1000
0000
,
0001
0010
1000
0010
,
0100
0000
0010
0000
,
1000
1000
0000
0000
,
0001
0001
0000
0000
,
0010
0000
0010
0000
,
0100
1000
0010
1000
,
0100
0000
0100
0000
,
0010
0001
0100
0001
,
1000
0000
0001
0000
,
0010
0010
0000
0000
,
0100
0100
0000
0000
,
1001
0000
0000
0000
,
0000
0000
0000
0000
;

//---------------dance-single - ----------------
#NOTES:
     dance-single:
     :
     Medium:
     8:
     :
0000
0000
0000
0000
,
0000
0000
0000
0000
,
0000
0000
0000
0000
,
0000
0000
0000
0000
,
0000
0000
0000
0000
,
0000
0000
0000
0000
,
1000
1000
0000
1001
,
0001
0001
0000
1001
,
0001
0010
1000
0010
,
0001
1000
1100
0000
,
0100
1001
0010
1001
,
0001
0010
0100
1000
,
0100
0010
0110
0000
,
0001
1000
0010
1000
0000
0000
0100
0000
,
1000
0001
0010
0001
0000
0000
0100
0000
,
1000
0100
0001
0100
,
1000
0001
0011
0000
,
0010
1001
0100
1001
,
1000
0100
0010
0001
,
0100
0010
0110
0000
,
0010
0100
0010
0100
0000
0000
1000
0000
,
0001
1000
0001
1000
0000
0000
0010
0000
,
0100
0010
0100
0010
0000
0000
0001
0000
,
1000
0001
1000
0001
0000
0000
0100
0000
,
0000
0001
0000
0010
0000
1000
0000
0010
,
1000
1001
0101
0000
,
0000
1000
0000
0010
0000
0001
0000
0010
,
0001
1001
1100
0000
,
0000
0100
0000
0001
0000
0010
0000
1000
,
0001
0110
1001
0000
,
0000
0100
0000
1000
0000
0010
0000
0001
,
2000
0000
0002
3003
,
0100
0010
1000
0001
,
0001
0100
1000
0100
,
0001
0000
1000
0010
1000
0000
0000
0000
,
0010
1001
0100
1001
,
0001
0100
0010
1000
,
0010
1000
1001
0000
,
0001
1000
0100
0010
0000
0000
0001
0000
,
1000
0001
0010
0100
0000
0000
1000
0000
,
1000
0010
0001
0010
,
1000
0000
0001
0100
0001
0000
0000
0000
,
0100
1001
0010
1001
,
1000
0010
0100
0001
,
0100
0001
1001
0000
,
0001
1000
0010
0100
0000
0000
0001
0000
,
1000
0001
0010
0100
0000
0000
1000
0000
,
0001
0101
1000
1100
,
0010
0100
0110
0000
,
1000
0001
0010
0001
,
0010
0100
1000
0000
0001
0000
0100
0000
,
0010
1000
0100
0000
,
1000
0100
1000
0010
0000
0000
1001
0000
,
0001
0100
0001
0010
0000
0000
1001
0000
,
1000
1010
0001
0011
,
1000
0001
1001
0000
,
0010
0100
0001
1000
,
0010
0100
0001
0000
1000
0000
0100
0000
,
0010
0001
0100
0000
,
0010
1000
0010
0100
0000
0000
0110
0000
,
0100
0001
0100
0010
0000
0000
0110
0000
,
0200
0000
0000
0000
,
0300
0000
0000
0000
,
0000
0000
0000
0000
;

//---------------dance-single - ----------------
#NOTES:
     dance-single:
     :
     Hard:
     12:
     :
0000
0000
0000
0000
,
0000
0000
0000
0000
,
0000
0000
0000
0000
,
0000
0000
0000
0000
,
0000
0000
0000
0000
,
0000
0000
0000
0000
,
1000
0001
0100
0010
0000
0001
1000
0000
,
0001
1000
0010
0100
0000
1000
0001
0000
,
1000
0000
0010
0000
1001
0000
0001
1000
,
0000
0100
0000
0010
1010
0000
1000
0000
,
0001
0000
0010
0000
1001
0000
1000
0001
,
0010
0000
0100
0000
1100
0000
1000
1000
,
0001
0000
1100
0000
1000
0000
0001
0100
,
0001
0100
0001
0101
0000
0010
1000
0100
,
1000
0100
1000
1100
0000
0010
0100
0100
,
1000
0000
0100
0000
1001
0000
0001
1000
,
0000
0010
0000
0100
1100
0000
1000
0000
,
0001
0000
0100
0000
1001
0000
1000
0001
,
0100
0000
0010
0000
1010
0000
1000
1000
,
0001
0000
1010
0000
1000
0000
0001
0010
,
0001
0010
0001
0011
0000
0100
0010
0010
,
1000
0010
1000
1010
0000
0100
0010
0010
,
1000
0001
0100
0101
0000
0001
1000
0010
,
0100
0001
1000
1001
0000
0010
1000
0100
,
1000
0100
0001
0100
1000
0010
0100
0000
,
0001
0100
0000
0000
0001
0100
0000
0000
0001
1000
0000
0000
0001
0000
0100
0000
,
0001
0100
1000
0100
0001
0010
0100
0000
,
1000
0100
0000
0000
1000
0100
0000
0000
1000
0001
0000
0000
1000
0000
0100
0000
,
1000
0010
0100
0001
1000
0100
0010
0001
,
1000
0010
0000
0000
1000
0001
0000
0000
1000
0100
0000
0000
1000
0000
0100
0000
,
0001
0010
0100
1000
0001
0100
0010
1000
,
0001
0010
0000
0000
0001
1000
0000
0000
0001
0100
0000
0000
0001
1000
0000
0000
,
0002
1003
2000
3001
,
1010
0000
0100
0000
0101
0000
0001
1000
,
0000
1001
0000
0100
0101
0000
1000
0000
,
0011
0000
0100
0000
1100
0000
1000
0001
,
1000
0000
0101
0000
0001
0000
1100
1000
,
0100
0010
1000
0010
0100
0010
0001
0100
,
1000
0100
0010
0100
0000
1010
0010
1000
,
0100
1000
0001
1000
0000
1000
1001
0000
,
0110
0000
1000
0000
0110
0000
0001
1000
,
0000
1001
0000
1010
0010
0000
1000
0000
,
0110
0000
0001
0000
0110
0000
1000
0001
,
1000
0000
0011
0000
0001
0000
1010
1000
,
0010
0000
1001
0000
0100
0000
1001
1000
,
0001
1000
0010
0100
0000
1010
0010
0010
,
1000
0001
0100
0010
0000
1100
0100
0100
,
1000
0010
0100
0001
1000
0001
1000
0001
,
0100
0010
1000
0001
0010
0100
0010
0100
,
0010
0001
1000
0010
0100
0001
0100
0001
,
0010
0001
1000
0100
1000
0010
1000
0010
,
0001
1000
0010
0100
0010
1000
0001
0100
,
0001
1000
0001
0100
0000
0110
0010
0010
,
1000
0010
1000
0001
0000
0110
0100
0100
,
0001
0100
0010
1000
0001
1000
0001
1000
,
0010
0100
0001
1000
0100
0010
0100
0010
,
0100
1000
0001
0100
0010
1000
0010
1000
,
0100
1000
0001
0010
0001
0100
0001
0100
,
1000
0001
0100
0010
0100
0001
1000
0010
,
1000
0001
1000
0010
0000
0110
0100
0100
,
0001
0100
0001
1000
0000
0110
0010
0010
,
0200
0000
0000
0000
,
0300
0000
0000
0000
,
0000
0000
0000
0000
;

//---------------dance-single - ----------------
#NOTES:
     dance-single:
     :
     Challenge:
     17:
     :
0000
0000
0000
0000
,
0000
0000
0000
0000
,
0000
0000
0000
0000
,
0000
0000
0000
0000
,
0000
0000
0000
0000
,
0000
0000
0000
0000
,
0011
0000
0100
0000
1000
0000
2100
0000
0000
0000
0001
0000
3001
0100
0010
0000
,
1010
0000
0001
0000
1000
0000
0201
0000
0000
0000
0310
0100
0010
1000
0001
0000
,
1010
0000
0000
0100
0001
0000
0000
0010
0100
0000
0000
1000
0010
0000
0100
0000
,
0001
0000
0010
0100
1000
0000
0001
0000
0200
0000
0000
0000
0310
1000
0001
0000
,
0010
0001
1000
0000
0100
1000
0001
0000
0100
0000
0010
0000
1000
0000
0001
0000
,
0010
0000
1000
0000
0010
0000
0001
0000
0100
0000
0010
1000
0001
0000
0010
0000
,
0100
0000
1000
0000
0010
0000
0100
0000
0001
0010
0100
0010
0001
0000
1000
0000
,
0101
0000
0010
0000
1000
0000
1200
0000
0000
0000
0310
0100
1000
0001
0100
0000
,
0110
0110
1001
1010
0000
1100
0110
0011
,
1001
0000
0010
1000
0100
0000
0010
0001
0100
0000
0001
1000
0010
0000
0100
0000
,
0001
0000
0010
0000
1000
0000
0100
0000
0020
0000
0000
0000
0031
1000
0001
0000
,
1000
0100
1000
0000
0100
0010
0100
0000
0010
0001
0010
0000
0001
1000
0100
0000
,
1000
0010
0100
0000
0001
1000
0100
0000
0010
0000
0001
0100
0010
0000
1000
0000
,
0100
0000
0001
0000
0100
0000
1000
0000
0010
0100
0001
1000
0100
0000
0010
0000
,
0011
0000
0100
1000
0001
0000
0201
0000
0000
0000
0010
0000
0310
1000
0100
0000
,
0110
0000
0001
0010
0100
0000
2100
0000
0000
0000
0001
0000
3001
1000
0010
0000
,
0100
0001
0100
0010
1000
0000
2010
0000
0000
0000
0001
0000
0001
0000
3001
0000
,
1000
0100
0010
0001
0010
0100
2000
0000
0010
0000
0010
0000
3010
0100
0001
1000
,
0100
0010
0001
0100
1000
0010
0001
1000
,
0100
0010
0001
0000
0100
0010
1000
0000
0001
0100
0010
1000
0001
1000
0100
0000
,
0010
0001
0100
1000
0001
1000
0100
0010
,
0001
1000
0010
0000
1000
0100
0010
0000
0100
0010
0001
0100
0010
1000
0001
0000
,
0110
1000
0100
0001
0010
0100
0010
0001
,
1000
0010
1000
0000
0100
0010
0001
0000
0100
0010
1000
0001
0010
0100
1000
0000
,
0001
0010
1000
0100
0010
0100
1000
0001
,
0100
0000
0010
1000
0001
0000
0010
0001
0100
0000
0001
0010
0100
0000
1000
0100
,
0010
0000
0001
1000
0001
0000
1000
0001
1000
0000
0100
0010
0001
0000
0100
0010
,
1000
0000
0000
0001
0010
0000
0000
0001
0100
0000
0000
0010
1000
0000
0001
0000
,
1000
0100
1000
0000
0010
0000
0100
0000
0001
0010
0001
0000
0010
0100
1000
0000
,
0001
0100
0001
0000
0010
0100
0010
0000
0100
1000
0100
0000
1000
0000
0001
1000
,
0100
0000
0010
0001
0100
0000
0001
0010
0100
0000
1000
0001
1000
0000
0010
0000
,
0100
0000
0001
0010
0001
0010
0100
1000
0001
0000
0100
0010
1000
0000
0001
0000
,
1010
0000
1000
0100
0010
0000
0012
0000
0000
0103
0001
0100
0010
1000
0100
0000
,
0110
0000
0001
0100
0010
0000
1010
0000
0100
1000
0100
1000
0001
0000
0000
0000
,
1001
0000
0010
1000
0001
0000
1000
0100
0010
0000
0100
0010
0001
0000
1000
0000
,
0001
0000
0100
0010
1000
0000
0100
0000
1000
0100
0010
0000
0100
0010
0001
0000
,
0100
0010
0100
0000
0010
0100
0010
0000
0001
0100
0010
0000
1000
0100
1000
0100
,
0010
0000
0001
1000
0010
0000
1000
0100
0010
0000
0001
0100
0010
0000
1000
0000
,
0001
0010
0001
0000
1000
0010
1000
0000
0100
0010
0001
0100
0010
0000
1000
0000
,
0101
0000
0010
0000
1000
0000
2100
0000
0000
3001
0010
0001
0010
0100
1000
0000
,
0010
1000
0010
0100
0001
1000
0200
0000
0310
0001
0010
0100
1000
0001
0100
0000
,
0001
0010
0001
0000
0010
0001
0010
0000
0001
0010
0001
0000
0010
0001
0010
0000
,
0100
1000
0100
0000
1000
0100
1000
0000
0010
1000
0010
0000
1000
0010
1000
0000
,
0001
0100
0001
0000
0100
0001
0100
0000
0001
0010
0001
0100
0001
1000
0001
0000
,
1000
0100
1000
0000
0100
1000
0100
0000
1000
0010
0100
0000
0001
0010
0100
0000
,
1000
0010
1000
0010
1000
0100
0010
0000
0001
1000
0001
0000
0100
0010
1000
0000
,
0110
0000
0001
0000
0100
0000
1002
0000
0000
0000
0010
0000
0013
0001
1000
0000
,
1100
0000
0100
0000
0010
0000
0012
0000
0000
0000
1000
0000
1003
0001
0100
0000
,
0010
1000
0010
0000
1000
0010
1000
0000
0010
1000
0010
0000
1000
0010
1000
0000
,
0100
0010
0100
0000
1000
0001
1000
0000
0010
0100
0010
0000
1000
0001
1000
0000
,
0001
0010
0100
0000
1000
0100
0010
0001
0100
0010
1000
0000
0001
1000
0100
0000
,
0010
0001
0010
0100
1000
0010
1000
0000
0001
0100
0010
0000
1000
0001
0100
0000
,
0001
0010
0100
0010
0100
0010
0001
0000
1000
0100
1000
0010
0100
0001
1000
0000
,
0010
1000
0100
1000
0100
0010
0002
0000
0000
0000
1003
0010
1000
0000
0001
0100
,
0001
0000
0010
0100
1000
0000
0020
0000
0000
0000
0100
0000
0130
0010
1000
0001
,
0020
0100
1000
0000
0001
0000
0130
0000
,
0020
0000
0000
0030
;

//---------------dance-double - ----------------
#NOTES:
     dance-double:
     :
     Easy:
     4:
     :
00000000
00000000
00000000
00000000
,
00000000
00000000
00000000
00000000
,
00000000
00000000
00000000
00000000
,
00000000
00000000
00000000
00000000
,
00000000
00000000
00000000
00000000
,
00000000
00000000
00000000
00000000
,
10000000
10000000
00000000
00000000
,
00100000
00100000
00000000
00000000
,
01000000
00000000
00001000
00000000
,
00010000
00000000
00010000
00000000
,
00000100
00000000
00010000
00000000
,
00000100
00000000
00001000
00000000
,
00000010
00000000
00000001
00000000
,
00000100
00000100
00000000
00000000
,
00001000
00001000
00000000
00000000
,
00000010
00000000
00010000
00000000
,
00001000
00000000
00001000
00000000
,
00100000
00000000
00001000
00000000
,
00100000
00000000
00010000
00000000
,
01000000
00000000
10000000
00000000
,
00100000
00100000
00000000
00000000
,
00010000
00010000
00000000
00000000
,
00002000
00000000
00003000
00000000
,
00020000
00000000
00030000
00000000
,
00000000
01000000
00000000
01000000
,
00000000
10000000
01000000
00000000
,
00000000
00100000
00000000
00100000
,
00000000
00001000
00011000
00000000
,
00000000
00000100
00000000
00000100
,
00000000
00000001
00000100
00000000
,
00000000
00000010
00000000
00000010
,
00000000
00010000
00011000
00000000
,
00200000
00000000
00300000
00000000
,
00010000
00000000
10000000
00000000
,
01000000
00000000
00100000
00000000
,
00001000
00000000
00010000
00000000
,
00000100
00000000
00001000
00000000
,
00000001
00001000
00000100
00000000
,
00000010
00000010
00000000
00000000
,
00000100
00000100
00000000
00000000
,
00001000
00000000
00000001
00000000
,
00000100
00000000
00000010
00000000
,
00010000
00000000
00001000
00000000
,
01000000
00000000
00010000
00000000
,
10000000
00010000
01000000
00000000
,
00100000
00100000
00000000
00000000
,
01000000
01000000
00000000
00000000
,
00010000
00000000
00010000
00000000
,
10000000
00000000
00010000
00000000
,
10000000
00000000
10010000
00000000
,
01000000
00000000
00100000
00000000
,
00001000
00000000
00010000
00000000
,
00000100
00000100
00000000
00000000
,
00000010
00000010
00000000
00000000
,
00001000
00000000
00001000
00000000
,
00000001
00000000
00001000
00000000
,
00000001
00000000
00001001
00000000
,
00000100
00000000
00000010
00000000
,
00010000
00000000
00001000
00000000
,
00010000
00010000
00000000
00000000
,
00001000
00001000
00000000
00000000
,
00011000
00000000
00000000
00000000
,
00000000
00000000
00000000
00000000
;

//---------------dance-double - ----------------
#NOTES:
     dance-double:
     :
     Medium:
     8:
     :
00000000
00000000
00000000
00000000
,
00000000
00000000
00000000
00000000
,
00000000
00000000
00000000
00000000
,
00000000
00000000
00000000
00000000
,
00000000
00000000
00000000
00000000
,
00000000
00000000
00000000
00000000
,
00001000
00001000
00000000
01000000
,
00010000
00010000
00000000
00000100
,
00001000
00000100
00000001
00000100
,
00000010
00010000
00001000
00100000
,
00010000
01000000
10000000
01000000
,
00100000
00001000
00010000
00000010
,
00001010
00001010
00010000
00000000
,
00001000
00010000
00001000
01000000
00000000
00000000
00010000
00000000
,
00010000
00001000
00010000
00000100
00000000
00000000
00001000
00000000
,
00000100
00000010
00000001
00000001
,
00000100
00000010
00001000
00010000
,
01000000
00100000
10000000
10000000
,
01000000
00100000
00010000
00001000
,
00001100
00001100
00000010
00000000
,
00000001
00001000
00000001
00001000
00000000
00000000
00000100
00000000
,
00010000
00001000
00010000
00001000
00000000
00000000
00100000
00000000
,
01000000
00100000
01000000
00100000
00000000
00000000
00010000
00000000
,
01000000
00100000
01000000
00100000
00000000
00000000
10000000
00000000
,
00000000
10000000
00000000
00010000
00000000
01000000
00000000
00001000
,
00010000
00011000
00001010
00000000
,
00000000
00000001
00000000
00001000
00000000
00000100
00000000
00010000
,
00001000
00011000
00110000
00000000
,
00000000
10000000
00000000
01000000
00000000
00010000
00000000
01000000
,
00010000
00011000
00001100
00000000
,
00000000
00000001
00000000
00000100
00000000
00001000
00000000
00000100
,
00020000
00000000
00002000
00033000
,
00011000
00110000
00011000
00001010
,
00000100
00000001
00000010
00001000
,
00010000
00100000
11000000
00000000
,
00010000
00001000
00000100
00001000
,
00000010
00010000
00001000
00010000
,
00100000
00011000
00000010
00011000
,
01000000
00010000
10000000
00010000
00000000
00000000
01000000
00000000
,
00100000
00001000
00100000
00001000
00000000
00000000
00110000
00000000
,
01000000
10000000
00100000
00010000
,
00001000
00000010
00000101
00000000
,
00001000
00010000
01000000
00010000
,
00100000
00001000
00010000
00001000
,
00000100
00011000
01000000
00011000
,
00000100
00001000
00000001
00001000
00000000
00000000
00000100
00000000
,
00000010
00010000
00000010
00010000
00000000
00000000
00001010
00000000
,
00000001
00000010
00000100
00001100
,
00010000
00001000
00011000
00000000
,
01000000
00010000
10000000
10100000
,
10000000
00010000
01000000
00000000
00010000
00000000
00001000
00000000
,
00000010
00001000
00000100
00001001
,
00000100
00010000
00001000
00010000
00000000
00000000
00011000
00000000
,
00001000
00100000
00010000
10000000
00000000
00000000
10010000
00000000
,
10000000
00100000
01000000
01010000
,
00001000
00010000
00011000
00000000
,
00000100
00001000
00000001
00000011
,
00000001
00001000
00000100
00000000
00001000
00000000
00010000
00000000
,
00100000
00010000
01000000
10010000
,
01000000
00001000
00010000
00001000
00000000
00010000
00000100
00010000
,
00000010
00001000
00000001
00000100
00000000
00000010
00001000
00000001
,
00002000
00000000
00000000
00000000
,
00003000
00000000
00000000
00000000
,
00000000
00000000
00000000
00000000
;

//---------------dance-double - ----------------
#NOTES:
     dance-double:
     :
     Hard:
     12:
     :
00000000
00000000
00000000
00000000
,
00000000
00000000
00000000
00000000
,
00000000
00000000
00000000
00000000
,
00000000
00000000
00000000
00000000
,
00000000
00000000
00000000
00000000
,
00000000
00000000
00000000
00000000
,
00010000
00001000
00010000
00000100
00000000
00010000
00001000
00000000
,
00001000
00010000
00001000
01000000
00000000
00001000
00010000
00000000
,
00000100
00000000
00000010
00000000
00000001
00000000
00001000
00000100
,
00000000
00000001
00000000
00000100
00000100
00000000
00001001
00000000
,
00000010
00000000
00001001
00000000
00000100
00000010
00000100
00000000
,
00010100
00000000
00011000
00000000
00110000
00000000
10000000
10000000
,
00010000
11000000
10000000
00110000
,
00010000
00100000
00001000
00010000
00000000
00000010
00000100
00000100
,
00001000
00000010
00010000
00001000
00000000
00100000
01000000
01000000
,
01000000
00000000
00100000
00000000
00010000
00000000
10000000
01000000
,
00000000
00100000
00000000
00001000
00010000
00000000
00110000
00000000
,
00100000
00000000
01100000
00000000
00010000
01000000
00010000
00000000
,
00101000
00000000
00011000
00000000
00001010
00000000
00000001
00000001
,
00001000
00000101
00000001
00001010
,
00001000
00000010
00010000
00001000
00000000
00100000
01000000
01000000
,
10000000
00100000
01000000
00010000
00000000
00001000
00010000
00010000
,
00000010
00000100
00000001
00001000
00000000
00000100
00001000
00001000
,
00010000
00001000
00100000
00010000
00000000
00100000
01000000
01000000
,
00000000
10000000
00010000
01000000
00100000
10000000
00010000
00000000
,
00110000
00011000
00001100
00000010
,
00000000
00000001
00001000
00000010
00000100
00000001
00001000
00000000
,
00001010
00011000
01010000
00100000
,
00000000
01000000
10000000
00010000
01000000
00100000
10000000
00000000
,
01100000
00011000
00000110
00000010
,
00000000
00000010
00000001
00001000
00000010
00000100
00000001
00000100
,
00002000
00000100
00010000
00000100
,
00023000
02030000
23000000
30010000
,
10000000
00000000
01000000
00000000
00110000
00000000
01010000
10000000
,
00000000
10010000
00000000
01000000
01000000
00000000
00011000
00000000
,
00001100
00000000
00000101
00000000
00000110
00000000
00000010
00001000
,
00010000
00001100
00010000
00011000
,
00100000
00010000
00100000
01000000
00100000
10000000
00100000
00000000
,
00001000
00010000
00001000
00100000
00000000
01000000
01000000
01000000
,
00010000
00001000
00010000
00000010
00000000
00001000
00001001
00000000
,
00000001
00000000
00000100
00000000
00001010
00000000
00001100
00000001
,
00000000
00001001
00000000
00000100
00000100
00000000
00011000
00000000
,
01010000
00000000
11000000
00000000
01100000
00000000
00100000
00010000
,
00001000
01010000
00001000
00010000
,
00001010
00000000
00000110
00000000
00000101
00000000
00000010
00000100
,
00001000
00000100
00001000
00000010
00000000
00000100
00000100
00000100
,
00001000
00010000
00001000
00100000
00000000
00010000
00010000
00010000
,
10000000
01000000
00100000
00000000
00100000
00010000
00001000
00000000
,
00010000
00000010
00001000
00000001
00000100
00000010
00001000
00000000
,
00000100
00001000
00000100
00000000
00010000
00001000
00010000
00000000
,
00100000
10000000
00010000
01000000
00001000
00100000
00110000
00000000
,
10000000
00010000
00100000
01000000
00100000
00010000
10000000
00000000
,
00010000
10000000
00010000
01000000
00000000
01000000
01010000
00000000
,
00001000
00010000
00001000
00000010
00000000
00000010
00000110
00000000
,
00000001
00000100
00000010
00000000
00000010
00001000
00010000
00000000
,
00001000
00100000
00010000
10000000
01000000
00100000
00010000
00000000
,
01000000
00010000
01000000
00000000
00001000
00010000
00001000
00000000
,
00000010
00000001
00001000
00000100
00010000
00000010
00001010
00000000
,
00000001
00001000
00000010
00000100
00000010
00001000
00000001
00000000
,
00001000
00000001
00001000
00000100
00000000
00000100
00001100
00000000
,
00010000
00001000
00010000
00100000
00000000
00100000
00010000
00200000
,
00020000
00000000
00000000
00000000
,
00330000
00000000
00000000
00000000
,
00000000
00000000
00000000
00000000
;
