#TITLE:INNOVATION;
#ARTIST:Des-ROW;
#BANNER:INNOVATION-bn.png;
#BACKGROUND:INNOVATION-bg.png;
#JACKET:INNOVATION-jacket.png;
#MUSIC:INNOVATION.ogg;
#SAMPLESTART:85.573;
#SAMPLELENGTH:20;
#DISPLAYBPM:160:170;
#BPMS:0=160,32=168,60=170;
#BGCHANGES:;

//---------------dance-single - ----------------
#NOTES:
     dance-single:
     :
     Beginner:
     5:
     :
0000
0000
0000
0000
,
0000
0000
0000
0000
,
0000
0000
0000
0000
,
0000
0000
0000
0000
,
0001
0000
0000
0000
,
1000
0000
0000
0000
,
0010
0000
0000
0000
,
0100
0000
0000
0000
,
1001
0000
0000
0000
,
0000
0000
0000
0000
,
0110
0000
0000
0000
,
0000
0000
0000
0000
,
1001
0000
0000
0000
,
0000
0000
0000
0000
,
0110
0000
0000
0000
,
1000
1000
1000
0000
,
0001
0001
0001
0000
,
0100
0100
0000
0010
,
0000
0100
0100
0000
,
0001
0001
0000
1000
,
0000
1001
0000
1001
,
0000
0110
0000
0110
,
0000
1001
0000
0110
,
0000
1000
1000
1000
,
1000
0000
0001
0000
,
0010
0000
0001
0000
,
0100
0000
0010
0000
,
1000
1000
1000
0000
,
0100
0000
0010
0000
,
0001
0000
0100
0000
,
1000
0000
0001
0000
,
0010
0010
0010
0000
,
0001
0001
0001
0000
,
0100
0100
0000
0010
,
0000
0100
0100
0000
,
0001
0001
0000
1000
,
0000
1001
0000
1001
,
0000
0110
0000
0110
,
0000
1001
0000
0110
,
0000
1000
0000
0001
,
0001
0000
0000
0000
,
1000
0000
0000
0000
,
0010
0000
0010
0000
,
0100
0000
0001
0000
,
0010
0010
0000
0000
,
0001
1000
0001
0000
,
0100
0000
0010
0000
,
1000
0001
1000
0001
,
0100
0100
0000
0000
,
0010
1000
0010
0000
,
1000
1000
0100
0000
,
0001
0001
0100
0000
,
0110
0000
0110
0000
,
0110
0000
0110
0000
,
1001
0000
1001
0000
,
1001
0000
1001
0000
,
1000
0000
0010
0000
,
1000
0000
0010
0000
,
1000
0000
0100
0000
,
0001
0000
0010
0000
,
0001
0000
0100
0000
,
0010
0010
0010
0000
,
1000
0000
0100
0000
,
1000
0010
1000
0000
,
0001
0000
0100
0000
,
1000
1000
1000
0000
,
0010
0000
1000
0000
,
0001
0001
1000
1000
,
0010
0000
0100
0000
,
0010
0000
1000
0000
,
0100
0000
1000
0000
,
0001
0001
0010
0000
,
0001
0000
0100
0000
,
1000
0000
0010
0000
,
1000
1000
0001
0001
,
0010
0001
0100
0000
,
1000
0000
0001
0000
;

//---------------dance-single - ----------------
#NOTES:
     dance-single:
     :
     Easy:
     8:
     :
0000
0000
0000
0000
,
0000
0000
0000
0000
,
0000
0000
0000
0000
,
0000
0000
0000
0000
,
0001
0000
0000
0001
0000
0000
0000
0000
,
1000
0000
0000
1000
0000
0000
0000
0000
,
0010
0000
0000
0010
0000
0000
0000
0000
,
0100
0000
0000
0100
0000
0000
0000
0000
,
1001
0000
0000
1000
0000
0001
0000
0000
,
0110
0000
0000
0100
0000
0010
0000
0000
,
1010
0000
0000
1000
0000
0010
0000
0000
,
0101
0000
0000
0001
0000
0100
0000
0000
,
0011
0000
0000
0010
0000
0001
0000
0000
,
1100
0000
0000
0100
0000
1000
0000
0000
,
0010
1000
0100
0001
,
2000
0000
3002
0000
1003
0001
0000
1001
,
0000
0010
0001
0100
,
1100
0000
1100
0000
0000
0001
1000
0001
,
0000
0110
0001
0100
,
1100
0000
1100
0000
0000
0001
1000
0001
,
0000
0110
1000
1001
,
0001
0011
1000
1010
,
0010
0000
0110
0000
1000
0001
0100
0000
,
1001
0000
0001
0100
0001
0000
1000
0100
,
1000
0010
0100
0001
,
0010
0100
1000
0000
,
0001
0010
0001
1000
,
0010
0100
0001
0000
,
0010
0001
0100
1000
,
0010
1000
0001
0000
,
1000
0010
1000
0100
,
0001
0000
0001
0000
0001
0000
0000
1001
,
0000
0010
0001
1000
,
0101
0000
0101
0000
0000
1000
0001
1000
,
0000
0000
1010
0000
0100
0001
0000
0000
,
0010
0000
0010
0001
0000
0001
1000
0001
,
0000
0110
0001
0011
,
1000
1100
0010
0101
,
1000
0000
0100
0000
0010
0002
0000
0000
,
1003
0010
1000
0010
0000
0100
0001
0100
,
0001
0000
1000
0100
,
1000
0000
0000
0000
0010
0100
0010
0000
,
1001
0000
0000
0110
0000
0000
1001
0000
,
0000
0000
1000
0001
0100
0000
0010
1000
,
0002
2000
0000
3003
,
0010
0000
0010
0000
1000
0100
0001
0000
,
0010
0000
0001
0000
0100
0000
1000
0001
,
1000
0000
0010
0000
1000
0001
0100
0000
,
0020
0200
0000
0330
,
0001
1000
0000
0010
0000
0000
0101
0000
,
1000
0010
1000
0001
,
0010
0000
0001
0000
1000
0100
1000
0000
,
0101
0101
1100
1100
,
0101
1100
0101
0000
,
0011
1001
1100
0000
,
1010
0110
0101
0000
,
0001
0010
1000
1001
,
0010
0000
1000
0000
0100
1000
0001
0000
,
0011
0100
1010
0100
,
0001
1000
0000
0010
0000
1000
0000
0001
,
0100
0010
1000
0010
,
1000
0100
0001
0010
,
0001
0100
0010
0100
,
0001
0010
1000
0110
,
1001
0010
1000
0010
,
1000
0100
1000
0001
,
0010
0001
0010
0100
,
1000
0000
0010
0000
1000
0001
1000
0000
,
0010
0100
0000
0010
0000
1000
0000
0001
,
0000
0010
0000
0001
0000
0100
0000
1000
,
0000
0010
0000
1000
0000
0100
0000
0001
,
0000
1000
0000
0010
0000
0001
0100
0000
,
0010
1000
0100
0001
,
1000
0010
0000
0100
0000
0001
0000
1000
,
0000
0100
0000
0010
0000
0001
0000
1000
,
0000
0010
0000
0010
1000
0001
1000
0001
,
2000
0000
3001
0000
;

//---------------dance-single - ----------------
#NOTES:
     dance-single:
     :
     Medium:
     10:
     :
0000
0000
0000
0000
,
0000
0000
0000
0000
,
0000
0000
0000
0000
,
0000
0000
0000
0000
,
0001
0010
0001
0000
,
0100
0010
0000
1000
0000
0000
0000
0000
,
0100
0000
1000
0000
0001
0000
0000
0020
,
0000
0000
0000
0031
0000
1000
0001
0000
,
1000
0010
0000
0100
0000
0010
1000
0000
,
0001
1000
0000
0100
0000
1000
0001
0000
,
0010
0001
0000
0100
0000
0001
0010
0000
,
0001
1000
0000
0010
0000
1000
0001
0000
,
0100
0010
0000
0100
0000
0010
0100
0000
,
0001
1000
0000
0001
0000
1000
0001
0000
,
0010
0001
0100
1000
,
0001
0100
0001
0100
0010
1000
0000
1001
,
0000
0100
1000
0000
1010
0000
0101
0000
,
1000
0010
1000
0001
0000
0100
0010
2000
,
0000
3001
0010
0000
0011
0000
1100
0000
,
1001
0000
0110
0000
0000
1000
0100
0001
,
0000
0010
0100
0000
1000
0001
0100
0000
,
0001
0010
0001
1000
0000
0010
0100
0000
,
0001
0000
0110
0000
1000
0010
0100
0000
,
0001
0010
0001
1000
0010
0100
0010
1000
,
0001
0000
0020
0000
0230
0000
1300
0001
,
0000
1000
0000
0010
0000
1000
0100
0000
,
1000
0000
0002
0000
0023
0000
0130
1000
,
0001
1000
0100
0000
0010
0001
0100
0000
,
0010
2000
3002
0013
,
0001
1000
0000
0100
0000
1000
0001
0000
,
0010
0000
0002
0000
0203
0000
0310
2000
,
0000
0000
3001
0000
1000
0010
0000
0101
,
0000
1000
0100
0000
1010
0000
0101
0000
,
0010
0001
0100
0000
1000
1000
0000
1010
,
0000
0100
0001
0000
0001
1000
0100
0000
,
0010
0001
0100
0020
0000
1030
0001
1000
,
0001
0000
0011
0000
1000
0010
0100
0000
,
1001
0000
0110
0000
1000
0001
0100
0000
,
0010
1000
0100
0000
1100
0000
0101
0000
,
0010
1000
0010
1000
0000
0001
0100
0001
,
0100
0010
0100
0001
,
0010
0000
0001
0000
0100
0001
1000
0000
,
1100
0000
0000
0110
0000
0000
0011
0000
,
0000
0000
0001
0100
0001
0100
0010
0010
,
1000
0100
0002
0000
0013
0001
0100
0000
,
1000
0010
0000
0100
0000
0002
1000
1003
,
0100
0000
0010
0001
1000
0000
0010
1000
,
0001
0010
0000
1000
0000
0001
0100
0000
,
0010
1000
0200
0000
0001
0000
1300
0000
,
0100
1000
0000
0001
0000
0010
0001
0100
,
1000
0000
0010
1000
0002
0000
0013
0100
,
1000
0010
1000
0010
1000
0001
0100
0000
,
0001
0000
0010
0000
0001
0000
1000
0000
0010
0000
1000
0000
,
0010
0000
0100
0000
0001
0000
1000
0000
0000
1001
0000
0000
,
0100
0000
1000
0000
0001
0000
0010
0000
0000
1001
0000
0000
,
0001
0000
0000
0000
0100
0000
0000
0000
0010
0000
0000
0000
1000
0000
0000
0000
0000
0000
0100
0000
0000
1000
0000
0000
,
0001
0000
0000
0000
0010
0000
0000
0000
0001
0000
0000
0000
0100
0000
0000
0010
0000
0000
1000
0000
0000
0000
0000
0000
,
0100
0000
0000
0000
1000
0000
0000
0000
0001
0000
0000
0000
0010
0000
0000
0001
0000
0000
0100
0000
0000
0000
0000
0000
,
0010
0000
1000
0100
0001
0000
1000
0100
,
0001
0000
0010
0001
0100
0000
0010
1000
,
0001
0000
2000
0000
3020
0000
1030
0001
,
0000
0100
0000
0010
0000
1000
0001
0000
,
0011
0000
0200
0000
2300
0000
3010
0100
,
0001
0000
1010
0000
1000
0100
0001
0000
,
0011
0000
0020
0000
0031
1000
0100
0000
,
1000
0010
0000
0100
0000
0001
1000
0000
,
1100
0000
0002
0000
2003
0000
3010
0200
,
0001
0000
0301
1000
0010
1000
0100
0010
,
0001
0101
0000
1010
0000
1100
0000
0011
,
0000
1001
0000
0011
0000
0110
0000
1100
,
0000
0101
0000
1010
0000
0110
0000
1001
,
0000
1010
0000
0110
0000
1000
0100
0001
,
0010
1001
0110
1000
,
0100
1000
0001
0100
0000
0010
1000
0010
,
1000
0000
0001
0000
0010
0001
0000
0200
,
0010
0000
1000
0000
0301
0001
0100
0010
,
2000
0000
0000
0000
3001
0001
0000
0000
;

//---------------dance-single - ----------------
#NOTES:
     dance-single:
     :
     Hard:
     13:
     :
0000
0000
0000
0000
,
0000
0000
0000
0000
,
0000
0000
0000
0000
,
0000
0000
0000
0000
,
0001
0000
0000
0001
0000
0000
0100
0000
,
1000
0000
0000
1000
0000
0000
0100
0000
,
0001
0000
0000
0001
0000
0000
0010
0000
,
1000
0000
0000
1000
0000
0000
0010
0100
,
0001
1000
0000
0100
0000
1000
0000
0010
,
0000
1000
0000
0100
0000
1000
0001
0000
,
0010
0001
0000
0100
0000
0010
0000
1000
,
0100
1000
0000
0001
0100
0010
0100
0010
,
1000
0100
0000
1000
0000
0010
0000
0100
,
0000
0001
0010
0001
0000
1000
0100
1000
,
0001
0100
1000
0010
,
1000
0001
1000
0001
1000
0000
0010
0000
0100
0000
0100
0000
0001
0000
1001
0000
,
0000
1000
1000
0100
1000
0010
0100
0001
,
0010
0001
0010
0100
0000
1000
1000
1100
,
0000
0001
0100
0001
0010
0100
1000
0001
,
0100
0000
0001
0000
1000
0000
1000
0000
0000
0000
0010
0100
0010
0000
1000
0000
,
0001
0000
0010
0000
2000
0000
0000
0000
3001
0000
1000
0100
2000
0000
0000
0000
,
3010
0100
0001
0010
0001
0100
1000
0000
,
0001
0000
0010
0000
2000
0000
0000
0000
3100
0000
1000
0010
2000
0000
0000
0000
,
3001
0000
0010
0000
0001
1000
0001
1000
0000
0000
0010
0000
1000
0100
1000
0100
,
1000
0000
1100
0000
0101
0000
0010
0001
,
0010
1000
0010
0001
0000
0001
0100
0010
,
1000
0000
1010
0000
0101
0000
0010
1000
,
0100
0000
0010
0000
0001
0000
1000
0000
0001
0100
0001
0000
1000
0000
0010
0000
,
0100
0000
0110
0000
1001
0000
0010
1000
,
0100
0000
0010
0000
0001
0000
0000
0000
1000
0000
0001
0010
0001
0000
0100
0000
,
0010
0000
1000
0010
1000
0100
1000
0000
,
0001
0000
0010
0000
1000
0000
0001
0000
0010
0000
1000
0000
0100
0010
0100
0000
,
0000
1000
1000
0010
1000
0100
0010
0001
,
0100
1000
0100
0001
0000
0010
0001
1001
,
0000
0100
0100
1000
0010
1000
0001
0010
,
0100
1000
0001
0101
0000
0010
0010
0010
,
1000
0100
1000
0100
1000
0000
0000
0000
0001
0100
0001
0100
0001
0000
0000
0000
,
1000
0010
1000
0010
1000
0000
0100
0000
0010
0000
0001
0000
0100
0000
0010
0000
,
1000
0100
0001
0010
0001
1000
0001
0100
,
0010
0000
1000
0000
0010
0000
0100
0000
0000
0000
0001
0000
0100
0000
1000
0001
,
2000
0000
3010
0001
0010
0100
0010
1000
,
0020
0000
0000
0000
0130
0000
0001
0000
1000
0000
0001
0000
0100
0000
0010
1000
,
0020
0100
0130
0002
1000
1003
0002
0100
,
0103
0000
0010
0000
1000
0001
1000
0001
1000
0000
0100
0000
0010
0000
0001
0000
,
0100
0010
2000
0000
3100
1000
0001
0000
,
0010
0001
1000
0010
1000
0100
0001
0010
,
0100
0000
2000
0000
0000
3002
0000
0000
1003
0000
0010
0100
0010
0100
0010
0100
,
0010
0000
0001
0000
0010
0000
1000
0000
0010
0000
0100
0000
0001
1000
0000
1000
,
0100
0000
1000
0000
0001
0100
0000
0000
0010
0000
1000
0000
0001
0010
0000
0000
,
0001
0001
0100
0010
1000
0100
0001
1000
,
0010
0000
1000
0100
1000
0000
0001
0000
0100
0000
0010
0000
1000
0100
1000
0100
,
1000
0001
0010
1000
0010
0100
0010
0001
,
1000
0000
0010
0000
1000
0000
1001
0000
0100
0000
0001
0000
,
0010
0000
0001
0000
0100
0000
1000
0000
0000
0010
0100
0010
,
0100
0000
0001
0000
1000
0000
1010
0000
0000
0001
0100
0001
,
0100
0000
0000
0000
0000
0000
0000
0000
0010
0000
0000
0000
0000
0000
0000
0000
1000
0000
0000
0000
0000
0000
0000
0000
0001
0000
0000
0000
0000
0000
0000
0000
0000
0000
0000
0000
0010
0000
0000
0000
0000
0000
0001
0000
0000
0100
0000
0000
,
0001
0000
0000
0000
1000
0000
0000
0000
0010
0000
0000
0000
0100
0000
0000
0001
0000
0000
1000
0000
0000
0001
0000
0000
,
0010
0000
0000
0000
0100
0000
0000
0000
1000
0000
0000
0000
1100
0000
0000
0001
0000
0000
0001
0000
0000
0100
0000
0000
,
0010
0000
0000
0000
1000
0100
1000
0100
1000
0000
0000
0000
0001
0000
0010
0100
,
0010
0000
0001
0000
0100
0000
0001
0000
1000
0000
0100
0000
1000
0000
0010
0100
,
0010
0000
0001
0010
1000
0010
0100
0010
,
1000
0010
0001
0100
0000
0010
1000
0000
,
0101
0000
0001
0010
1000
0010
0001
0100
,
1000
0100
0001
0010
0001
0100
1000
0000
,
0011
0000
1000
0010
1000
0010
0100
0001
,
0010
0100
1000
0010
0000
1000
0001
0000
,
0101
0000
0010
1000
0010
0100
0001
0000
,
0020
0000
0000
0000
0031
1000
0001
1000
0001
0000
0100
0000
0010
0000
1000
0000
,
0100
0010
0001
1000
1000
0001
0100
0010
,
0100
0010
0100
1000
1000
0010
0001
0001
,
0001
0001
1000
1000
0010
0100
0100
0010
,
1000
0100
0100
0010
0010
1000
0001
0001
,
0010
1000
1000
0001
0010
0100
0100
0001
,
0001
1000
0010
0001
1000
0010
0100
0100
,
0100
1000
0100
0010
0010
0001
0001
1000
,
1000
0010
0001
0100
1000
0100
0010
0001
,
0200
0000
0000
0000
0000
0000
0000
0000
0301
1000
0001
0000
0000
0000
0000
0000
;
