#TITLE:INNOCENCE OF SILENCE;
#SUBTITLE:(Long Version);
#ARTIST:nc ft. NRG Factory;
#TITLETRANSLIT:;
#SUBTITLETRANSLIT:;
#ARTISTTRANSLIT:;
#GENRE:;
#CREDIT:;
#BANNER:INNOCENCE OF SILENCE (Long Version)-bn.png;
#BACKGROUND:INNOCENCE OF SILENCE (Long Version)-bg.png;
#LYRICSPATH:;
#CDTITLE:;
#MUSIC:INNOCENCE OF SILENCE (Long Version).ogg;
#OFFSET:0.000000;
#SAMPLESTART:111.549004;
#SAMPLELENGTH:20.000000;
#SELECTABLE:YES;
#DISPLAYBPM:142.000000;
#BPMS:0.000000=142.000000
;
#STOPS:
;
#BGCHANGES:;
#KEYSOUNDS:;
#ATTACKS:;

//---------------dance-single - ----------------
#NOTES:
     dance-single:
     :
     Challenge:
     16:
     0.805688,0.805688,0.409239,0.012789,1.243702,882.000000,818.000000,64.000000,2.000000,0.000000,0.000000,0.805688,0.805688,0.409239,0.012789,1.243702,882.000000,818.000000,64.000000,2.000000,0.000000,0.000000:
0000
0000
0000
0000
,
0000
0000
0000
0000
,
0000
0000
0000
0000
,
0000
0000
0000
0000
,
1000
0100
0000
0010
0000
0000
0000
0001
0000
1000
0000
0001
0000
0100
0010
0100
,
0001
1000
0000
0100
0000
0000
0000
0010
0000
0001
0000
1000
0000
0010
0100
0010
,
1000
0001
0000
0010
0000
0000
0000
0100
0000
0010
0000
0100
0000
1000
0001
1000
,
0010
1000
0000
0100
0010
0000
0000
0001
0010
0100
0000
1000
0001
1000
0001
0100
,
0010
0000
1000
0000
0010
0100
0000
0001
0000
0001
0000
0001
0000
1000
0100
0010
,
0001
0000
1000
0000
0001
0100
0000
0010
0000
0010
0000
0010
0000
1000
0100
1000
,
0010
0000
0100
0000
0010
1000
0000
0001
0000
0001
0000
0001
0000
1000
0100
1000
,
0001
0000
1000
0000
0010
1000
0000
0100
0000
0100
0000
0100
0000
0010
0001
1000
,
0001
0000
0010
0000
0001
1000
0000
0100
0000
0100
0000
0100
0000
1000
0010
1000
,
0001
0000
1000
0000
0001
0100
0000
0010
0000
0010
0000
0010
0000
0100
0001
1000
,
0100
0000
0010
0000
0001
0100
0000
1000
0000
1000
0000
1000
0000
0001
0100
0010
,
1000
0000
0100
0000
1000
0010
0000
0001
0000
0001
0000
0001
0000
0100
0010
1000
,
0001
0000
0010
0000
0100
1000
0000
1010
0000
1010
0000
1010
0000
0010
0100
0001
,
1000
0000
0001
0000
0010
0100
0000
1100
0000
1100
0000
1100
0000
0010
1000
0001
,
0100
0000
0010
0000
1000
0001
0000
0011
0000
0011
0000
0011
0000
0010
0001
1000
,
0010
0000
1000
0000
0001
0100
0000
0101
0000
0101
0000
0101
0000
0010
1000
0100
,
0010
0000
0001
0000
1000
0100
0000
1001
0000
1001
0000
1001
0000
0010
1000
0001
,
1000
0000
0100
0000
0010
0001
0000
0110
0000
0110
0000
0110
0000
0100
1000
0001
,
1000
0000
0010
0000
0100
0001
0000
0011
0000
0011
0000
0011
0000
0100
0001
0010
,
0001
0000
0100
0000
0010
1000
0000
1100
0000
1100
0000
1100
0000
0010
0100
0001
,
1000
0000
1000
0000
1000
0001
0000
0101
0000
1010
0000
0101
0000
0100
0010
0100
,
0001
0000
0001
0000
0001
0010
0000
0110
0000
1001
0000
0110
0000
1000
0100
1000
,
0010
0000
0010
0000
0010
1000
0000
1100
0000
0011
0000
1100
0000
0001
0100
0001
,
0010
0000
0010
0000
0010
0100
0000
1100
0000
0101
0000
1100
0000
0001
1000
0001
,
0100
0000
0100
0000
0100
0001
0000
0011
0000
0110
0000
1100
0000
1000
0010
1000
,
0100
0000
0100
0000
0100
0010
0000
0011
0000
0101
0000
1001
0000
1000
0001
1000
,
0010
0000
0010
0000
0010
1000
0000
0110
0000
0101
0000
1010
0000
0001
1000
0001
,
0010
0000
0010
0000
0010
0100
0000
1100
0000
0011
0000
0101
0000
0001
1000
0001
,
1000
0000
0010
0000
1000
0100
0010
0001
0000
0100
0000
0001
0000
1000
0001
0100
,
0001
0000
0010
0000
0100
0010
0001
1000
0000
0010
0000
1000
0000
0001
1000
0100
,
0010
0000
0001
0000
1000
0001
0000
0100
0000
0010
0000
1000
0000
0010
0100
0001
,
0100
0000
0010
0000
1000
0010
0000
1000
0000
0001
0000
0010
0000
0001
0100
0001
,
1000
0000
0010
0000
1000
0010
0000
1000
0000
0010
0000
1000
0000
0010
1000
0010
,
0100
0000
0001
0000
0100
0001
0000
0100
0000
0001
0000
0100
0000
0001
0100
0001
,
1000
0100
0000
0010
0000
0001
1000
0001
0100
0010
0000
0100
0000
0001
1000
0001
,
0010
0100
0000
1000
0000
0001
0100
0001
0100
0010
0000
1000
0000
0001
0100
0001
,
0020
0000
0000
0000
,
0200
0000
0000
0330
,
1001
0000
1000
0001
0110
0000
0010
1000
,
0001
0010
0100
1000
0100
0010
0001
1000
,
0010
1000
0010
0100
0110
0000
0001
1000
,
0000
0001
0010
0100
1000
0001
1000
0010
,
0000
0010
0100
0001
0011
0000
0100
1000
,
0001
1000
0010
1000
0100
0010
0001
1000
,
0000
1000
0001
1000
0010
0100
0001
1000
,
0001
0010
0001
0100
0001
0010
0001
1000
,
0010
1000
0100
0010
0001
0100
0001
0010
,
0001
0100
0010
0100
0001
0010
0100
1000
,
0010
1000
0001
1000
0100
0010
0100
1000
,
0010
0100
0010
1000
0001
0010
0001
0100
,
0001
0010
0100
1000
0001
1000
0001
0100
,
0010
1000
0001
1000
0100
0010
0100
1000
,
0010
0100
0010
1000
0001
0010
0100
0010
,
0001
0100
0001
0010
0100
1000
0001
0100
,
0010
1010
0000
1010
0000
1010
0000
1010
,
0000
0000
1010
0000
0000
0000
1010
0000
0000
0000
0001
1000
0000
0001
1000
0001
,
0000
0101
0000
0101
0000
0101
0000
0101
,
0000
0000
0101
0000
0000
0000
0101
0000
0000
0000
0100
0010
0000
0100
0010
0100
,
0001
0000
0010
0001
0000
0000
1000
0001
0000
0000
0010
0001
0000
0000
1000
0001
,
0100
0000
0010
1000
0000
0000
0010
0100
0000
0000
0010
1000
0000
0010
0100
0001
,
1000
0000
0100
0010
0000
0000
0001
1000
0001
0000
0100
0010
0000
0000
1000
0001
,
1000
0000
0010
0100
0001
0000
0010
0100
1000
0000
0001
0100
0010
1000
0001
1000
,
0100
0000
0010
0001
0000
0100
0010
0100
0000
0001
1000
0010
0000
1000
0100
0010
,
0000
0001
1000
0001
0000
0010
0100
1000
0000
1000
0010
0100
0000
0001
1000
0100
,
0000
0010
0001
0100
0000
0001
0010
0100
0000
1000
0100
1000
0000
1000
0001
0010
,
0000
0001
0100
0010
0000
1000
0001
1000
0000
0100
0010
0001
0000
0100
0010
1000
,
0001
0000
1000
0010
1000
0000
0100
0010
0001
0000
0100
0001
1000
0000
0010
0100
,
0001
0000
0010
0100
0000
1000
0001
1000
0000
0010
0100
0001
0000
1000
0001
0010
,
0000
0100
0010
0100
0000
1000
0001
0010
0000
0001
1000
0010
0000
1000
0001
0100
,
0000
0001
0010
0100
0000
1000
0010
1000
0000
0100
0010
0100
0000
1000
0001
0100
,
0010
0000
1000
0001
0100
0000
0001
0010
0100
0000
1000
0010
1000
0000
0100
0010
,
0001
0000
0100
0001
1000
0000
0001
0010
0100
0000
1000
0010
0000
1000
0001
0100
,
0000
0010
1000
0001
0000
1000
0100
0010
0000
0010
0001
0100
0000
0001
1000
0001
,
0000
1000
0010
1000
0000
0100
0010
0001
0000
0000
0100
0010
0000
0100
0001
1000
,
0001
0000
0010
0001
0100
0000
0010
1000
0100
0000
1000
0001
0100
0000
0010
1000
,
0100
0000
0010
0001
1000
0000
0001
0010
0100
0000
1000
0010
0000
1000
0001
0100
,
0010
0000
1000
0100
0000
0010
0001
0100
0010
0000
1000
0001
0000
1000
0100
0010
,
0001
0000
0100
0010
0100
0001
1000
0001
0010
0100
1000
0010
1000
0001
0100
0010
,
1000
0000
0001
0100
0000
0000
0001
0100
0000
0000
0010
1000
0000
0000
0010
1000
,
0000
0000
0001
0100
0000
0000
0010
1000
0000
0000
0001
1000
0000
0010
0100
0010
,
0000
1000
0010
1000
0000
0000
0001
0010
0000
0000
0001
0010
0000
0000
0100
1000
,
0000
0000
0100
1000
0000
0000
0001
1000
0000
0000
0010
0100
0000
0010
1000
0010
,
0000
0000
0100
0001
0000
0000
0100
0001
0000
0000
1000
0010
0000
0000
1000
0010
,
0000
0000
0100
0001
0000
0000
0100
0001
0000
0000
1000
0010
0000
1000
0100
1000
,
0000
0000
0001
1000
0000
0000
1000
0001
0000
0000
0001
1000
0000
0000
1000
0001
,
0000
0000
0010
0100
0000
0000
0100
0010
0000
0000
0001
0010
0000
0001
0010
0100
,
1000
0000
0000
0000
;

//---------------dance-single - ----------------
#NOTES:
     dance-single:
     :
     Hard:
     14:
     0.644916,0.805688,0.230197,0.089521,0.831266,706.000000,670.000000,36.000000,14.000000,0.000000,0.000000,0.644916,0.805688,0.230197,0.089521,0.831266,706.000000,670.000000,36.000000,14.000000,0.000000,0.000000:
0000
0000
0000
0000
,
0000
0000
0000
0000
,
0000
0000
0000
0000
,
0000
0000
0000
0000
,
1000
0100
0001
0010
0100
0001
1000
0010
,
1000
0100
0001
0100
0010
0010
1000
0001
,
1000
0100
0010
0100
0010
0001
0001
1000
,
0100
1000
0010
0001
0010
0100
0001
1000
,
0100
0000
0010
0000
0001
0000
0000
1000
0000
0001
0000
1000
0000
0000
0010
0000
,
0100
0000
0001
0000
1000
0000
0000
0010
0000
0100
0000
0010
0000
0000
1000
0000
,
0100
0000
0010
0000
0001
0000
0000
1000
0000
0100
0000
1000
0000
0000
0001
0000
,
1000
0000
0010
0000
0100
0000
0000
0001
0000
0010
0000
0001
0000
0000
1000
0000
,
0010
0000
1000
0000
0100
0000
0000
0010
0000
0001
0000
1000
0000
0001
0100
0000
,
0001
0000
1000
0000
0010
0000
0000
1000
0000
0100
0000
0010
0000
0001
0100
0000
,
0001
0000
0010
0000
0100
0000
0000
1000
0000
0001
0000
0100
0000
0010
1000
0000
,
0001
0000
1000
0000
0010
0100
0000
0010
0000
1000
0000
0001
0000
0100
0010
0100
,
0010
0000
1000
0000
0001
0010
0000
0100
0000
0100
0000
0100
0000
1000
0001
1000
,
0001
0000
0100
0000
0001
1000
0000
0010
0000
0010
0000
0010
0000
1000
0100
1000
,
0100
0000
0010
0000
0100
1000
0000
0001
0000
0001
0000
0001
0000
1000
0010
1000
,
0010
0000
0100
0000
0001
1000
0000
0010
0000
0010
0000
0010
0000
0100
0001
0100
,
0001
0000
0010
0000
0001
1000
0000
0100
0000
0100
0000
0100
0000
1000
0001
1000
,
0001
0000
0100
0000
0001
0010
0000
0100
0000
0100
0000
0100
0000
1000
0001
1000
,
0001
0000
1000
0000
0010
0100
0000
0001
0000
0001
0000
0001
0000
0010
0100
0010
,
0100
0000
0010
0000
0001
0100
0000
0010
0000
0010
0000
0010
0000
1000
0001
1000
,
0001
0000
0100
0000
1000
0000
0000
1010
0000
1010
0000
1010
0000
0100
0001
0100
,
0001
0000
1000
0000
0010
0000
0000
0101
0000
0101
0000
0101
0000
1000
0001
1000
,
0001
0000
0010
0000
0100
1000
0000
1100
0000
1100
0000
1100
0000
0001
1000
0001
,
1000
0000
0100
0000
0010
0001
0000
0011
0000
0011
0000
0011
0000
0100
0010
0100
,
0010
0000
1000
0000
0001
0010
0000
0110
0000
0110
0000
0110
0000
1000
0001
1000
,
0001
0000
0100
0000
0001
1000
0000
1001
0000
1001
0000
1001
0000
0010
0100
0010
,
0100
0000
0001
0000
0100
0010
0000
1000
0000
0001
0000
1000
0000
0100
0010
0100
,
0010
0000
0001
0000
0100
0010
0000
1000
0000
0001
0000
0010
0000
0100
1000
0100
,
1000
0000
0010
0000
1000
0001
0000
0010
0000
0100
0000
1000
0000
0000
0001
0100
,
0001
0000
1000
0000
0010
0100
0000
0010
0000
1000
0000
0001
0000
0000
0100
0010
,
0100
0000
0001
0000
0010
0100
0000
1000
0000
0010
0000
1000
0000
0001
0100
0000
,
0010
0000
1000
0000
0001
0000
0000
1000
0000
0100
0000
0010
0000
0001
0100
0000
,
0010
1000
0001
0000
0010
0100
1000
0000
,
0001
0100
1000
0000
0010
0100
0001
0000
,
1000
0000
0000
0001
0000
0000
0010
0000
0001
0000
0000
0100
0000
0000
0010
0000
,
1000
0000
0000
0001
0000
0000
0010
0000
0001
0000
0000
0100
0000
0000
1000
0000
,
0020
0000
0000
0000
,
0200
0000
0000
0330
,
1001
0000
0100
0001
0110
0000
0010
1000
,
0001
0000
1000
0100
0000
0010
0001
0100
,
0000
0001
0010
0100
1100
0000
0001
1000
,
0010
1000
0010
0100
0000
0001
1000
0001
,
0010
0000
0001
1000
0101
0000
0010
1000
,
0001
0100
0001
0100
0000
0001
1000
0010
,
1000
0100
0010
0001
0101
0000
1100
0001
,
1000
0010
1000
0001
0000
0010
0100
1000
,
0001
0010
0001
0100
0001
0010
0001
0100
,
0001
1000
0010
0100
0010
1000
0010
0100
,
0000
0001
0010
0001
0000
1000
0100
0010
,
0000
0001
1000
0001
0000
0010
0100
1000
,
0010
0100
0010
0100
0000
0001
0000
1000
,
0000
0010
0000
1000
0000
0100
0010
0001
,
1000
0001
1000
0010
1000
0100
0000
0010
,
0001
0100
0001
1000
0000
0010
1000
0001
,
0100
0020
0000
2030
0000
3002
0000
2003
,
0000
0000
3200
0000
0000
0000
0320
0000
0000
0000
0031
1000
0000
0001
1000
0001
,
0000
0200
0000
0302
0000
2003
0000
3020
,
0000
0000
2030
0000
0000
0000
3200
0000
0000
0000
0310
0001
0000
0010
0001
0010
,
0001
0000
0100
0010
0000
0000
0100
0010
0000
0000
1000
0001
0000
0000
1000
0001
,
0000
0000
1000
0010
0000
0000
0100
0001
0000
0000
1000
0100
0000
1000
0100
1000
,
0000
0000
0001
0100
0000
0000
0010
1000
0000
0000
0001
1000
0000
0000
0010
0100
,
0010
0000
0100
0001
0100
0000
0010
1000
0010
0000
1000
0001
0000
1000
0100
1000
,
0100
0000
0010
0001
0000
0000
0100
0001
0000
0000
1000
0010
0000
0000
0100
0010
,
0000
0000
1000
0100
0000
0000
0010
0001
0000
0000
1000
0010
0000
1000
0001
1000
,
0000
0000
0100
1000
0000
0000
0010
0100
0000
0000
0001
0010
0000
0000
0100
1000
,
0000
0000
0001
0010
0000
0000
0100
1000
0000
0000
0001
0100
0000
0001
0010
0001
,
0000
0000
1000
0001
0000
0000
1000
0010
0000
0000
0100
0010
0000
0000
0100
0001
,
0000
0000
1000
0100
0000
0000
0010
0001
0000
0000
0100
0001
0000
1000
0001
1000
,
0000
0000
0010
1000
0000
0000
0001
0010
0000
0000
0001
0100
0000
0000
0010
1000
,
0000
0000
0100
0010
0000
0000
0100
1000
0000
0000
0001
1000
0000
0010
0100
0010
,
0000
0000
1000
0010
0000
1000
0001
1000
0000
0000
0001
0010
0000
0000
0100
1000
,
0000
0000
0010
0100
0000
0010
1000
0010
0000
0000
1000
0001
0000
0100
0001
0100
,
0000
0000
0001
0010
0000
0001
1000
0001
0000
0000
0100
0010
0000
0000
1000
0100
,
0000
0000
1000
0001
0000
0010
0001
0010
0000
0000
0100
1000
0000
0001
0100
0001
,
0000
0100
0010
0100
0000
0010
1000
0010
0000
0000
1000
0001
0000
0100
1000
0100
,
0000
0000
0010
0001
0000
0000
1000
0001
0000
0000
0010
0100
0000
1000
0010
1000
,
0000
0001
0010
0001
0000
0000
1000
0100
1000
0000
0010
0100
0000
0000
0001
1000
,
0001
0000
0010
0000
0001
0000
0100
0000
0001
0000
1000
0010
0000
1000
0001
1000
,
0000
1010
0000
0101
0000
0011
0000
1100
,
0000
0000
1001
0000
0000
0000
0110
0000
0000
0000
1000
0010
0000
1000
0010
1000
,
0000
1100
0000
0011
0000
0101
0000
1001
,
0000
0000
0110
0000
0000
0000
1010
0000
0000
0000
0001
1000
0000
0001
1000
0001
,
0000
0010
0000
0010
0000
0010
0000
0010
,
0000
0000
0010
0000
0000
0000
0010
0000
0000
0000
0010
0000
0000
0001
1000
0001
,
0000
0100
0000
0010
0000
0100
0000
0001
,
0000
0000
1000
0000
0000
0000
1000
0000
0000
0000
0010
0100
0000
0001
1000
0001
,
1000
0000
0000
0000
;

//---------------dance-single - ----------------
#NOTES:
     dance-single:
     :
     Medium:
     10:
     0.469528,0.489168,0.153464,0.012789,0.000000,514.000000,490.000000,24.000000,2.000000,0.000000,0.000000,0.469528,0.489168,0.153464,0.012789,0.000000,514.000000,490.000000,24.000000,2.000000,0.000000,0.000000:
0000
0000
0000
0000
,
0000
0000
0000
0000
,
0000
0000
0000
0000
,
0000
0000
0000
0000
,
1000
0001
0100
0000
0010
1000
0001
0000
,
0010
0100
1000
0000
0001
0100
0010
0000
,
1000
0001
1000
0000
0010
0100
0010
0000
,
0100
0001
0100
0000
0010
1000
0010
0000
,
1000
0001
0010
0000
0001
0100
0010
0000
,
1000
0001
1000
0000
0100
0010
0001
0000
,
0100
0001
0010
0000
0001
0100
1000
0000
,
0010
1000
0001
0000
1000
0100
0010
0000
,
0010
0001
0100
0000
0001
0010
1000
0000
,
0100
0010
0100
0000
1000
0010
0001
0000
,
1000
0001
1000
0000
0010
0100
0001
0000
,
1000
0100
0010
0000
0001
0100
0001
0000
,
0010
0001
0100
0000
0010
1000
0001
0000
,
1000
0100
1000
0010
1000
0001
0100
0000
,
0001
0010
0001
0100
0010
1000
0001
0000
,
0010
0100
0010
0001
0100
0010
1000
0000
,
0001
1000
0001
0010
0100
1000
0010
0000
,
0100
0001
0100
0010
1000
0001
0010
0000
,
0100
0010
0100
1000
0010
1000
0001
0000
,
1000
0001
0010
0001
0010
0100
1000
0000
,
0001
0010
0001
0100
0010
1000
0001
0000
,
1000
0100
0010
0001
1000
0001
0100
0000
,
0001
1000
0001
0010
0001
0100
1000
0000
,
0010
1000
0001
1000
0100
0010
0001
0000
,
0100
0010
0100
0001
1000
0001
0010
0000
,
0001
0010
0001
0100
0001
0010
1000
0000
,
0100
1000
0001
0100
0001
0010
0100
0000
,
1000
0010
1000
0001
1000
0100
0010
0000
,
0001
1000
0001
0000
0010
0100
1000
0000
,
0010
1000
0001
0000
1000
0100
0010
0000
,
0100
0010
0001
0000
1000
0001
0100
0000
,
0001
1000
0001
0000
0010
0100
1000
0000
,
0010
1000
0001
0000
0100
0000
0010
0000
,
0100
0001
0010
0000
0100
0000
1000
0000
,
0001
0001
1000
1000
,
0010
0010
0100
0100
,
0020
0000
0000
0000
,
0200
0000
0000
0330
,
1000
0010
1000
0001
0100
0000
0000
0000
,
0000
0000
0001
0010
0000
0001
1000
0001
,
0000
1000
0010
0100
0001
0000
0000
0000
,
0010
0001
1000
0001
0000
1000
0100
0010
,
0000
0001
0100
0010
1000
0000
0001
0000
,
1000
0010
1000
0001
0000
0010
0100
1000
,
0001
1000
0001
0100
0010
0000
1000
0001
,
1000
0010
1000
0010
0000
0100
0001
1000
,
0001
0000
0010
0100
1000
0000
0001
0100
,
0001
0000
1000
0010
0000
1000
0001
1000
,
0000
0010
0100
0001
0000
1000
0000
0001
,
0010
0000
0001
0100
0000
0010
1000
0100
,
0000
1000
0001
1000
0000
0010
0100
0001
,
0000
0010
0000
0100
0000
0010
0001
1000
,
0001
0000
1000
0010
0100
0000
0001
1000
,
0001
0010
0100
1000
0000
0010
1000
0001
,
0000
0100
0000
0010
0000
0100
0000
0010
,
0000
0100
0000
0010
0000
0100
0001
1000
,
0001
0010
0000
0100
0000
0010
0000
0100
,
0000
0010
0000
0100
0000
0010
0001
1000
,
0010
1000
0000
0100
0000
1000
0000
0001
,
0100
0010
0000
0100
0000
0001
1000
0010
,
1000
0100
0000
0010
0001
0100
0000
0001
,
0010
0001
1000
0001
0010
0001
1000
0001
,
0000
0101
0000
1010
0000
1100
0000
0011
,
0000
1001
0000
0110
0000
1000
0010
1000
,
0000
1100
0000
0110
0000
0011
0000
0101
,
0000
1001
0000
1010
0000
0010
0100
0001
,
0000
0011
0000
1001
0000
0110
0000
1010
,
0000
0101
0000
1100
0000
0010
0001
0100
,
0000
0110
0000
0101
0000
1010
0000
0011
,
0000
1100
0000
1001
0000
1000
0100
0010
,
0001
1000
0001
0010
0000
0100
1000
0001
,
0000
0100
0010
1000
0000
0001
0010
0100
,
0000
1000
0010
1000
0000
0010
0100
0001
,
0000
0010
0100
0010
0000
0001
0100
0010
,
1000
0001
0000
0010
0000
0001
0100
0010
,
1000
0100
1000
0001
0000
0010
0001
0100
,
0001
1000
0000
0010
1000
0100
0000
0010
,
0001
0100
0001
0010
0001
1000
0010
0100
,
0000
0001
0000
0001
0000
0001
0000
0001
,
0000
0001
0000
0001
0000
0001
0010
0100
,
0000
1000
0000
1000
0000
1000
0000
1000
,
0000
1000
0000
1000
0000
1000
0001
0100
,
0000
0010
0000
0010
0000
0010
0000
0010
,
0000
0010
0000
0010
0000
0010
1000
0001
,
0000
0100
0000
0100
0000
0100
0000
0100
,
0000
0100
0000
0100
0000
0001
0010
0100
,
1000
0000
0000
0000
;

//---------------dance-single - ----------------
#NOTES:
     dance-single:
     :
     Easy:
     7:
     0.313323,0.460393,0.217408,0.012789,0.000000,343.000000,309.000000,34.000000,2.000000,0.000000,0.000000,0.313323,0.460393,0.217408,0.012789,0.000000,343.000000,309.000000,34.000000,2.000000,0.000000,0.000000:
0000
0000
0000
0000
,
0000
0000
0000
0000
,
0000
0000
0000
0000
,
0000
0000
0000
0000
,
1000
0100
1000
0001
,
0010
0100
0010
0001
,
0100
0001
0010
0100
,
1000
0001
1000
0010
,
0100
0001
0100
0010
,
1000
0100
0010
0001
,
1000
0001
1000
0010
,
0100
0010
1000
0100
,
0010
0001
1000
0001
,
0100
0001
0010
0100
,
1000
0010
1000
0001
,
1000
0100
1000
0010
,
0001
0010
0001
1001
,
0010
1000
0100
0110
,
1000
0010
0100
0110
,
0001
0010
0001
1001
,
0001
0010
0100
0110
,
0010
0001
1000
1001
,
0010
1000
0100
1001
,
1000
0010
0001
0110
,
0001
0100
0001
0000
1000
0000
1001
0000
,
0010
1000
0010
0000
0100
0000
0110
0000
,
0001
0010
0001
0000
0100
0000
0110
0000
,
0001
1000
0001
0000
0010
0000
1001
0000
,
0100
0001
0100
0000
0110
0000
1001
0000
,
1000
0100
1000
0000
1001
0000
0110
0000
,
1000
0001
1000
0000
1001
0000
0110
0000
,
0001
0010
0001
0000
0110
0000
1001
0000
,
0010
0001
0100
1000
,
0010
1000
0001
1000
,
0100
0010
0001
0100
,
0001
0010
0100
1000
,
0010
0010
0010
0010
,
0100
0100
0100
0100
,
0001
0000
1000
0000
,
0001
0000
1000
0000
,
0020
0000
0000
0000
,
0200
0000
0000
0330
,
1001
0100
0110
0010
,
0000
1000
0000
0001
,
0000
0010
1001
0100
,
0000
0001
0000
1000
,
0000
0100
0110
0001
,
1000
0010
0000
1000
,
0000
0001
1001
0110
,
1000
0010
0000
1000
,
0001
0010
0001
0100
,
0010
1000
0000
0001
,
0000
1000
0100
0010
,
0001
0100
0000
0010
,
1000
0001
0010
0001
,
0100
0010
0100
0001
,
1000
0010
1000
0100
,
0010
0001
0000
0100
,
0110
0001
0000
1000
,
0000
0000
0001
0000
0000
0100
0000
0100
,
0000
0010
0000
1000
,
0000
0000
0001
0000
0000
0100
0000
0100
,
0010
1000
0010
0001
,
1001
0100
0001
0010
,
0110
1000
1001
0010
,
1001
0110
1001
0110
,
0000
0001
0000
0010
0000
0001
0000
0100
,
0000
0010
0000
1000
0000
0100
0000
0010
,
0000
0001
0000
1000
0000
0001
0000
0100
,
0000
0001
0000
0010
0000
0100
0000
1000
,
0000
0010
0000
0100
0000
0001
0000
0010
,
0000
0100
0000
0010
0000
0001
0000
0100
,
0000
1000
0000
0001
0000
1000
0000
0010
,
0000
1000
0000
0100
0000
0010
0000
0001
,
0000
0100
0000
0001
0000
0010
0000
0100
,
0000
1000
0000
0001
0000
1000
0000
0010
,
0000
1000
0000
0001
0000
0010
0000
0100
,
0000
0010
0000
0001
0000
0100
0000
1000
,
0000
0001
0000
0010
0000
0001
0000
0100
,
0000
0010
0000
1000
0000
0100
0000
1000
,
0000
0010
0000
1000
0000
0001
0000
1000
,
0000
0100
0000
0010
0000
0001
0000
1000
,
0000
0001
0000
0001
,
0000
0001
0000
0010
,
0000
0001
0000
1000
,
0000
1000
0000
0010
,
0000
1000
0000
0100
,
0000
1000
0000
0001
,
0000
0010
0000
0010
,
0000
0010
0000
0001
,
1000
0000
0000
0000
;

//---------------dance-single - ----------------
#NOTES:
     dance-single:
     :
     Beginner:
     3:
     0.127887,0.230197,0.025577,0.012789,0.000000,140.000000,136.000000,4.000000,2.000000,0.000000,0.000000,0.127887,0.230197,0.025577,0.012789,0.000000,140.000000,136.000000,4.000000,2.000000,0.000000,0.000000:
// measure 0
0000
0000
0000
0000
,  // measure 1
0000
0000
0000
0000
,  // measure 2
0000
0000
0000
0000
,  // measure 3
0000
0000
0000
0000
,  // measure 4
1000
0000
0000
0000
,  // measure 5
0010
0000
0000
0000
,  // measure 6
0100
0000
0010
0000
,  // measure 7
0100
0100
0100
0100
,  // measure 8
0100
0000
0000
0000
,  // measure 9
0001
0000
0000
0000
,  // measure 10
1000
0000
0000
0000
,  // measure 11
0001
0000
0000
0000
,  // measure 12
0010
0000
0000
0000
,  // measure 13
0001
0000
0000
0000
,  // measure 14
1000
0000
0001
0000
,  // measure 15
0100
0100
0100
0100
,  // measure 16
0100
0000
0010
0000
,  // measure 17
0100
0000
0001
0000
,  // measure 18
1000
0000
0010
0000
,  // measure 19
0100
0000
0001
0000
,  // measure 20
0010
0000
0100
0000
,  // measure 21
1000
0000
0010
0000
,  // measure 22
1000
0000
0001
0000
,  // measure 23
1000
0000
0100
0000
,  // measure 24
0010
0000
0001
0000
,  // measure 25
0100
0000
0001
0000
,  // measure 26
1000
0000
0100
0000
,  // measure 27
1000
0000
0001
0000
,  // measure 28
0100
0000
0000
0000
,  // measure 29
0010
0000
0000
0000
,  // measure 30
1000
0000
0001
0000
,  // measure 31
0100
0100
0100
0100
,  // measure 32
0100
0000
0000
0000
,  // measure 33
0010
0000
0000
0000
,  // measure 34
1000
0000
0000
0000
,  // measure 35
0001
0000
0000
0000
,  // measure 36
1000
0000
0000
0000
,  // measure 37
0100
0000
0000
0000
,  // measure 38
0010
0000
0000
0000
,  // measure 39
0001
0000
0000
0000
,  // measure 40
0010
0000
0000
0000
,  // measure 41
0100
0000
0000
0000
,  // measure 42
0000
1000
0000
0000
,  // measure 43
0000
0001
0000
1000
,  // measure 44
0000
0010
0000
0000
,  // measure 45
0000
0100
0000
0010
,  // measure 46
0000
1000
0000
0000
,  // measure 47
0001
0001
0000
0010
,  // measure 48
0000
0001
0000
0000
,  // measure 49
0100
0100
0000
0010
,  // measure 50
0000
1000
0000
0000
,  // measure 51
0000
0001
0000
1000
,  // measure 52
0000
0100
0000
0000
,  // measure 53
0010
0010
0000
0001
,  // measure 54
0000
1000
0000
0000
,  // measure 55
0001
0000
0000
0100
,  // measure 56
0000
0010
0000
0000
,  // measure 57
1000
1000
0000
0001
,  // measure 58
0002
0000
0000
0000
,  // measure 59
0000
0000
0003
0000
,  // measure 60
2000
0000
0000
0000
,  // measure 61
0000
0000
3000
0000
,  // measure 62
1001
0000
0000
0000
,  // measure 63
0110
0000
0000
0000
,  // measure 64
1001
0000
0110
0000
,  // measure 65
0100
0100
0100
0100
,  // measure 66
0000
0010
0000
1000
,  // measure 67
0000
0010
0000
0100
,  // measure 68
0000
0001
0000
0010
,  // measure 69
0000
0001
0000
1000
,  // measure 70
0000
0001
0000
0100
,  // measure 71
0000
0001
0000
0010
,  // measure 72
0000
0100
0000
1000
,  // measure 73
0000
0010
0000
1000
,  // measure 74
0000
0001
0000
0001
,  // measure 75
0000
0010
0000
0001
,  // measure 76
0000
0100
0000
0100
,  // measure 77
0000
0010
0000
1000
,  // measure 78
0000
1000
0000
1000
,  // measure 79
0000
0100
0000
0010
,  // measure 80
0000
0100
0000
1000
,  // measure 81
0000
0001
0000
0100
,  // measure 82
0000
0000
0000
0000
,  // measure 83
0000
0000
0000
0000
,  // measure 84
0010
0000
0000
0000
,  // measure 85
0000
0000
0000
0000
,  // measure 86
1000
0000
0000
0000
,  // measure 87
0000
0000
0000
0000
,  // measure 88
0001
0000
0000
0000
,  // measure 89
0000
0000
0000
0000
,  // measure 90
1000
0000
0000
0000
;
