#TITLE:IN THE NAME OF LOVE;
#SUBTITLE:;
#ARTIST:Y&Co. feat. Erica;
#TITLETRANSLIT:;
#SUBTITLETRANSLIT:;
#ARTISTTRANSLIT:;
#GENRE:;
#CREDIT:;
#BANNER:IN THE NAME OF LOVE-bn.png;
#BACKGROUND:IN THE NAME OF LOVE-bg.png;
#LYRICSPATH:;
#CDTITLE:;
#MUSIC:IN THE NAME OF LOVE.ogg;
#OFFSET:0.000000;
#SAMPLESTART:49.160999;
#SAMPLELENGTH:20.000000;
#SELECTABLE:YES;
#DISPLAYBPM:155.000000;
#BPMS:0.000000=155.000000
;
#STOPS:
;
#BGCHANGES:;
#KEYSOUNDS:;
#ATTACKS:;

//---------------dance-single - ----------------
#NOTES:
     dance-single:
     :
     Hard:
     14:
     0.658353,0.688766,0.286240,0.095413,0.472297,483.000000,453.000000,30.000000,10.000000,0.000000,0.000000,0.658353,0.688766,0.286240,0.095413,0.472297,483.000000,453.000000,30.000000,10.000000,0.000000,0.000000:
0000
0000
0000
0000
,
0000
0000
0000
0000
,
0000
0000
0000
0000
,
0000
0000
0000
0000
,
0010
0000
1000
0001
1000
0100
0010
0001
,
0100
0010
0100
1000
0100
0001
0010
0000
,
0100
1000
0001
1000
0100
0010
0100
1000
,
1002
0000
0020
0000
0033
1000
1000
0001
,
1001
0000
0000
0000
0010
0000
0000
1000
0000
0000
0001
0000
1000
0000
0100
0000
,
0010
0001
0010
0000
0100
0000
0000
1000
0000
0001
0000
0100
0000
0010
0000
0000
,
1010
0000
0000
0000
0001
0000
0000
1000
0000
0000
0010
0000
0010
0000
1000
0000
,
0100
0010
0100
0000
1000
0000
0000
0001
0000
0010
0000
0001
0000
0100
0000
0000
,
0101
0000
0000
0000
0010
0000
0000
1000
0000
0000
0100
0000
1000
0000
0001
0000
,
0010
0100
0010
0000
0001
0000
0000
1000
0000
0010
0000
0100
0000
0001
0000
0000
,
0101
0000
0000
0000
1000
0000
0000
0001
0000
0000
0010
0000
0000
0001
1000
0000
,
0010
0100
0010
0000
1000
0000
0000
0001
0000
0001
0000
0001
0000
1000
0100
0000
,
0110
0000
0010
0001
0010
0100
1000
0010
,
1000
0100
0001
0100
0010
0100
1000
0001
,
0100
0000
0001
0010
0001
1000
0010
0100
,
1000
0100
0010
0100
1000
0100
0001
0000
,
0010
0001
1000
0001
0100
0010
1000
0100
,
0000
0020
0000
0032
0000
2003
0000
3002
,
0000
0103
0010
1000
0000
0001
0010
1100
,
0000
0001
0001
0000
1000
0001
0000
0010
,
1001
0000
0100
0001
0010
0100
1000
0000
,
0001
0000
1000
0000
0001
0000
0010
0000
0100
0000
0000
1000
0000
0000
0001
0000
,
0100
0000
1010
0000
0101
1000
0001
0000
,
0011
0000
0100
1100
0000
0101
0000
0010
,
1001
0000
1000
0001
1000
0100
0010
0000
,
0001
0000
0010
0000
0001
0000
1000
0010
0000
0000
0100
0000
0100
0000
0000
0000
,
0110
0000
1001
0000
0100
0100
0000
0001
,
1000
0010
0000
1000
0010
0000
1000
0010
0000
0000
0000
0000
1000
0000
0001
0000
,
0010
1000
0010
0001
0100
0010
0100
0001
,
1000
0100
0001
0000
0011
0200
1300
0000
,
0001
0010
0100
1000
0010
0100
0010
0001
,
0010
1000
0100
0000
1100
0020
0031
0000
,
1000
0001
0010
1000
0010
0001
0100
0000
,
0001
0010
0100
0010
0001
0100
1000
0000
,
0001
0100
0010
1000
0100
0010
0001
1000
,
0010
0000
1100
0000
0000
0000
0101
0000
0000
0000
1000
0001
1000
0000
0010
0000
,
0100
1000
0100
0001
0100
0010
1000
0001
,
0010
0100
1000
0000
1010
0002
0103
0000
,
0001
1000
0100
0010
1000
0010
0100
0010
,
0001
0100
0010
0000
0110
2000
3001
0000
,
0010
0001
0100
0010
1000
0100
0001
0100
,
1000
0000
0010
0000
0100
0000
0001
0000
0010
0000
0100
0000
1000
0001
1000
0001
,
1000
0000
0010
0010
0010
0000
0110
0000
,
1000
0000
0001
0000
0000
0000
1001
0000
0000
0000
0010
1000
0010
1000
0010
0000
,
0100
0000
0001
0000
0010
0000
0001
1000
0000
0000
0010
0000
1000
0000
0100
0000
,
0010
0001
0010
0000
0100
0000
0000
1000
0000
0010
0000
1000
0000
0001
0000
0000
,
0100
0000
0001
0000
0010
0000
0001
1000
0000
0000
0010
0000
0100
0000
0001
0000
,
1000
0010
1000
0000
0001
0000
0000
0100
0000
0010
0000
1000
0000
0001
0000
0000
,
0011
0000
0000
0000
0100
0000
0001
1000
0000
0000
0010
0000
1000
0000
0001
0000
,
0100
0001
0100
0000
0010
0000
0000
1000
0000
0010
0000
1000
0000
0001
0000
0000
,
0101
0000
0000
0000
1000
0000
0010
0100
0000
0000
0001
0000
0000
1000
0001
0000
,
0010
0001
0010
0000
0100
0000
0000
1000
0000
1000
0000
1000
0000
0001
0100
0001
,
0100
0000
0010
0000
1000
0000
0010
0100
0000
0100
0001
0000
1000
0000
0001
0000
,
0010
0001
0100
0001
0010
0000
0000
0100
0000
1000
0000
0001
0000
1000
0000
0010
,
0100
0000
0001
0000
1000
0000
0001
0010
0000
0010
0100
0000
1000
0000
0001
0000
,
1000
0010
0100
0010
1000
0000
0000
0001
0000
0001
0000
0001
0100
0010
0000
0100
,
0001
0000
0000
1000
0001
0000
0000
1000
0001
0000
0000
0010
0001
0000
0100
0000
,
0010
0000
1000
0000
0010
0100
0010
0100
0000
0001
0000
1000
0000
0001
0000
0100
,
0010
0000
0000
1000
0100
0000
1000
0001
0000
1000
0100
0000
0000
0010
0001
0000
,
0100
0010
1000
0001
0100
0000
0010
1000
0000
0001
0000
1000
0000
0100
0010
0001
,
1000
1000
0000
1100
0001
0001
0000
0011
,
0100
0010
0000
1001
0000
1010
0000
0000
;

//---------------dance-single - ----------------
#NOTES:
     dance-single:
     :
     Medium:
     11:
     0.538405,0.563536,0.438902,0.286240,0.004771,395.000000,349.000000,46.000000,30.000000,0.000000,0.000000,0.538405,0.563536,0.438902,0.286240,0.004771,395.000000,349.000000,46.000000,30.000000,0.000000,0.000000:
0000
0000
0000
0000
,
0000
0000
0000
0000
,
0000
0000
0000
0000
,
0000
0000
0000
0000
,
0010
0000
0001
0000
0100
0010
1000
0000
,
0001
0100
0001
0010
0001
0100
0001
0000
,
1000
0000
0010
1000
0001
0000
0010
0100
,
2000
0000
0002
0000
3003
0100
0010
0100
,
0001
0000
0011
0000
1100
0000
0010
1000
,
0100
0010
0001
0000
1000
0100
0001
1000
,
0001
0000
0101
0000
1010
0000
0100
0001
,
1000
0010
1000
0001
0010
0100
1000
0000
,
0010
0000
0110
0000
1001
0000
0010
1000
,
0001
1000
0100
0000
0010
0001
0010
0100
,
1000
0000
1100
0000
0101
0000
1000
0001
,
0100
0010
0100
0000
0001
0010
0100
1000
,
0001
0000
0100
0010
0100
0010
0000
1000
,
0001
1000
0100
0000
0010
0010
0000
0001
,
1000
0000
0001
0100
0001
0100
0000
0010
,
0000
1000
0100
1000
0001
0100
0000
0000
,
0010
1000
0001
2000
0000
3200
0000
0320
,
0000
0032
0000
2003
0000
3002
0000
0203
,
0000
0320
0000
2030
0000
3000
0000
1001
,
0000
1000
1000
0000
0001
0100
0000
0110
,
1000
0002
0023
0130
,
1000
0000
0010
0000
1000
0000
0001
0000
0100
0000
0000
0100
0000
0000
0100
0000
,
0010
0101
1010
0100
,
1001
0000
1000
0001
0000
0011
0000
0100
,
1000
0020
0230
0302
,
1003
0001
0010
0001
0100
0010
1000
0000
,
1100
0000
0011
0000
1000
0001
0000
0202
,
0000
0000
0000
0000
0300
0000
1003
0001
,
0010
0100
0000
1000
0000
1010
0000
0101
,
0000
1000
0001
0000
0010
2002
3000
0000
,
0103
0020
0000
2030
0000
3002
0000
2003
,
0000
3100
0020
0000
0031
0200
0310
0000
,
1000
0001
0000
1000
0000
0100
0010
0000
,
0001
0100
0000
0100
0020
2000
0030
0000
,
3001
1000
0000
1010
0000
0100
0001
1000
,
0100
0010
0000
0011
0000
0000
1000
0001
,
1000
0010
0000
0110
0000
1001
0000
0110
,
0000
1000
0001
0000
0010
0200
1300
0000
,
0001
1000
0000
1010
0000
0101
0000
0011
,
0000
0100
0010
0000
0001
2000
3100
0000
,
1000
0010
0000
0100
0000
0010
1000
0001
,
0010
0100
0000
1000
0000
0001
0000
0100
,
0001
0000
1000
0100
1000
0000
0110
0000
,
0001
1000
0000
1001
0000
0010
0100
0010
,
1000
0000
1100
0000
0101
0000
1000
0001
,
0010
0100
0010
0001
1000
0100
1000
0001
,
0100
0000
0110
0000
0101
0000
0010
1000
,
0100
1000
0001
0010
0001
0100
0010
1000
,
0001
0000
0011
0000
1010
0000
0001
1000
,
0001
0010
0100
1000
0010
1000
0001
0000
,
1100
0000
1010
0000
0100
1000
0001
0010
,
0100
0010
0001
0000
1000
0001
1000
0100
,
1001
0000
0010
1000
0100
0010
0001
1000
,
0001
0001
0001
0100
0010
1000
0001
1000
,
0100
0000
1010
0000
0100
0001
1000
0001
,
0010
0100
0010
0001
1000
1000
1000
0001
,
0101
0000
1100
0000
0101
0000
1000
0001
,
1000
0100
0010
0001
0100
0010
1000
0001
,
0011
0000
1000
0001
1000
0100
0000
0010
,
0001
0001
0001
1000
0001
0010
0100
1000
,
0010
0100
0000
0001
1000
0100
0000
0010
,
0001
1000
0000
1100
0000
1010
0000
0000
;

//---------------dance-single - ----------------
#NOTES:
     dance-single:
     :
     Easy:
     7:
     0.347578,0.469613,0.190827,0.095413,0.000000,255.000000,235.000000,20.000000,10.000000,0.000000,0.000000,0.347578,0.469613,0.190827,0.095413,0.000000,255.000000,235.000000,20.000000,10.000000,0.000000,0.000000:
0000
0000
0000
0000
,
0000
0000
0000
0000
,
0000
0000
0000
0000
,
0000
0000
0000
0000
,
0010
0001
0010
0100
,
1000
0001
1000
0000
,
0010
0010
1000
0001
,
2002
0000
3000
0100
,
0103
0010
0100
0001
,
1000
0001
0010
0100
,
1000
0010
1000
0001
,
1000
0100
0010
0001
,
0100
0001
1000
0010
,
1000
0100
0010
0001
,
0100
0100
0010
1000
,
0001
0001
1000
0010
,
0110
1000
0001
0000
,
0010
0001
0100
0000
,
0001
1000
0001
0000
,
0010
0100
1000
0000
,
0010
1000
0010
1000
,
0010
0100
0001
0010
,
0001
0100
1000
0000
,
1000
0100
0001
0100
,
1001
0010
0100
0000
,
0001
0001
0001
1000
,
0001
0110
1001
0000
,
0010
1000
0001
0001
,
0110
1000
0001
1000
,
0010
1000
0100
0000
,
1000
1000
0001
0001
,
0010
0001
0100
1000
,
1001
0010
1000
0100
,
1000
0001
0002
0003
,
0110
0001
0100
0010
,
1000
0100
0200
0300
,
1000
0010
1000
0001
,
0010
0001
0200
0300
,
0001
0010
0001
0100
,
1000
0001
1000
0010
,
1001
0100
0001
0010
,
0100
1000
2000
3000
,
0110
1000
0010
1000
,
0100
0010
0020
0030
,
0001
0100
0001
1000
,
0010
1000
0200
0300
,
0010
1001
0110
1001
,
1000
0001
0000
0110
0000
0000
0000
0000
,
0010
1000
0010
0100
,
0001
0010
0100
1000
,
0001
1000
0010
1000
,
0100
0010
0100
0100
,
0010
0001
0100
0001
,
1000
0010
1000
0001
,
1000
0100
0010
0100
,
1000
0010
0001
0100
,
0010
1000
0010
0100
,
0001
1000
0001
0000
0100
0010
0100
0000
,
0001
0010
1000
0100
,
0010
0001
0010
0000
1000
0100
1000
0000
,
1001
0110
1001
0110
,
0001
0010
0001
0000
1000
0100
1000
0000
,
0010
0010
1000
0100
,
1000
0000
0001
0000
0100
0010
0100
0000
,
0002
0003
2000
3000
,
0010
0100
0000
1001
0000
0110
0000
0000
;

//---------------dance-single - ----------------
#NOTES:
     dance-single:
     :
     Beginner:
     4:
     0.208547,0.281231,0.076331,0.000000,0.000000,153.000000,145.000000,8.000000,0.000000,0.000000,0.000000,0.208547,0.281231,0.076331,0.000000,0.000000,153.000000,145.000000,8.000000,0.000000,0.000000,0.000000:
0000
0000
0000
0000
,
0000
0000
0000
0000
,
0000
0000
0000
0000
,
0000
0000
0000
0000
,
0010
0000
1000
0000
,
0100
0100
0100
0000
,
1000
0000
0001
0000
,
1001
0000
0000
0000
,
0010
0010
0010
0000
,
1000
0000
0001
0000
,
0100
0100
0100
0000
,
0001
0000
0010
0000
,
0100
0100
0100
0000
,
0010
0000
0100
0000
,
1000
1000
1000
0000
,
0001
0001
0001
0000
,
0010
0000
0001
0000
,
0100
0000
0010
0000
,
1000
0000
0100
0000
,
1000
0000
0001
0000
,
1000
0000
0010
0000
,
0100
0000
0001
0000
,
0010
0000
0100
0000
,
1000
1000
1000
0000
,
1001
0000
0010
0000
,
1000
0000
0001
0000
,
0100
0100
0100
0000
,
0010
0000
0100
0000
,
0010
0000
1000
0000
,
0001
0001
0001
0000
,
0100
0100
0100
0000
,
0110
0000
0000
0000
,
1000
0000
0001
0000
,
1000
0000
0100
0000
,
0010
0000
0001
0000
,
1000
0000
0010
0000
,
0100
0000
0001
0000
,
1000
0000
0100
0000
,
0010
0000
0001
0000
,
0100
0000
0010
0000
,
1000
0000
0010
0000
,
1000
1000
1000
0000
,
0100
0000
0010
0000
,
0001
0001
0001
0000
,
0100
0000
0001
0000
,
1000
0000
0010
0000
,
0100
0000
0110
0000
,
1000
0000
0001
0000
,
0010
0010
0010
0000
,
0001
0000
0100
0000
,
0001
0001
0001
0000
,
1000
0000
0001
0000
,
0010
0010
0010
0000
,
0100
0000
1000
0000
,
0100
0100
0100
0000
,
1000
0000
0001
0000
,
1000
1000
1000
0000
,
0001
0001
0001
0000
,
1000
1000
1000
0000
,
0010
0010
0010
0000
,
0100
0100
0100
0000
,
0001
0000
1000
0000
,
0001
0001
0001
0000
,
0010
0010
0010
0000
,
1001
0000
0110
0000
,
1001
0000
0110
0000
;

//---------------dance-single - ----------------
#NOTES:
     dance-single:
     :
     Challenge:
     16:
     0.853269,0.907919,0.400737,0.057248,0.839639,626.000000,584.000000,42.000000,6.000000,0.000000,0.000000,0.853269,0.907919,0.400737,0.057248,0.839639,626.000000,584.000000,42.000000,6.000000,0.000000,0.000000:
// measure 0
0000
0000
0000
0000
,  // measure 1
0000
0000
0000
0000
,  // measure 2
0000
0000
0000
0000
,  // measure 3
0000
0000
0000
0000
,  // measure 4
0010
0000
0001
0000
0100
0000
0010
0000
1000
0100
0010
0100
1000
0000
0001
0000
,  // measure 5
0100
0000
1000
0000
0100
0000
0001
0000
0010
0100
1000
0100
0010
0000
0000
0000
,  // measure 6
0001
0000
0010
0000
0001
0000
0100
0000
1000
0000
0010
0100
0001
0000
1000
0000
,  // measure 7
1002
0000
0000
0000
0020
0000
0000
0000
0033
0001
0010
0100
1000
0010
0100
0001
,  // measure 8
1000
0000
0010
0000
0100
0000
0010
1000
0000
0001
0010
0001
0100
0010
1000
0001
,  // measure 9
0010
0100
1000
0100
0010
0000
0001
1000
0000
0001
0000
0100
0000
0010
0000
1000
,  // measure 10
0001
0000
0010
0001
0100
0000
0010
1000
0000
0100
1000
0010
0100
0001
1000
0001
,  // measure 11
0100
0010
1000
0010
0100
0000
0001
0010
0000
0001
0000
1000
0000
0010
0000
0100
,  // measure 12
0001
0000
1000
0001
0010
0000
0100
0010
0000
0001
1000
0001
0010
0100
1000
0001
,  // measure 13
0100
0001
0010
0001
0100
0000
0010
1000
0000
0100
0000
1000
0000
0001
0000
1000
,  // measure 14
0010
0000
0100
0001
0010
0000
0100
1000
0000
1000
0001
0000
0010
0001
0100
0000
,  // measure 15
0001
0010
0100
0010
0001
0000
1000
0100
0000
0100
0000
0100
0000
1000
0001
0000
,  // measure 16
1001
0000
0010
1000
0010
0100
0010
1000
,  // measure 17
0100
0001
0100
0010
0100
1000
0010
0100
,  // measure 18
0001
0010
0001
0100
0010
0001
0010
1000
,  // measure 19
0010
0001
0010
0100
0010
1000
0010
0000
,  // measure 20
0100
0001
0010
0100
1000
0010
1000
0001
,  // measure 21
1000
0100
0001
0100
1000
0010
0100
1000
,  // measure 22
0100
0001
0100
0010
1000
0001
0010
1100
,  // measure 23
0000
0011
0101
0000
1010
1001
0000
0110
,  // measure 24
1001
0000
0000
0000
1010
0000
0001
0100
0010
0000
1000
0000
0100
0000
0001
0000
,  // measure 25
0100
0000
0010
0000
0100
0000
1000
0000
0001
0000
0000
0001
0000
0000
0001
0000
,  // measure 26
0100
0000
0101
0000
1100
0010
1000
0000
,  // measure 27
1001
0000
0000
0000
1010
0000
0101
0000
0000
0000
0011
0000
0000
0000
1000
0100
,  // measure 28
0010
0001
0100
0010
0100
1000
0100
0001
,  // measure 29
0100
0000
0010
0000
1000
0000
0001
0010
0100
0000
1000
0001
1000
0000
0000
0000
,  // measure 30
0011
0000
1100
0000
1001
0110
0000
1010
,  // measure 31
0001
1000
0000
0001
1000
0000
0001
1000
0000
0000
0010
0000
1000
0100
0010
0001
,  // measure 32
0100
0010
0100
0001
0010
1000
0001
1000
,  // measure 33
0100
0010
0001
0100
0010
1020
0130
0000
,  // measure 34
0001
0010
0001
1000
0100
0001
1000
0001
,  // measure 35
0100
0010
1000
0100
0010
0012
0103
0000
,  // measure 36
0001
0010
1000
0100
1000
0010
0001
0100
,  // measure 37
0001
0000
1000
0000
0001
0000
0010
0000
1000
0000
0100
0000
0001
0010
0001
0000
,  // measure 38
1000
0000
0010
0000
1000
0000
0001
0000
0010
0000
0100
1000
0001
0000
0100
0000
,  // measure 39
0110
0000
1010
0000
0000
0000
1100
0000
0000
0000
0001
0010
0100
1000
0001
0000
,  // measure 40
0100
0000
0010
0000
1000
0000
0001
0000
0010
0000
1000
0000
0100
0010
0001
0000
,  // measure 41
0100
0000
0001
0000
0010
0000
0100
0000
1000
0000
2100
0000
3001
0000
0100
0010
,  // measure 42
1000
0001
0010
0001
1000
0100
0010
0001
,  // measure 43
0100
0000
1000
0000
0010
0000
0100
0000
0001
0000
0102
0000
0013
0000
0001
1000
,  // measure 44
0100
0010
0001
0100
0001
1000
0010
0001
,  // measure 45
0100
0000
0001
0000
1000
0000
0100
0000
0010
0000
0001
0000
0100
0010
1000
0001
,  // measure 46
0100
0000
0101
1010
1100
0000
1001
0000
,  // measure 47
0011
0000
1100
0000
0000
0000
1001
0000
0000
0000
0010
1000
0001
0010
0001
1000
,  // measure 48
0100
0000
0010
0001
0100
0000
0001
1000
0000
0010
1000
0010
0100
0001
0010
0100
,  // measure 49
1000
0001
0100
0001
1000
0000
0010
0100
0000
0001
0000
0010
0000
0001
0000
1000
,  // measure 50
0100
0000
0010
0001
1000
0000
0001
0100
0000
0010
0100
0001
1000
0100
1000
0010
,  // measure 51
0100
0001
0010
0001
0100
0000
0010
1000
0000
0100
0000
1000
0000
0001
0000
0010
,  // measure 52
0100
0000
1000
0001
1000
0000
0010
0100
0000
0001
0010
0100
0010
0001
1000
0010
,  // measure 53
0100
0001
1000
0001
0100
0000
0010
1000
0000
0010
0000
1000
0000
0001
0000
0100
,  // measure 54
0010
0000
1000
0001
0010
0000
0100
0010
0000
0001
1000
0000
0010
1000
0100
0000
,  // measure 55
1000
0001
0100
0000
0010
0000
1000
0100
0000
0010
0000
0001
1000
0001
0010
0100
,  // measure 56
1000
0000
0010
0000
0100
0000
0001
1000
0000
0001
0010
0100
0010
0100
1000
0001
,  // measure 57
0100
0010
1000
0001
0100
0000
0010
1000
0001
0100
0000
0010
0000
1000
0100
0010
,  // measure 58
0001
0000
0100
0001
1000
0000
0100
0010
0000
0010
0001
0100
0001
1000
0010
0100
,  // measure 59
0001
0010
0100
1000
0001
0000
0100
0010
0000
1000
0010
1000
0001
0100
0010
1000
,  // measure 60
0001
0000
0010
0100
1000
0000
0010
0100
1000
0001
1000
0010
0100
0001
0010
0100
,  // measure 61
1000
0000
0001
0000
1000
0001
0010
0100
0000
1000
0000
0010
0000
0100
0000
0001
,  // measure 62
0100
0000
0010
0100
0001
0000
1000
0100
0000
1000
0001
0000
0010
0001
0100
0000
,  // measure 63
0001
0010
0100
1000
0010
0000
0100
0001
0000
1000
0000
0010
1000
0001
1000
0100
,  // measure 64
0010
0011
0000
0100
1010
0101
0000
1000
,  // measure 65
1100
0101
0000
1001
0000
0011
0000
0000
;
